#VERSION:0.83;
#TITLE:Painful Fate;
#SUBTITLE:;
#ARTIST:猫叉Master;
#TITLETRANSLIT:;
#SUBTITLETRANSLIT:;
#ARTISTTRANSLIT:Nekomata Master;
#GENRE:Drum & Bass;
#ORIGIN:;
#CREDIT:;
#BANNER:Painful Fate.png;
#BACKGROUND:Painful Fate-bg.png;
#PREVIEWVID:;
#JACKET:Painful Fate-jacket.png;
#CDIMAGE:;
#DISCIMAGE:;
#LYRICSPATH:;
#CDTITLE:cdtitle.png;
#MUSIC:Painful Fate.ogg;
#OFFSET:1.096673;
#SAMPLESTART:78.590828;
#SAMPLELENGTH:17.500000;
#SELECTABLE:YES;
#BPMS:0.000=192.000,
64.000=96.000,
66.000=192.000,
194.000=96.000,
222.000=192.000;
#STOPS:;
#DELAYS:;
#WARPS:;
#TIMESIGNATURES:0.000=4=4;
#TICKCOUNTS:0.000=4;
#COMBOS:0.000=1;
#SPEEDS:0.000=1.000=0.000=0;
#SCROLLS:0.000=0.500,
36.000=1.000,
63.000=0.500,
64.000=1.000,
193.000=0.500,
194.000=1.000,
212.000=1.500,
221.500=1.000,
222.000=0.500,
225.000=1.000;
#FAKES:;
#LABELS:0.000=Song Start;
#BGCHANGES:1.000=Painful Fate.mp4=1.000=1=0=0=StretchNoLoop==CrossFade==,
99999=-nosongbg-=1.000=0=0=0 // don't automatically add -songbackground-
;
#KEYSOUNDS:;
#ATTACKS:
;

//---------------dance-single - ----------------
#NOTEDATA:;
#CHARTNAME:;
#STEPSTYPE:dance-single;
#DESCRIPTION:;
#CHARTSTYLE:;
#DIFFICULTY:Challenge;
#METER:15;
#RADARVALUES:0.718717,1.099099,0.388220,0.713058,0.459526,635.000000,586.000000,49.000000,90.000000,22.000000,0.000000,0.000000,0.000000,0.000000,0.718717,1.099099,0.388220,0.713058,0.459526,635.000000,586.000000,49.000000,90.000000,22.000000,0.000000,0.000000,0.000000,0.000000;
#CREDIT:;
#NOTES:
0000
0000
0000
0000
,
0000
0000
0000
0000
,
0000
0000
0000
0000
,
0000
0000
0000
0000
,
0000
0000
0000
0000
,
0000
0000
0000
0000
,
0000
0000
0000
0000
,
0000
0000
0000
0000
,
0000
0000
0000
0000
,
0001
0010
0100
1000
0001
0010
0100
1000
,
0010
0000
0000
0000
0010
0000
0010
0000
1000
0001
1000
0000
0100
0000
1000
0001
,
1000
0010
0100
0001
1000
0010
0100
0001
,
0010
0000
0000
0000
0010
0000
0010
0000
0001
1000
0001
0000
0100
0000
0001
1000
,
0001
0010
0100
1000
0001
0100
0010
1000
,
0100
0000
0000
0000
0100
0000
0100
0000
0010
0001
1000
0000
0001
0000
1000
0001
,
0100
0000
0000
0100
0010
0000
0000
0010
1000
0000
0000
1000
0200
0000
0000
0000
,
0000
1000
0310
0001
1002
0000
1000
0100
,
0000
0100
1003
0000
1001
0000
1001
1000
,
0010
0100
0001
0000
1000
0000
0100
0010
0002
0000
0000
0000
0010
0000
1000
0000
,
0000
0000
1000
0000
0103
0000
0000
0000
0001
0000
1000
0010
1000
0000
0001
0010
,
0001
0100
0010
1000
2001
0000
0100
0001
,
0000
0001
3100
0000
1001
0000
1001
0001
,
0010
0100
1000
0000
0001
0000
0100
0010
2000
0000
0000
0000
0010
0000
0001
0000
,
0000
0001
3100
0000
1000
1001
0000
1000
,
0010
0100
0010
0100
0001
1000
0001
1000
0200
0000
0000
0000
1000
0000
0010
0000
,
0000
0010
0301
0000
0101
0000
0110
0100
,
1000
0001
1000
0000
0010
0000
1000
0010
0200
0000
0000
0000
0001
0000
0010
0000
,
0000
0010
1300
0000
1100
0000
0110
0100
,
0001
1000
0001
0000
0010
0000
0100
0000
0120
0000
0000
0000
0001
0000
0100
0000
,
0000
1000
0130
0000
0011
0000
1100
1000
,
0001
0100
0010
0000
1000
0000
0001
1000
0001
0000
1000
0100
1000
0000
0001
0100
,
0001
1000
2002
0000
3003
0000
2000
0000
,
3002
0023
0230
2300
3001
1000
1002
0000
,
0100
0000
0000
0000
0000
0000
0000
0003
0102
0000
0000
0000
0000
0000
0000
0000
0000
0000
0000
0000
0000
0000
0000
0000
1000
0000
0000
0000
0000
0000
0000
0003
1002
0000
0000
0000
0000
0000
0000
0000
0000
0000
0000
0000
0000
0000
0000
0000
0100
0000
0000
0000
0000
0000
0000
0003
1002
0000
0000
0000
0000
0000
0000
0000
,
0000
0000
0000
0000
0000
0000
0000
0000
1000
0000
0000
0000
0000
0000
0000
0003
0012
0000
0000
0000
0000
0000
0000
0000
0000
0000
0000
0000
0000
0000
0000
0000
0103
0000
0000
0000
0000
0000
0000
0000
0000
0000
0000
0000
0000
0000
0000
0000
0001
0000
0000
0000
0000
0000
0000
0000
0100
0000
0000
0000
0001
0000
0000
0000
,
0100
0000
0010
0000
1000
0010
1000
0000
0001
0000
0010
0001
0010
0000
0100
0000
,
1000
0000
1000
0000
0001
0000
0100
0010
1000
0000
0001
0000
2001
0000
0000
0000
,
0100
0000
0000
0000
0000
0000
0000
3000
2100
0000
0000
0000
0000
0000
0000
0000
0000
0000
0000
0000
0000
0000
0000
0000
0001
0000
0000
0000
0000
0000
0000
3000
2001
0000
0000
0000
0000
0000
0000
0000
0000
0000
0000
0000
0000
0000
0000
0000
0100
0000
0000
0000
0000
0000
0000
3000
2001
0000
0000
0000
0000
0000
0000
0000
,
0000
0000
0000
0000
0000
0000
0000
0000
0001
0000
0000
0000
0000
0000
0000
3000
2010
0000
0000
0000
0000
0000
0000
0000
0000
0000
0000
0000
0000
0000
0000
0000
3100
0000
0000
0000
0000
0000
0000
0000
0000
0000
0000
0000
0000
0000
0000
0000
1000
0000
0000
0000
0000
0000
0000
0000
0100
0000
0000
0000
1000
0000
0000
0000
,
0100
0000
0010
0000
0001
0010
0001
0000
1000
0000
0010
1000
0010
0000
0100
0000
,
0001
1000
0001
1000
0100
0010
0100
0010
0001
0000
1000
0000
2010
0000
0001
0000
,
0000
0000
0000
0000
0000
0000
0000
0000
0001
0000
0000
3000
2000
0000
0000
0000
0100
0000
0000
0000
0000
0000
0000
0000
0000
0000
0000
0000
0000
0000
0000
0000
0100
0000
0000
3000
2000
0000
0000
0000
0001
0000
0000
0000
0000
0000
0000
0000
0000
0000
0000
0000
0000
0000
0000
0000
0001
0000
0000
0000
0000
0000
0000
0000
,
0001
0000
0000
3000
1000
0000
0000
0000
0010
0000
0000
0000
0000
0000
0000
0000
2001
0000
0000
0000
0000
0000
0000
0000
0000
0000
0000
0000
0000
0000
0000
0000
3100
0000
0000
0000
0000
0000
0000
0000
0000
0000
0000
0000
0000
0000
0000
0000
0010
0000
0000
0000
0000
0000
0000
0000
0001
0000
0000
0000
1000
0000
0000
0000
,
0010
0000
0100
0000
0010
1000
0001
0000
0010
0000
0100
1000
0001
0000
0100
0000
,
0010
0000
0010
0000
1000
0000
0001
1000
0100
0000
0010
0000
0012
0000
1000
0000
,
0000
0000
0000
0000
0000
0000
0000
0000
1000
0000
0000
0003
0002
0000
0000
0000
0100
0000
0000
0000
0000
0000
0000
0000
0000
0000
0000
0000
0000
0000
0000
0000
0100
0000
0000
0003
0002
0000
0000
0000
1000
0000
0000
0000
0000
0000
0000
0000
0000
0000
0000
0000
0000
0000
0000
0000
1000
0000
0000
0000
0000
0000
0000
0000
,
1000
0000
0000
0003
0001
0000
0000
0000
0010
0000
0000
0000
0000
0000
0000
0000
1002
0000
0000
0000
0000
0000
0000
0000
0000
0000
0000
0000
0000
0000
0000
0000
1003
0000
0000
0000
0000
0000
0000
0000
0001
0000
0000
0000
0000
0000
0000
0000
0100
0000
0000
0000
0010
0000
0000
0000
0100
0000
0000
0000
0000
0000
0000
0000
,
1000
0000
0100
0010
0100
0000
0001
0000
0010
0100
0010
0000
1000
0000
0010
0100
,
0010
0000
0000
0000
0001
0000
0000
0000
2000
0000
0000
0000
0000
0000
0000
0000
0000
0000
0000
0000
0000
0000
0000
0000
0000
0000
0000
0000
3001
0100
0001
0100
,
0020
0030
2000
3002
0003
0000
2000
3200
,
0300
0000
0000
0000
0000
0000
0000
0000
2000
0000
0000
0000
3002
0000
0000
0000
0003
0000
0100
0000
0200
0000
0000
0000
0300
0000
0000
0000
0010
1000
0010
1000
,
0001
1000
1000
0100
1000
1000
0002
0000
0000
0000
0203
0000
2300
0000
3002
0000
,
0000
0000
0000
0000
0000
0000
0000
0000
0013
0000
1000
0000
0002
0000
0000
0000
0003
0000
0000
0000
2000
0000
0000
0000
3000
0000
0000
0000
1000
0100
1000
0100
,
0020
0000
0031
0100
0010
0000
2010
0000
3001
0000
1000
0100
0010
0000
0012
0000
,
1003
0000
0000
0000
0010
0000
0100
0000
0001
0000
0000
0000
2001
0000
0000
0000
3100
0000
0000
0000
0010
0000
0010
0000
0100
0010
0100
0000
0010
0001
0010
0001
,
1000
0010
0010
0100
0001
0001
0020
0000
0000
0000
0000
0000
0000
0000
0000
0000
,
0000
0000
0000
0000
0031
0010
0100
1000
0002
0000
0000
0000
0103
0000
010M
0000
,
1000
0000
0000
0000
1002
0000
0000
0000
0010
0000
0000
0000
0013
0000
001M
1000
,
0001
0000
1002
0000
0100
0000
0103
010M
,
1000
0000
2001
0000
3010
0200
0302
0000
,
1003
0000
1000
0000
0001
0010
0100
1000
0001
0000
0100
000M
0100
0000
1000
0000
,
0010
M000
0010
0000
0002
0000
0000
0000
0010
0000
0000
0000
2003
0000
0000
0000
,
3020
0000
0032
0000
1000
0000
0013
1000
,
0001
0010
2000
0000
0001
0000
3020
0000
,
0031
0000
0001
0000
1000
0010
0100
0001
2000
0000
0000
0000
3100
0000
M100
0001
,
1000
0000
0000
0000
2001
0000
0000
0000
0010
0000
0000
0000
3010
0000
M010
0001
,
1000
0000
0000
0000
2001
0000
0000
0000
0100
0000
0000
0000
3100
0000
M100
0001
,
1000
1002
0100
1003
,
0001
0000
0001
0000
1000
0100
0010
0001
1000
0000
0100
M000
0100
0000
0001
0000
,
0010
000M
0010
0000
2010
0000
0000
0000
0000
0000
0010
0000
3010
0000
0000
0000
,
0010
1000
0010
1000
0001
0010
0100
1000
0002
0000
0000
0000
0013
0000
001M
0000
,
1000
0000
0000
0000
2001
0000
0000
0000
0100
0000
0000
0000
3010
0000
M010
0001
,
1000
0000
1002
0000
0100
0000
0013
001M
,
1000
0000
1002
0000
0013
0200
2300
0000
,
3001
0000
0001
0000
1000
0010
0100
0001
1000
0000
0100
M000
0100
0000
0001
0000
,
0010
000M
0010
0000
2000
0000
0000
0000
0010
0000
0000
0000
3002
0000
0000
0000
,
0023
0000
2030
0000
0001
0000
3010
0001
,
1000
0010
0002
0000
1000
0000
0023
0000
,
1030
0000
1000
0000
0001
0010
0100
1000
0002
0000
0000
0000
0103
0000
010M
1000
,
0001
0000
0000
0000
2001
0000
0000
0000
0010
0000
0000
0000
3010
0000
M010
0001
,
0100
0000
0000
0000
0102
0000
0000
0000
0010
0000
0000
0000
0013
0000
001M
1000
,
0100
0000
2100
0000
0010
0000
3010
0100
,
0001
0000
1000
0000
0001
0010
0100
1000
0001
0000
0100
000M
0100
0000
1000
0000
,
0010
M000
0010
0000
0210
0000
0000
0000
0000
0000
0001
0000
0301
0000
0100
0000
,
1000
0000
1000
0000
0001
0000
0100
0010
1000
0000
0100
M000
0100
0000
0001
0000
,
0010
000M
0010
0000
0210
0000
0000
0000
0000
0000
1000
0000
1300
0000
0100
0000
,
0001
0000
0001
0000
1000
0100
0010
0001
1000
0000
0010
0000
0100
0000
1001
0000
,
0100
0010
2002
0000
0000
0000
0000
0000
,
0000
0000
0000
0000
,
0000
3003
0010
0000
;

//---------------dance-single - ----------------
#NOTEDATA:;
#CHARTNAME:;
#STEPSTYPE:dance-single;
#DESCRIPTION:;
#CHARTSTYLE:;
#DIFFICULTY:Hard;
#METER:13;
#RADARVALUES:0.585160,0.957280,0.364452,0.792286,0.063383,517.000000,471.000000,46.000000,100.000000,0.000000,0.000000,0.000000,0.000000,0.000000,0.585160,0.957280,0.364452,0.792286,0.063383,517.000000,471.000000,46.000000,100.000000,0.000000,0.000000,0.000000,0.000000,0.000000;
#CREDIT:;
#NOTES:
0000
0000
0000
0000
,
0000
0000
0000
0000
,
0000
0000
0000
0000
,
0000
0000
0000
0000
,
0000
0000
0000
0000
,
0000
0000
0000
0000
,
0000
0000
0000
0000
,
0000
0000
0000
0000
,
0000
0000
0000
0000
,
0001
0000
0010
0001
1000
0001
0010
0000
,
0100
0000
0100
0010
0001
0100
0010
0000
,
1000
0000
0010
1000
0001
1000
0010
0000
,
0100
0000
0100
0010
1000
0100
0010
0000
,
0001
0000
0010
0001
1000
0010
0100
0000
,
0100
0000
0010
1000
0001
0010
0100
0000
,
1000
0001
0100
0020
,
0000
1000
0130
0001
2001
0000
0010
0010
,
0000
0001
3001
0000
1001
0000
1000
0100
,
0001
0100
1000
0000
1002
0000
0010
0010
,
0000
1000
1003
0000
1001
0000
0001
0100
,
1000
0100
0001
0000
2010
0000
0001
0001
,
0000
0100
3100
0000
0110
0000
0001
0010
,
1000
0010
0001
0000
0012
0000
1000
1000
,
0000
0100
0103
0000
0010
1000
0000
0010
,
0001
0010
1000
0000
2001
0000
0100
3200
,
0000
0001
0301
0000
0101
0000
0100
0010
,
0001
1000
0001
0000
1002
0000
0100
0203
,
0000
1000
1300
0000
1100
0000
0100
0010
,
1000
0001
1000
0000
1002
0000
0010
2003
,
0000
0010
3001
0000
1001
0000
0001
0010
,
0100
1000
0001
0000
0100
0010
0000
1000
,
0100
0010
0002
0000
0003
0000
2000
0000
,
3002
0203
0320
2030
3001
0000
1002
0000
,
0100
0100
0000
1000
1000
0000
0100
1000
,
0000
1000
0023
0000
1030
0000
0010
0001
,
1000
1000
0001
0100
0100
0001
1000
0001
,
0010
0001
1000
0010
0100
0000
2001
0000
,
0100
0100
0000
0001
0001
0000
0100
0001
,
0000
0001
3020
0000
0031
0000
0010
1000
,
0001
0001
1000
0100
0100
1000
0001
1000
,
0010
0100
0010
0100
0001
0000
1002
0000
,
0013
0012
0000
1003
1002
0000
0013
1002
,
0000
1003
0201
0000
1300
0000
0100
0001
,
1000
1000
0100
0010
0010
0001
0010
1000
,
0010
0001
0100
0010
1000
0000
2001
0000
,
3010
2010
0000
3001
2001
0000
3010
2001
,
0000
3001
1200
0000
0301
0000
0100
0010
,
0010
0100
1000
1000
0001
0100
0100
0010
,
1000
0000
1000
0000
0002
0000
0000
0000
0000
0000
0000
0000
0000
0000
1003
0100
,
0020
0030
0002
2003
3000
0000
0002
0203
,
0300
0000
0000
0000
0002
0000
2003
0000
3000
1000
0200
0000
0300
0000
0010
0001
,
1000
0100
0010
0001
0100
0010
2000
0000
0000
0000
3020
0000
0032
0000
2003
0000
,
0000
0000
0000
0000
3100
0001
2000
0000
3000
0000
0002
0000
0003
0000
1000
0100
,
0020
0000
0031
1000
0010
0000
2010
0000
3001
0000
1000
0001
0010
0000
0012
0000
,
1003
0000
0010
0100
0010
0000
2001
0000
3100
0000
1000
0001
1000
0000
0010
1000
,
0001
0100
0010
1000
0100
0010
0002
0000
0000
0000
0000
0000
0000
0000
0000
0000
,
0000
0000
1003
0010
0002
0000
0013
1000
,
0001
0000
2001
0000
3001
0010
1000
0010
,
0001
0000
2001
0000
3001
0100
1000
0100
,
0001
0000
1002
0000
0013
0200
2300
0000
,
3001
0000
0100
0010
2000
0100
3100
0020
,
0100
0130
0002
0000
0100
0000
2003
0000
,
3020
0032
0010
0010
,
1003
0010
0200
0000
0001
0000
0320
0000
,
1030
0000
0001
0010
2000
0000
3010
0001
,
1000
0000
1002
0000
1003
0010
0001
0010
,
1000
0000
1002
0000
1003
0100
0001
0100
,
1000
1002
0100
1003
,
0100
0010
0001
1000
0002
0100
0103
0020
,
1000
1030
1002
0000
0000
0103
0010
0100
,
0001
1000
0001
0010
2000
0000
3001
0100
,
1000
0000
0012
0000
1003
0010
0001
0010
,
0100
0000
2010
0000
3001
0010
1000
0010
,
0100
0000
2001
0000
3010
0200
0302
0000
,
1003
0000
0100
0010
0002
0100
0103
0020
,
0100
0130
2000
0000
0100
0000
3002
0000
,
0023
2030
0010
0010
,
3001
0010
0200
0000
1000
0000
0320
0000
,
0031
0000
1000
0010
0002
0000
1003
0100
,
0001
0000
2001
0000
3100
0001
1000
0010
,
0001
0000
1002
0000
0103
1000
0001
0010
,
1000
2001
0100
3001
,
0100
0010
1000
0001
2000
0100
3100
0020
,
0100
0130
0012
0000
0000
0013
1000
0010
,
0001
1000
0100
0010
0002
0100
0103
0020
,
0100
0130
2010
0000
0000
3010
0001
0010
,
1000
0001
0100
0010
2010
0000
3001
0012
,
0000
0103
2002
0000
0000
0000
0000
0000
,
0000
0000
0000
0000
,
0000
3003
0010
0000
;

//---------------dance-single - ----------------
#NOTEDATA:;
#CHARTNAME:;
#STEPSTYPE:dance-single;
#DESCRIPTION:;
#CHARTSTYLE:;
#DIFFICULTY:Medium;
#METER:10;
#RADARVALUES:0.433494,0.709096,0.380297,0.602138,0.007923,383.000000,335.000000,48.000000,76.000000,0.000000,0.000000,0.000000,0.000000,0.000000,0.433494,0.709096,0.380297,0.602138,0.007923,383.000000,335.000000,48.000000,76.000000,0.000000,0.000000,0.000000,0.000000,0.000000;
#CREDIT:;
#NOTES:
0000
0000
0000
0000
,
0000
0000
0000
0000
,
0000
0000
0000
0000
,
0000
0000
0000
0000
,
0000
0000
0000
0000
,
0000
0000
0000
0000
,
0000
0000
0000
0000
,
0000
0000
0000
0000
,
0000
0000
0000
0000
,
0001
0000
0010
0000
0100
0010
0100
0000
,
1000
0000
1000
0000
0100
0010
0001
0000
,
1000
0000
0010
0000
0100
0010
0100
0000
,
0001
0000
0001
0000
0100
0010
1000
0000
,
0001
0000
0010
0000
0100
1000
0100
0000
,
1000
0000
0010
0000
0100
0001
0100
0000
,
0001
1000
0001
0020
,
0000
0000
0130
1000
1001
0000
1000
0010
,
0000
1000
0020
0000
1000
0000
0100
0000
,
1030
0000
0001
0000
1001
0000
0001
0010
,
0000
0001
0020
0000
0001
0000
0100
0000
,
0031
0000
1000
0000
1001
0000
0001
0100
,
0000
0001
0200
0000
0001
0000
0010
0000
,
0301
0000
1000
0000
1001
0000
1000
0100
,
0000
1000
0100
0000
0010
0001
0000
1000
,
0010
0000
0100
0000
0101
0000
1000
0010
,
0000
0010
0200
0000
0001
0000
0010
0000
,
0301
0000
1000
0000
1100
0000
0001
0010
,
0000
0010
0200
0000
1000
0000
0010
0000
,
1300
0000
0001
0000
1001
0000
1000
0010
,
0000
0100
0002
0000
1000
0000
1003
0000
,
0001
0010
0100
0000
1000
0001
0000
0100
,
0010
0220
0330
1000
,
0010
0100
0001
2001
,
0000
0001
0000
0000
0001
0000
0000
0010
,
0000
0000
3200
0000
0310
0000
0001
1000
,
0000
1000
0100
0000
0100
0010
0000
0010
,
0001
1000
0001
1002
,
0000
1000
0000
0000
1000
0000
0000
0010
,
0000
0000
0203
0000
0310
0000
1000
0001
,
0000
0001
0100
0000
0100
0010
0000
0010
,
1000
0001
0011
2100
,
0000
0100
0000
0000
0100
0000
0000
0001
,
0000
0000
3020
0000
0031
0000
0010
1000
,
0000
0010
1000
0000
0001
0100
0000
0010
,
1000
0001
1010
0102
,
0000
0100
0000
0000
0100
0000
0000
1000
,
0000
0000
0023
0000
1030
0000
0010
0001
,
0000
1000
0100
0000
0010
0001
0000
1000
,
0100
0000
0020
0000
0000
0000
0000
0031
,
2000
3000
0010
0020
0030
0000
0100
0200
,
0300
0000
0001
0002
0003
2000
3000
0100
,
0100
0000
0000
0010
0000
0000
0002
0000
0003
0000
2000
0000
3020
0000
0230
0000
,
0000
0000
0301
0002
0003
2000
3000
0001
,
2000
3100
0010
0012
0103
0100
0010
2010
,
0100
3100
0010
1002
0100
0103
0010
0100
,
0001
0000
0000
1000
0000
0000
2001
0000
0000
0000
0000
0000
0000
0000
0000
0000
,
0000
0000
3001
1000
0002
0000
0003
0000
,
0011
0000
2200
0000
3300
0000
1000
0010
,
1000
0202
0303
0001
,
0011
0000
1002
0000
0000
0100
0103
0000
,
0101
0000
1000
0100
0010
0000
0001
0100
,
0000
0100
0020
0000
0000
0000
2030
0000
,
3020
0032
0000
0013
,
1000
0001
0020
0000
0030
0000
2001
0000
,
3010
0000
1000
0001
2000
0000
3010
1000
,
0010
0000
0202
0000
0303
0000
0001
0010
,
0001
0000
2200
0000
3300
0000
1000
0010
,
1000
2001
0000
0100
,
3100
0000
0010
0001
1000
0000
0000
0110
,
0000
2002
3003
1001
,
1001
0000
0001
0100
0020
0000
0030
0000
,
1010
0000
2002
0000
3003
0000
1000
0001
,
0010
2002
3003
0001
,
1010
0000
2001
0000
0000
0100
3100
0000
,
1100
0000
0001
0100
0010
0000
1000
0100
,
0000
0100
0020
0000
0000
0000
0032
0000
,
0023
2030
0000
3010
,
0001
1000
0020
0000
0030
0000
1002
0000
,
0013
0000
0100
1000
0002
0000
1003
0010
,
0100
0000
0220
0000
0330
0000
0010
1000
,
0100
0000
0022
0000
0033
0000
0010
0001
,
0100
2010
0000
0001
,
3001
0000
0010
0100
1000
0000
0000
1001
,
0000
1020
0000
1000
,
1030
0000
0010
0100
0001
0000
0000
1001
,
0000
0021
0000
0001
,
0031
0000
1000
0001
0100
0000
0000
0110
,
0000
2002
0000
0000
,
0000
0000
0000
0000
,
0000
3003
0010
0000
;

//---------------dance-single - ----------------
#NOTEDATA:;
#CHARTNAME:;
#STEPSTYPE:dance-single;
#DESCRIPTION:;
#CHARTSTYLE:;
#DIFFICULTY:Easy;
#METER:6;
#RADARVALUES:0.265982,0.460913,0.221840,0.728903,0.000000,235.000000,207.000000,28.000000,92.000000,0.000000,0.000000,0.000000,0.000000,0.000000,0.265982,0.460913,0.221840,0.728903,0.000000,235.000000,207.000000,28.000000,92.000000,0.000000,0.000000,0.000000,0.000000,0.000000;
#CREDIT:;
#NOTES:
0000
0000
0000
0000
,
0000
0000
0000
0000
,
0000
0000
0000
0000
,
0000
0000
0000
0000
,
0000
0000
0000
0000
,
0000
0000
0000
0000
,
0000
0000
0000
0000
,
0000
0000
0000
0000
,
0000
0000
0000
0000
,
0001
0000
0010
0000
,
0001
0010
0001
0000
,
1000
0000
0010
0000
,
1000
0010
1000
0000
,
0001
0000
0010
0000
,
0100
1000
0001
0000
,
0100
0010
0100
0020
,
0000
0030
1000
0000
,
0010
0000
1000
1000
,
0010
0100
0001
0000
,
0010
0000
0001
0001
,
0010
0100
1000
0000
,
0001
0000
1000
1000
,
0001
0100
0010
0000
,
0100
0000
1001
0000
,
0001
1000
1002
0000
,
0023
0000
0130
0100
,
0010
0001
2001
0000
,
3020
0000
0130
0100
,
0010
1000
2001
0000
,
3200
0000
0310
0001
,
1000
0010
0100
0000
,
0001
2002
3003
0001
,
0010
0100
1000
2200
,
0000
3300
0000
0000
2002
0000
0000
3003
,
0000
1020
0130
0002
,
0003
0002
0003
1000
,
0010
0100
0001
0202
,
0000
0303
0000
0000
2002
0000
0000
3003
,
0000
0021
0130
2000
,
3000
2000
3000
0001
,
0100
0010
1000
2020
,
0000
3030
0000
0000
0202
0000
0000
0303
,
0000
1002
0013
0200
,
0300
2000
3000
0010
,
0100
0001
0010
0022
,
0000
0033
0000
0000
2200
0000
0000
3300
,
0000
2001
3010
0220
,
0000
0330
0000
0000
2002
0000
0000
3003
,
0000
0020
0030
0000
,
0002
0003
0000
0020
0030
0000
0000
0200
,
0300
0000
0000
2000
3000
0002
0003
0000
,
2000
0000
0000
3020
0000
0000
0000
0230
,
0000
0000
0000
0302
0003
2000
3000
0000
,
0001
0000
0010
0010
0100
0000
1000
1000
,
0001
0000
0100
0100
0010
0000
1000
0001
,
2000
0000
0000
0002
0000
0000
0000
0000
,
3003
1000
0002
0000
,
0010
2003
0000
0000
,
0010
3002
0000
0000
,
0100
2003
0000
3200
,
0000
0310
0001
1000
,
0001
0200
0000
2300
,
3200
0302
0000
0000
,
0023
2030
0000
3020
,
0000
0031
2000
0000
,
0010
3002
0000
0000
,
0010
2003
0000
0000
,
0100
3002
0000
0100
,
0103
0000
0000
0000
0010
0000
0000
0010
,
0000
2002
3003
1000
,
1000
0001
0200
0000
,
0001
0320
0000
0000
,
1000
0230
0000
0000
,
0001
0320
0000
2030
,
0000
3010
1000
0001
,
1000
0200
0000
0302
,
0203
2300
0000
0000
,
3020
0032
0000
0023
,
0000
1030
0002
0000
,
0013
2100
0000
0000
,
3010
0102
0000
0000
,
0013
2001
0000
0001
,
3001
0000
0000
0000
1000
0000
0000
1000
,
0000
2020
3030
1000
,
1000
0000
0000
0000
0001
0000
0000
0001
,
0000
0022
0033
0001
,
0001
0000
0000
0000
1001
0000
0000
0110
,
0000
2002
0000
0000
,
0000
0000
0000
0000
,
0000
3003
0010
0000
;

//---------------dance-single - ----------------
#NOTEDATA:;
#CHARTNAME:;
#STEPSTYPE:dance-single;
#DESCRIPTION:;
#CHARTSTYLE:;
#DIFFICULTY:Beginner;
#METER:3;
#RADARVALUES:0.141480,0.192129,0.023769,0.134689,0.000000,125.000000,122.000000,3.000000,17.000000,0.000000,0.000000,0.000000,0.000000,0.000000,0.141480,0.192129,0.023769,0.134689,0.000000,125.000000,122.000000,3.000000,17.000000,0.000000,0.000000,0.000000,0.000000,0.000000;
#CREDIT:;
#OFFSET:1.096673;
#BPMS:0.000000=192.000000
;
#STOPS:;
#DELAYS:;
#WARPS:;
#TIMESIGNATURES:0.000000=4=4
;
#TICKCOUNTS:0.000000=4
;
#COMBOS:0.000000=1
;
#SPEEDS:0.000000=1.000000=0.000000=0
;
#SCROLLS:0.000000=1.000000
;
#FAKES:;
#LABELS:0.000000=Song Start
;
#NOTES:
// measure 0
0000
0000
0000
0000
,  // measure 1
0000
0000
0000
0000
,  // measure 2
0000
0000
0000
0000
,  // measure 3
0000
0000
0000
0000
,  // measure 4
0000
0000
0000
0000
,  // measure 5
0000
0000
0000
0000
,  // measure 6
0000
0000
0000
0000
,  // measure 7
0000
0000
0000
0000
,  // measure 8
0000
0000
0000
0000
,  // measure 9
0001
0000
0000
0000
,  // measure 10
0001
0000
0000
0000
,  // measure 11
1000
0000
0000
0000
,  // measure 12
1000
0000
0000
0000
,  // measure 13
0010
0000
0000
0000
,  // measure 14
0100
0000
0000
0000
,  // measure 15
0020
0000
0000
0030
,  // measure 16
0000
0000
0000
0000
,  // measure 17
1000
0000
1000
0000
,  // measure 18
1000
0000
0000
0000
,  // measure 19
0001
0000
0001
0000
,  // measure 20
0001
0000
0000
0000
,  // measure 21
1000
0000
1000
0000
,  // measure 22
1000
0000
0000
0000
,  // measure 23
0001
0000
0001
0000
,  // measure 24
0001
0000
0000
0000
,  // measure 25
0010
0000
0010
0000
,  // measure 26
0010
0000
0000
0000
,  // measure 27
0100
0000
0100
0000
,  // measure 28
0100
0000
0000
0000
,  // measure 29
0010
0000
0010
0000
,  // measure 30
0010
0000
0000
0000
,  // measure 31
0100
0000
0000
1001
,  // measure 32
0000
0000
0000
0000
,  // measure 33
0000
0000
2000
0000
0000
3000
0000
0000
,  // measure 34
2000
0000
0000
3000
0000
0000
1000
0000
,  // measure 35
0000
1000
0000
1000
,  // measure 36
0000
0000
1000
1000
,  // measure 37
0000
0000
0002
0000
0000
0003
0000
0000
,  // measure 38
0002
0000
0000
0003
0000
0000
0001
0000
,  // measure 39
0000
0001
0000
0001
,  // measure 40
0000
0000
0001
0001
,  // measure 41
0000
0000
0020
0000
0000
0030
0000
0000
,  // measure 42
0020
0000
0000
0030
0000
0000
0010
0000
,  // measure 43
0000
0100
0000
0100
,  // measure 44
0000
0000
0010
0010
,  // measure 45
0000
0000
0200
0000
0000
0300
0000
0000
,  // measure 46
0200
0000
0000
0300
0000
0000
0100
0000
,  // measure 47
0000
0000
2000
0000
0000
3000
0000
0000
,  // measure 48
0002
0000
0000
0003
0000
0000
1001
0000
,  // measure 49
0000
0000
0000
0000
,  // measure 50
0001
0000
0000
0100
,  // measure 51
0000
0000
0000
0010
,  // measure 52
0000
0000
0000
1000
,  // measure 53
0000
1000
0000
0000
,  // measure 54
0100
0000
0000
0100
,  // measure 55
0000
0000
0000
0010
,  // measure 56
0000
0000
0000
0001
,  // measure 57
0000
0001
0000
0000
,  // measure 58
1000
0000
0000
0000
,  // measure 59
0010
0000
0000
0000
,  // measure 60
0100
0000
0000
0000
,  // measure 61
0001
0000
0000
0000
,  // measure 62
0010
0000
0000
0020
,  // measure 63
0000
0000
0030
0000
,  // measure 64
0001
0000
1000
1000
,  // measure 65
0000
0000
0001
0001
,  // measure 66
0000
0000
1000
1000
,  // measure 67
0000
0001
0000
0000
,  // measure 68
0100
0000
0100
0000
,  // measure 69
0100
0000
0000
0000
,  // measure 70
0010
0000
0000
0000
,  // measure 71
0010
0000
0000
0000
,  // measure 72
1000
0000
0001
0001
,  // measure 73
0000
0000
1000
1000
,  // measure 74
0000
0000
0001
0001
,  // measure 75
0000
0000
1000
0000
,  // measure 76
0200
0000
0000
0300
,  // measure 77
0000
0000
0000
0000
,  // measure 78
1000
0000
0010
0010
,  // measure 79
0000
0000
0100
0100
,  // measure 80
0000
0000
0001
0001
,  // measure 81
0000
1000
0000
0000
,  // measure 82
0100
0000
0100
0000
,  // measure 83
0100
0000
0000
0000
,  // measure 84
0010
0000
0000
0000
,  // measure 85
0010
0000
0000
0000
,  // measure 86
0001
0000
0100
0100
,  // measure 87
0000
0000
0010
0010
,  // measure 88
0000
0000
1000
1000
,  // measure 89
0000
0000
0001
0000
,  // measure 90
0020
0000
0000
0030
,  // measure 91
0000
0000
0010
0000
,  // measure 92
0200
0000
0000
0300
,  // measure 93
0000
0000
0100
0000
,  // measure 94
2002
0000
0000
3003
,  // measure 95
0000
0000
0000
0000
,  // measure 96
0000
0000
0000
0000
,  // measure 97
0010
0000
0000
0000
;
