#VERSION:0.83;
#TITLE:POODLE;
#SUBTITLE:;
#ARTIST:Y&Co.;
#TITLETRANSLIT:;
#SUBTITLETRANSLIT:;
#ARTISTTRANSLIT:;
#GENRE:Eurobeat;
#ORIGIN:;
#CREDIT:;
#BANNER:POODLE.png;
#BACKGROUND:POODLE-bg.png;
#PREVIEWVID:;
#JACKET:POODLE-jacket.png;
#CDIMAGE:;
#DISCIMAGE:;
#LYRICSPATH:;
#CDTITLE:cdtitle.png;
#MUSIC:POODLE.ogg;
#OFFSET:1.143085;
#SAMPLESTART:40.481915;
#SAMPLELENGTH:12.000000;
#SELECTABLE:YES;
#BPMS:0.000=160.000;
#STOPS:;
#DELAYS:;
#WARPS:;
#TIMESIGNATURES:0.000=4=4;
#TICKCOUNTS:0.000=4;
#COMBOS:0.000=1;
#SPEEDS:0.000=1.000=0.000=0;
#SCROLLS:0.000=1.000;
#FAKES:;
#LABELS:0.000=Song Start;
#BGCHANGES:0.000=POODLE.mp4=1.000=1=0=1===CrossFade==,
99999=-nosongbg-=1.000=0=0=0 // don't automatically add -songbackground-
;
#KEYSOUNDS:;
#ATTACKS:
;

//---------------dance-single - ----------------
#NOTEDATA:;
#CHARTNAME:;
#STEPSTYPE:dance-single;
#DESCRIPTION:;
#CHARTSTYLE:;
#DIFFICULTY:Challenge;
#METER:13;
#RADARVALUES:0.645778,0.676994,0.335151,0.678476,0.249319,553.000000,512.000000,41.000000,83.000000,0.000000,0.000000,0.000000,0.000000,0.000000,0.645778,0.676994,0.335151,0.678476,0.249319,553.000000,512.000000,41.000000,83.000000,0.000000,0.000000,0.000000,0.000000,0.000000;
#CREDIT:;
#NOTES:
0000
0000
0000
0000
,
0000
0000
0000
0000
,
0000
0000
0000
0000
,
0000
0000
0000
0000
,
0000
0000
0000
0000
,
0000
0000
0000
0000
,
1000
0000
0100
0000
0020
0000
0000
0032
0000
0000
1003
0000
0100
0000
0010
0000
,
0001
0000
0100
0000
0020
0000
0000
2030
0000
0000
3001
0000
0100
0000
0010
0000
,
1000
0000
0100
0000
0020
0000
0000
0032
0000
0000
1003
0000
0100
0000
0010
0000
,
0001
0000
1000
0000
0020
0000
0000
0230
0000
0000
0301
0000
1000
0000
0100
0000
,
0000
0000
0000
0000
,
0110
0000
0110
0000
1002
0203
0320
2030
,
3001
0010
0100
0010
0001
0010
0100
1000
,
0001
1000
0100
0002
0000
0103
1000
0001
,
1000
0010
0100
0010
1000
0010
0100
0001
,
1000
0001
0100
2000
0000
3100
0001
1000
,
0001
0010
0100
1000
0001
0010
1000
0010
,
0001
1000
0010
0002
0000
0013
0100
0010
,
1000
0010
0100
0001
1000
0010
0001
0010
,
1000
0001
0010
2000
0000
3010
0100
0010
,
0012
0000
1003
1002
0000
0103
0101
0000
,
0110
1000
0010
0010
0100
0100
0010
1000
,
2010
0000
3001
2001
0000
3100
1100
0000
,
0110
0001
0010
0010
0100
0100
0010
0001
,
0012
0000
1003
2010
0000
3001
0011
0000
,
0110
1000
0001
1000
0010
0100
0001
1000
,
1002
0013
2001
3010
,
1001
0000
1001
0000
0001
0010
0100
1000
,
0001
0000
0100
0000
0010
1000
0010
0000
1000
0010
1000
0000
0010
0000
0002
0000
,
0000
0000
0013
0000
1000
0010
1000
0000
0001
1000
0001
1000
0001
0000
1000
0000
,
0100
0000
0000
0000
0110
0000
0010
0001
2000
0000
0000
0000
3020
0000
0000
0000
,
0130
0010
0100
0000
0010
0000
1000
0000
0001
0000
0000
0000
1001
0000
0000
0000
,
1000
0000
0100
0000
0010
0001
0010
0000
0001
0010
0001
0000
0010
0000
2000
0000
,
0000
0000
3010
0000
0001
0010
0001
0000
1000
0001
1000
0001
1000
0000
0001
0000
,
0100
0000
0000
0000
0110
0000
0010
1000
0002
0000
0000
0000
0023
0000
0000
0000
,
0130
0010
0100
0000
0010
0000
0001
0000
1000
0000
0000
0000
1001
0000
0001
0000
,
0200
0000
0000
0010
0000
0000
0010
0000
1000
0000
0000
0000
0301
0000
1000
0000
,
0200
0000
0000
0010
0000
0000
0010
0000
0001
0000
0000
0000
1300
0000
0020
0000
,
0032
0000
0000
0023
0000
0000
2030
0000
3200
0000
0000
0302
0000
0000
0103
0000
,
0110
2002
0000
3003
,
0001
1000
0010
0010
1000
0001
0010
0001
,
1000
0100
0010
0001
0100
0010
0010
0100
,
1000
0100
0010
0010
1000
0001
0010
0100
,
0001
0100
0010
0100
1000
0010
0010
1000
,
0001
1000
0100
0100
1000
0001
0100
0001
,
1000
0010
0100
0001
0010
0100
0100
0010
,
1000
0010
0100
0100
1000
0001
0100
0010
,
0001
0010
0100
0010
1000
0100
0100
0010
,
0012
0000
0010
0010
1000
0000
0103
0010
,
2010
0000
0010
0000
0001
0100
3100
0010
,
0200
0000
0020
0330
,
0100
0000
0000
0000
0000
0000
0000
0000
0010
0000
0000
0000
0000
0000
0000
0000
0100
0000
0000
0000
0000
0000
0000
0000
0010
0000
0000
0100
0000
0000
0010
0000
0000
0000
0000
0000
0001
0000
0000
0000
0000
0000
1000
0000
0000
0000
0000
0000
,
2010
0000
3001
0012
0000
1003
1010
0000
,
0110
0001
1000
0001
0010
0100
1000
0001
,
0102
0013
2100
3010
,
1001
0000
1001
0000
1000
0001
0010
2000
,
0000
3010
0100
1000
0001
0010
0100
1000
,
0001
1000
0010
0002
0000
0013
0100
0001
,
1000
0000
0100
0000
0010
0001
0010
0000
0001
0010
0100
0000
0010
0000
2000
0000
,
0000
0000
3010
0000
0100
0010
0001
0000
1000
0001
1000
0001
0100
0000
0010
0000
,
0100
0000
0000
0000
0110
0000
0010
1000
0002
0000
0000
0000
0023
0000
0000
0000
,
0130
0010
0100
0000
0010
0000
0001
0000
1000
0000
0000
0000
1001
0000
0000
0000
,
0001
0000
0100
0000
0010
1000
0010
0000
1000
0010
0100
0000
0010
0000
0002
0000
,
0000
0000
0013
0000
0100
0010
1000
0000
0001
1000
0001
1000
0100
0000
0010
0000
,
0100
0000
0000
0000
0110
0000
0010
0001
2000
0000
0000
0000
3020
0000
0000
0000
,
0130
0010
0100
0000
0010
0000
1000
0000
0001
0000
0000
0000
1001
0000
1000
0000
,
0200
0000
0000
0010
0000
0000
0010
0000
0001
0000
0000
0000
1300
0000
0001
0000
,
0200
0000
0000
0010
0000
0000
0010
0000
1000
0000
0000
0000
0301
0000
0020
0000
,
2030
0000
0000
3020
0000
0000
0032
0000
0203
0000
0000
2300
0000
0000
3100
0000
,
0110
2002
0000
3003
,
1000
0010
1000
0000
0002
0000
0000
0023
0000
0000
0130
0000
0100
0000
0010
0000
,
0001
0010
0001
0000
2000
0000
0000
3020
0000
0000
0130
0000
0100
0000
0010
0000
,
1000
0010
1000
0000
0002
0000
0000
0023
0000
0000
0130
0000
0100
0000
1000
0000
,
0001
1000
0010
0000
0200
0000
0000
0302
0000
0000
0013
0000
0100
0000
1000
0000
,
0001
0100
0001
0000
2000
0000
0000
3200
0000
0000
0310
0000
0010
0000
0100
0000
,
1000
0100
1000
0000
0002
0000
0000
0203
0000
0000
0310
0000
0010
0000
0100
0000
,
0001
0100
0001
0000
2000
0000
0000
3200
0000
0000
0310
0000
0010
0000
0001
0000
,
1000
0001
0100
0000
0020
0000
0000
2030
0000
0000
3100
0000
0010
0000
0001
0000
,
0100
0000
0010
0000
0200
0000
0000
0310
0000
0000
0010
0000
1000
0001
0010
0000
;

//---------------dance-single - ----------------
#NOTEDATA:;
#CHARTNAME:;
#STEPSTYPE:dance-single;
#DESCRIPTION:;
#CHARTSTYLE:;
#DIFFICULTY:Hard;
#METER:11;
#RADARVALUES:0.497471,0.548043,0.335151,0.498639,0.020436,426.000000,385.000000,41.000000,61.000000,0.000000,0.000000,0.000000,0.000000,0.000000,0.497471,0.548043,0.335151,0.498639,0.020436,426.000000,385.000000,41.000000,61.000000,0.000000,0.000000,0.000000,0.000000,0.000000;
#CREDIT:;
#NOTES:
// measure 0
0000
0000
0000
0000
,  // measure 1
0000
0000
0000
0000
,  // measure 2
0000
0000
0000
0000
,  // measure 3
0000
0000
0000
0000
,  // measure 4
0000
0000
0000
0000
,  // measure 5
0000
0000
0000
0000
,  // measure 6
1000
0100
0020
0000
0031
0000
0011
0000
,  // measure 7
0001
0100
0020
0000
1030
0000
1010
0000
,  // measure 8
1000
0100
0020
0000
0031
0000
0011
0000
,  // measure 9
1000
0001
0100
0000
0110
0000
1001
0000
,  // measure 10
0000
0000
0000
0000
,  // measure 11
1001
0000
1001
0000
0001
0010
0100
1000
,  // measure 12
0001
0100
0001
0000
0100
0000
0010
0000
,  // measure 13
0100
0001
1000
0001
0010
0000
0100
0000
,  // measure 14
1000
0100
1000
0000
0100
0000
0010
0000
,  // measure 15
0100
1000
0001
1000
0010
0000
0100
0000
,  // measure 16
0001
0100
0010
0000
1000
0000
0001
0000
,  // measure 17
1000
0100
0010
0001
1000
0000
0001
0000
,  // measure 18
0100
0010
1000
0000
0100
0000
0010
0000
,  // measure 19
0001
0010
0100
1000
0010
0100
0001
0000
,  // measure 20
0012
0000
1000
2003
0000
0010
3010
0000
,  // measure 21
0110
0000
0010
0100
0010
0100
0010
0000
,  // measure 22
2010
0000
0001
3002
0000
0010
0013
0000
,  // measure 23
0110
0000
0010
0100
0010
0100
0010
0000
,  // measure 24
0012
0000
0010
2003
0000
0010
3001
0000
,  // measure 25
1001
0000
1000
0000
0001
0010
1000
0010
,  // measure 26
0002
0010
2003
0010
,  // measure 27
3001
0100
1000
0100
0001
0000
0110
0000
,  // measure 28
2002
0000
3003
0000
0001
1000
0001
0020
,  // measure 29
0000
0130
2000
0000
3100
0020
0000
0031
,  // measure 30
1000
0010
0001
0000
0010
0000
1000
0000
,  // measure 31
0001
0100
0001
1000
0100
0000
0011
0000
,  // measure 32
2002
0000
3003
0000
1000
0001
1000
0020
,  // measure 33
0000
0130
0002
0000
0103
0020
0000
1030
,  // measure 34
0001
0010
1000
0000
0010
0000
0001
0000
,  // measure 35
1000
0100
0010
0001
0100
0000
0010
1000
,  // measure 36
0002
0100
2000
3003
,  // measure 37
2000
0100
0002
3003
,  // measure 38
0001
0000
0000
0010
0000
0000
0001
0000
1000
0000
0000
0010
0000
0000
1000
0000
,  // measure 39
0001
2002
0000
3003
,  // measure 40
1001
0000
0001
0100
0010
0000
0101
0000
,  // measure 41
0010
0000
0101
0000
0001
0100
0010
1000
,  // measure 42
0001
0000
1000
0100
0010
0000
1100
0000
,  // measure 43
0010
0000
1100
0000
1000
0100
0010
0001
,  // measure 44
0100
0000
0001
0100
1000
0000
0110
0000
,  // measure 45
0001
0000
0110
0000
0001
0100
1000
0100
,  // measure 46
0001
0000
1000
0100
0001
0000
0110
0000
,  // measure 47
1000
0000
0110
0000
1000
0100
0001
0100
,  // measure 48
2000
0000
3001
1000
0010
0000
2001
0000
,  // measure 49
3100
0000
1002
0000
1003
0001
0010
0001
,  // measure 50
0200
0000
0320
0000
,  // measure 51
2030
0000
3002
0000
0013
0100
1000
0000
,  // measure 52
2001
0000
0010
3002
0000
0010
1003
0000
,  // measure 53
1001
0000
0001
0000
1000
0010
0001
0010
,  // measure 54
2000
0010
3002
0010
,  // measure 55
1003
0100
0001
0100
1000
0000
0110
0000
,  // measure 56
0001
0010
0100
1000
0001
0010
0100
1000
,  // measure 57
0001
0100
0010
1000
0100
0010
0001
0000
,  // measure 58
2002
0000
3003
0000
1000
0100
0010
0002
,  // measure 59
0000
0103
2000
0000
3100
0002
0000
1003
,  // measure 60
0001
0010
1000
0000
0010
0000
0001
0000
,  // measure 61
1000
0010
1000
0001
0010
0000
0110
0000
,  // measure 62
2002
0000
3003
0000
0001
0100
0010
2000
,  // measure 63
0000
3100
0002
0000
0103
2000
0000
3001
,  // measure 64
1000
0010
0001
0000
0010
0000
1000
0000
,  // measure 65
0001
1000
0100
0010
0001
0000
0100
0010
,  // measure 66
2000
0100
0002
3003
,  // measure 67
0002
0100
2000
3003
,  // measure 68
1000
0000
0000
0010
0000
0000
1000
0000
0001
0000
0000
0010
0000
0000
0001
0000
,  // measure 69
1000
2002
0000
3003
,  // measure 70
1000
0100
0020
0000
0031
0010
0001
0010
,  // measure 71
0001
0100
0020
0000
1030
0010
1000
0010
,  // measure 72
1000
0100
0020
0000
0031
0010
0001
0010
,  // measure 73
0001
1000
0010
0000
0110
0000
1001
0000
,  // measure 74
0001
0010
0200
0000
0310
0100
1000
0001
,  // measure 75
1000
0010
0200
0000
0310
0100
0001
1000
,  // measure 76
0001
0010
0200
0000
0310
0100
1000
0001
,  // measure 77
0100
0010
1000
0000
0110
0000
1001
0000
,  // measure 78
0001
0000
0010
0000
0200
0000
0000
0010
0000
0000
0310
0000
0010
0000
1001
0000
;

//---------------dance-single - ----------------
#NOTEDATA:;
#CHARTNAME:;
#STEPSTYPE:dance-single;
#DESCRIPTION:;
#CHARTSTYLE:;
#DIFFICULTY:Medium;
#METER:6;
#RADARVALUES:0.300118,0.354616,0.155314,0.433244,0.000000,257.000000,238.000000,19.000000,53.000000,0.000000,0.000000,0.000000,0.000000,0.000000,0.300118,0.354616,0.155314,0.433244,0.000000,257.000000,238.000000,19.000000,53.000000,0.000000,0.000000,0.000000,0.000000,0.000000;
#CREDIT:;
#NOTES:
0000
0000
0000
0000
,
0000
0000
0000
0000
,
0000
0000
0000
0000
,
0000
0000
0000
0000
,
0000
0000
0000
0000
,
0000
0000
0000
0000
,
1000
1000
0100
0010
,
0001
0001
0100
0010
,
1000
1000
0100
0010
,
0001
1000
0001
1000
,
0000
0000
0000
0000
,
0002
0203
0320
2030
,
3001
0010
0100
1000
,
0100
0010
0001
0000
,
1000
0010
0100
0001
,
0100
0010
1000
0000
,
0001
0010
0100
1000
,
0010
0100
0001
0000
,
1000
0100
0010
0001
,
0100
0010
1000
0000
,
0002
0000
0000
0023
0000
0000
0230
0000
,
1300
1000
0001
0001
,
2000
0000
0000
3020
0000
0000
0230
0000
,
0301
0001
1000
1000
,
0200
0000
0000
0320
0000
0000
0130
0000
,
0110
0000
0001
0010
,
0200
0000
2300
0000
,
3001
0100
0010
1000
,
2002
0003
0010
3010
,
1000
0010
0100
0001
,
1000
0000
1000
0100
,
0010
0001
1000
0000
,
2002
3000
0010
0013
,
0001
0010
0100
1000
,
0001
0000
0001
0100
,
0010
1000
0001
0000
,
1000
0100
0022
0033
,
0001
0100
2020
3030
,
1000
1000
0001
0001
,
0110
2002
0000
3003
,
2000
0010
0000
0010
,
3002
0100
0000
0100
,
2003
0100
0000
0100
,
3002
0010
0000
0010
,
0203
0010
0000
0010
,
0302
0010
0000
1000
,
2003
0010
0000
0010
,
3200
0010
0000
0310
,
0210
0000
1300
0000
,
1002
0000
0103
0000
,
0220
0330
2002
3003
,
1000
0100
0010
0001
,
0200
0000
0000
0320
0000
0000
0130
0000
,
0110
0000
1000
0010
,
0200
0000
0302
0000
,
1003
0100
0010
0001
,
1000
1000
0001
0001
,
0100
0010
1000
0001
,
2002
3000
0010
0013
,
0100
1000
0010
0100
,
0001
0000
0001
0010
,
0100
1000
0001
0000
,
2002
0003
0010
3010
,
0100
0001
0010
0100
,
1000
0000
1000
0010
,
0100
0001
1000
0000
,
0001
0010
2200
3300
,
1000
0010
0202
0303
,
0001
0001
1000
1000
,
0110
2002
0000
3003
,
1000
1000
0100
0010
,
0001
0001
0100
0010
,
1000
1000
0100
0010
,
0001
1000
0001
1000
,
0010
0010
0100
0001
,
0010
0010
0100
1000
,
0010
0010
0100
0001
,
1000
0100
0010
0001
,
0200
0000
0000
0000
0000
0300
0000
1001
;

//---------------dance-single - ----------------
#NOTEDATA:;
#CHARTNAME:;
#STEPSTYPE:dance-single;
#DESCRIPTION:;
#CHARTSTYLE:;
#DIFFICULTY:Easy;
#METER:4;
#RADARVALUES:0.230051,0.257903,0.081744,0.286104,0.000000,197.000000,187.000000,10.000000,35.000000,0.000000,0.000000,0.000000,0.000000,0.000000,0.230051,0.257903,0.081744,0.286104,0.000000,197.000000,187.000000,10.000000,35.000000,0.000000,0.000000,0.000000,0.000000,0.000000;
#CREDIT:;
#NOTES:
0000
0000
0000
0000
,
0000
0000
0000
0000
,
0000
0000
0000
0000
,
0000
0000
0000
0000
,
0000
0000
0000
0000
,
0000
0000
0000
0000
,
1000
0100
0010
0000
,
0100
0010
0001
0000
,
1000
0010
0100
0000
,
0010
0100
0001
0000
,
0020
0000
0030
0000
,
0001
1000
0001
1000
,
0001
0000
0001
0000
,
0001
0100
0001
0000
,
1000
0000
1000
0000
,
1000
0100
1000
0000
,
0001
0000
0001
0000
,
0001
0010
0100
0000
,
1000
0000
1000
0000
,
1000
0010
0100
0000
,
0002
0000
0023
0000
,
0130
0010
0001
0000
,
2000
0000
3020
0000
,
0130
0010
1000
0000
,
0002
0000
2003
0000
,
3100
0000
0100
0010
,
0002
0000
2003
0000
,
3001
0100
0010
0000
,
2020
0000
3030
0000
,
1000
0010
1000
0010
,
0100
0000
0010
1000
,
0010
1000
0001
0000
,
0022
0000
0033
0000
,
0001
0010
0001
0010
,
0100
0000
0010
0001
,
0010
0001
1000
0000
,
0010
0000
0202
0303
,
0010
0000
2200
3300
,
0001
1000
0001
1000
,
0020
0030
0000
0000
,
1000
0000
0010
0000
,
1000
0000
0010
0100
,
0001
0000
0010
0000
,
0001
0000
0010
0100
,
1000
0000
0001
0000
,
1000
0000
0001
0100
,
0010
0000
0100
0000
,
0010
0000
1000
0100
,
0020
0000
0030
0000
,
0200
0000
0300
0000
,
0110
0000
1001
0000
,
0002
0000
0103
0010
,
2000
0000
3002
0000
,
0103
0000
0100
0010
,
2000
0000
3002
0000
,
1003
0100
0010
0000
,
0001
0100
0010
0000
,
1000
0100
0010
0000
,
0022
0000
0033
0000
,
0001
0010
0100
1000
,
0001
0000
1000
0100
,
0010
0001
1000
0000
,
2020
0000
3030
0000
,
1000
0010
0100
0001
,
1000
0000
0001
0100
,
0010
1000
0001
0000
,
0010
0000
2200
3300
,
0010
0000
0202
0303
,
1000
0001
1000
0001
,
0020
0030
0000
0000
,
0001
0010
0100
0000
,
0010
0100
1000
0000
,
1000
0010
0100
0000
,
0010
0100
0001
0000
,
1000
0100
0010
0000
,
0001
1000
0010
0000
,
0100
0001
1000
0000
,
0001
0010
0100
0000
,
0020
0000
0000
0000
0000
0000
0000
0030
;

//---------------dance-single - ----------------
#NOTEDATA:;
#CHARTNAME:;
#STEPSTYPE:dance-single;
#DESCRIPTION:;
#CHARTSTYLE:;
#DIFFICULTY:Beginner;
#METER:2;
#RADARVALUES:0.135462,0.257903,0.081744,0.188011,0.000000,116.000000,106.000000,10.000000,23.000000,0.000000,0.000000,0.000000,0.000000,0.000000,0.135462,0.257903,0.081744,0.188011,0.000000,116.000000,106.000000,10.000000,23.000000,0.000000,0.000000,0.000000,0.000000,0.000000;
#CREDIT:;
#NOTES:
0000
0000
0000
0000
,
0000
0000
0000
0000
,
0000
0000
0000
0000
,
0000
0000
0000
0000
,
0000
0000
0000
0000
,
0000
0000
0000
0000
,
1000
0000
0000
0000
,
0001
0000
0000
0000
,
1000
0000
0000
0000
,
0001
0000
0000
0000
,
0020
0000
0030
0000
,
0010
0000
0000
0000
,
0001
0000
0001
0000
,
1000
0000
0000
0000
,
1000
0000
1000
0000
,
0001
0000
0000
0000
,
0100
0000
0100
0000
,
0010
0000
0000
0000
,
0010
0000
0010
0000
,
0100
0000
0000
0000
,
0001
0000
0001
0000
,
1001
0000
0000
0000
,
1000
0000
1000
0000
,
1001
0000
0000
0000
,
0001
0000
1000
0000
,
1001
0000
0000
0000
,
1000
0000
0100
0000
,
0010
0000
0001
0000
,
2002
0000
3003
0000
,
0001
0000
0100
0000
,
0010
0000
1000
0000
,
0001
0001
0001
0000
,
2002
0000
3003
0000
,
1000
0000
0100
0000
,
0010
0000
0001
0000
,
1000
1000
1000
0000
,
0002
0000
0003
0000
,
2000
0000
3000
0000
,
0010
0000
0010
0000
,
1001
0000
0000
0000
,
2000
0000
3000
0000
,
0020
0000
0030
0000
,
0200
0000
0300
0000
,
0002
0000
0003
0000
,
0020
0000
0030
0000
,
0200
0000
0300
0000
,
2000
0000
3000
0000
,
0002
0000
0003
0000
,
0100
0000
0000
0000
,
0100
0000
0000
0000
,
0020
0000
0000
0000
,
0030
0000
0000
0000
,
1000
0000
0001
0000
,
1001
0000
0000
0000
,
0001
0000
0100
0000
,
0010
0000
1000
0000
,
0001
0001
0001
0000
,
1000
1000
1000
0000
,
2002
0000
3003
0000
,
1000
0000
0100
0000
,
0010
0000
0001
0000
,
1000
1000
1000
0000
,
2002
0000
3003
0000
,
0001
0000
0100
0000
,
0010
0000
1000
0000
,
0001
0001
0001
0000
,
2000
0000
3000
0000
,
0002
0000
0003
0000
,
0010
0000
0010
0000
,
1001
0000
0000
0000
,
0001
0000
0000
0000
,
1000
0000
0000
0000
,
0001
0000
0000
0000
,
1000
0000
0000
0000
,
0010
0000
0000
0000
,
0100
0000
0000
0000
,
0010
0000
0000
0000
,
0100
0000
0000
0000
,
0002
0000
0000
0000
0000
0000
0000
0003
;
