#VERSION:0.83;
#TITLE:おべんきょうたいむ;
#SUBTITLE:feat. 足立レイ;
#ARTIST:litmus*;
#TITLETRANSLIT:Obenkyou Time;
#SUBTITLETRANSLIT:feat. Rei Adachi;
#ARTISTTRANSLIT:;
#GENRE:Study Tech;
#ORIGIN:;
#CREDIT:;
#BANNER:Obenkyou Time (feat. Rei Adachi).png;
#BACKGROUND:Obenkyou Time (feat. Rei Adachi)-bg.png;
#PREVIEWVID:;
#JACKET:Obenkyou Time (feat. Rei Adachi)-jacket.png;
#CDIMAGE:;
#DISCIMAGE:;
#LYRICSPATH:;
#CDTITLE:cdtitle.png;
#MUSIC:Obenkyou Time (feat. Rei Adachi).ogg;
#OFFSET:-0.182000;
#SAMPLESTART:52.545635;
#SAMPLELENGTH:11.636360;
#SELECTABLE:YES;
#BPMS:0.000=165.000;
#STOPS:;
#DELAYS:;
#WARPS:;
#TIMESIGNATURES:0.000=4=4;
#TICKCOUNTS:0.000=4;
#COMBOS:0.000=1;
#SPEEDS:0.000=1.000=0.000=0;
#SCROLLS:0.000=1.000;
#FAKES:;
#LABELS:0.000=Song Start;
#BGCHANGES:-0.500=Obenkyou Time (feat. Rei Adachi).mp4=1.000=1=0=1===CrossFade==,
433.000=Obenkyou Time (feat. Rei Adachi)-bg.png=1.000=1=0=1===CrossFade==;
#KEYSOUNDS:;
#ATTACKS:
;

//---------------dance-single - ----------------
#NOTEDATA:;
#CHARTNAME:;
#STEPSTYPE:dance-single;
#DESCRIPTION:;
#CHARTSTYLE:;
#DIFFICULTY:Challenge;
#METER:17;
#RADARVALUES:0.913649,1.216331,0.383732,0.929036,1.100706,950.000000,893.000000,57.000000,138.000000,32.000000,0.000000,0.000000,0.000000,40.000000,0.913649,1.216331,0.383732,0.929036,1.100706,950.000000,893.000000,57.000000,138.000000,32.000000,0.000000,0.000000,0.000000,40.000000;
#CREDIT:;
#OFFSET:-0.182000;
#BPMS:0.000000=165.000000
;
#STOPS:;
#DELAYS:;
#WARPS:303.000000=16.000000
,320.000000=16.000000
;
#TIMESIGNATURES:0.000000=4=4
;
#TICKCOUNTS:0.000000=4
;
#COMBOS:0.000000=1
;
#SPEEDS:0.000000=1.000000=0.000000=0
;
#SCROLLS:0.000000=1.000000
,47.000000=2.000000
,47.250000=1.000000
,47.500000=0.500000
,48.000000=1.000000
,95.000000=0.000000
,95.500000=2.000000
,96.000000=1.000000
,111.000000=2.000000
,111.250000=1.000000
,111.500000=0.500000
,112.000000=1.000000
,137.000000=0.000000
,139.750000=2.000000
,140.000000=0.000000
,140.750000=2.000000
,141.000000=0.000000
,141.750000=2.000000
,142.000000=0.000000
,143.000000=2.000000
,143.250000=1.000000
,143.500000=0.500000
,144.000000=1.000000
,208.000000=0.000000
,209.000000=0.062500
,210.000000=0.125000
,211.000000=0.187500
,212.000000=0.250000
,213.000000=0.312500
,214.000000=0.375000
,215.000000=0.437500
,216.000000=0.500000
,217.000000=0.562500
,218.000000=0.625000
,219.000000=0.687500
,220.000000=0.750000
,221.000000=0.812500
,222.000000=0.875000
,223.000000=0.937500
,224.000000=1.000000
,255.000000=0.000000
,255.500000=2.000000
,256.000000=1.000000
,271.000000=2.000000
,271.250000=1.000000
,271.500000=0.500000
,272.000000=1.000000
,286.000000=0.000000
,286.125000=2.000000
,286.250000=0.000000
,286.375000=2.000000
,286.500000=0.000000
,286.625000=2.000000
,286.750000=0.000000
,286.875000=2.000000
,287.000000=1.000000
,319.000000=0.000000
,320.000000=1.000000
,336.000000=0.500000
,351.500000=1.000000
,431.000000=2.000000
,431.250000=1.000000
,431.500000=0.500000
,432.000000=1.000000
;
#FAKES:;
#LABELS:0.000000=Song Start
;
#NOTES:
// measure 0
0000
0000
0000
0000
,  // measure 1
0000
0000
0000
0000
,  // measure 2
0000
0000
0000
0000
,  // measure 3
0000
0000
0000
0000
,  // measure 4
0001
0000
0010
0000
0100
0000
0010
0000
2000
0000
3000
0020
0000
0030
0002
0000
,  // measure 5
0003
0000
1000
0000
0001
0100
0010
0100
2000
0000
3000
0200
0000
0300
0002
0000
,  // measure 6
1003
0100
0000
0100
0000
0010
0001
1000
0001
0100
0000
0100
0000
0001
1000
0010
,  // measure 7
1000
0100
0000
0100
0000
0010
0100
1000
0002
0000
0000
0010
0000
0000
1003
0000
,  // measure 8
1000
0000
0010
0000
0100
0000
0010
0000
0002
0000
0003
0020
0000
0030
2000
0000
,  // measure 9
3000
0000
0001
0000
1000
0100
0010
0100
0002
0000
0003
0200
0000
0300
2000
0000
,  // measure 10
3001
0100
0000
0100
0000
0010
1000
0100
0010
0000
0000
0110
0000
0000
0010
0001
,  // measure 11
1000
0001
0100
0010
1000
0001
1000
0100
0010
0001
1000
0001
0200
0000
0000
0000
,  // measure 12
0301
0000
0100
0010
0100
0010
1000
0001
0010
0000
0100
0010
0000
0100
1000
0000
,  // measure 13
0001
0000
1000
0010
1000
0010
0100
0002
1000
0000
0010
0000
0013
0000
0000
0000
,  // measure 14
0001
0000
1000
0010
0100
0010
0100
0001
1000
0000
0100
0010
0000
0010
0001
0000
,  // measure 15
2000
0010
3002
0010
2003
0100
3002
0100
,  // measure 16
1003
0000
0100
0010
0100
0010
0001
1000
0010
0000
0100
0010
0000
0100
0001
0000
,  // measure 17
1000
0000
0001
0010
0001
0010
0100
2000
0001
0000
0010
0000
3010
0000
0000
0000
,  // measure 18
1000
0000
0001
0010
0100
0010
0100
1000
0001
0000
0100
0000
0010
0000
1000
0000
,  // measure 19
0002
0000
0010
0000
2003
0000
0100
0000
3001
0000
0000
0000
1001
0000
1000
0001
,  // measure 20
0100
0000
0001
1000
0100
0000
1000
0001
0200
0000
1000
0000
0310
0000
1000
0001
,  // measure 21
0010
0000
0001
1000
0010
0000
1000
0001
0020
0000
1000
0000
0130
0000
1000
0001
,  // measure 22
0100
0000
0001
1000
0100
0000
0010
0001
1000
0000
0010
0100
0001
0000
0010
0100
,  // measure 23
1000
0000
0000
0000
0000
0000
0000
0000
0001
0000
0000
0000
0100
0000
0000
0000
1000
0000
0000
0000
0000
0000
0000
0000
0001
0000
0000
0000
0010
0000
0000
0000
2000
0000
0000
0000
0000
0000
0000
0000
0000
0000
0000
0000
0000
0000
0000
0000
0002
0000
0000
0000
0000
0000
0000
0000
0000
3003
0000
0000
0000
0000
0000
0000
,  // measure 24
1001
0000
1000
0001
0100
0000
0001
1000
0200
0000
0001
0000
0310
0000
0001
1000
,  // measure 25
0010
0000
0010
1000
0001
0010
0001
1000
0020
0000
0001
0000
0130
0000
0001
1000
,  // measure 26
0100
0000
0010
0001
1000
0001
0100
0010
1000
0000
0010
0100
0001
1000
0100
0010
,  // measure 27
0001
0000
1000
0100
1000
0100
0010
0100
0002
0000
2003
0000
3020
0000
0030
0000
,  // measure 28
0012
0000
1000
0000
1000
0000
1003
0001
0200
0000
0300
0000
1001
0000
2200
0000
,  // measure 29
3300
1001
0202
0303
1001
2200
3300
1001
,  // measure 30
1010
0000
0001
1000
0001
1000
0001
1000
0200
0000
0300
0000
0011
0000
2002
0000
,  // measure 31
3003
0000
1010
0000
2002
0000
3003
0000
0011
0000
0001
0010
0100
1000
0100
0010
,  // measure 32
0001
0000
1000
0001
1000
0001
1000
0001
0200
0000
0300
0000
1010
0000
2200
0000
,  // measure 33
3300
0011
0202
0303
1010
2200
3300
0011
,  // measure 34
2002
3003
0000
0000
,  // measure 35
2002
0000
0000
0000
0000
0000
0000
0000
0000
0000
0000
0000
0000
3003
0000
0000
0220
0000
0000
0000
0000
0000
0000
0000
0000
0000
0000
0000
0000
0330
0000
0000
2002
0000
0000
0000
0000
0000
0000
0000
0000
0000
0000
0000
0000
0000
0000
0000
0000
0000
3003
0000
0000
0000
0000
0000
0000
0000
0000
0000
0000
0000
0000
0000
,  // measure 36
2000
0000
0010
0000
3010
0000
1000
0100
2000
0000
0100
0000
3002
0000
0010
0000
,  // measure 37
1003
0000
0010
1000
0100
1000
0100
1000
0010
0000
1010
0000
2002
0000
3003
0000
,  // measure 38
2000
0000
0100
0000
3100
1000
0001
1000
0020
0000
0100
0000
2030
0000
0001
0000
,  // measure 39
3200
0000
0301
0100
0001
0100
0001
0100
0010
0100
1000
0001
0100
0000
0010
0000
,  // measure 40
2000
0000
0001
0000
3100
0010
0100
0010
0001
0000
0100
0010
0100
0010
1000
0000
,  // measure 41
0001
0000
0010
0001
0100
0001
0010
0001
0100
0000
0101
0000
2020
0000
3030
0000
,  // measure 42
0001
0000
1000
0100
1000
0000
0001
0100
0001
0000
1000
0000
0100
0000
0000
0000
,  // measure 43
0012
0000
1003
0000
2010
0000
3001
0000
0012
0000
0000
0000
1003
0000
0010
0100
,  // measure 44
0002
0000
0010
0000
0013
0000
0001
0100
0002
0000
0100
0000
2003
0000
0010
0000
,  // measure 45
3001
0000
0010
0001
0100
0001
0100
0001
0010
0000
0011
0000
2002
0000
3003
0000
,  // measure 46
0002
0000
0100
0000
0103
0001
1000
0001
0020
0000
0100
0000
0032
0000
1000
0000
,  // measure 47
0203
0000
1300
0100
1000
0100
1000
0100
0010
0100
0001
1000
0100
0000
0010
0000
,  // measure 48
0002
0000
1000
0000
0103
0010
0100
0010
1000
0000
0100
0010
0100
0010
0001
0000
,  // measure 49
1000
0000
0010
1000
0100
1000
0010
1000
0100
0000
1100
0000
0022
0000
0033
0000
,  // measure 50
1000
0000
0001
0100
0010
1000
0001
1000
0100
0000
0010
0000
0001
0000
0000
0000
,  // measure 51
2010
3001
0102
1003
2100
3001
0012
1003
,  // measure 52
2002
0000
0000
0000
,  // measure 53
0M00
00M0
0M00
00M0
,  // measure 54
0M00
0000
0000
0000
00M0
0000
0000
0000
0M00
0000
0000
0000
00M0
0000
0000
0M00
0000
0000
00M0
0000
0000
0M00
0000
0000
,  // measure 55
00M0
0M00
00M0
0M00
00M0
0M00
00M0
0M00
00M0
3M03
00M0
0M00
,  // measure 56
1000
0000
0000
1000
0010
0000
1000
0000
0001
0000
0000
0001
0010
0000
0001
0000
,  // measure 57
1000
0000
0000
1000
0010
0000
0100
0000
0001
0000
0000
0001
0010
0000
0100
1000
,  // measure 58
0002
0000
0203
0000
0320
0000
2030
3001
,  // measure 59
1000
0100
1000
0100
0010
0001
0010
0001
1000
0010
0100
0001
2000
0000
0010
0000
,  // measure 60
3100
0010
0100
1000
0001
1000
0010
0100
0001
0010
0001
1000
0010
1000
0001
0010
,  // measure 61
0100
1000
0001
1000
0010
0100
0001
0010
0100
1000
0001
0100
0001
1000
0100
1000
,  // measure 62
0010
0100
0010
0100
0001
1000
0001
1000
0100
0010
0100
0010
0001
1000
0001
1000
,  // measure 63
0010
0000
0100
0000
0001
0000
0010
0000
0001
0000
0100
0000
0010
0000
1000
0000
0100
0000
1000
0000
0010
0000
0100
0000
0002
0000
0000
0000
0000
0003
0000
0000
,  // measure 64
1002
0000
0013
0000
0100
0000
1000
0010
0100
0000
0001
0100
00M0
0100
1000
0000
,  // measure 65
0002
0000
1003
0010
0100
0001
0010
0000
0100
0000
1000
0100
00M0
0100
0001
0000
,  // measure 66
1000
0010
0100
0001
0000
0010
0100
1000
0000
0010
1000
0100
00M0
0100
0001
0000
,  // measure 67
0100
0001
1000
0001
0010
0100
1000
0001
1000
0010
0100
0001
2000
0000
3000
0000
,  // measure 68
1002
0000
0013
0000
0100
0000
0001
0100
0010
0000
0001
0010
0M00
0010
1000
0000
,  // measure 69
0010
0000
0100
0010
0001
0010
0100
0000
0010
0000
1000
0010
0M00
0010
0001
0000
,  // measure 70
0010
0000
0100
1000
0001
1000
0010
0000
0100
0001
1000
0100
00M0
0100
0001
0000
,  // measure 71
1000
0001
0010
0100
0000
1000
0010
0100
0001
1000
0001
1000
0100
0000
0010
0001
,  // measure 72
2000
0000
3010
0000
0100
0000
1000
0100
0010
0000
1000
0010
0M00
0010
0001
0000
,  // measure 73
0010
0000
0100
0010
1000
0010
0100
0000
0010
0000
0001
0010
0M00
0010
1000
0000
,  // measure 74
0001
0010
0100
1000
0000
0010
0100
0001
0000
0010
0001
0100
00M0
0100
1000
0000
,  // measure 75
0001
0100
0010
1000
0001
1000
0100
0010
0001
1000
0010
0100
0001
0000
0000
0000
,  // measure 76
0000
0000
0000
0000
,  // measure 77
0000
0000
0000
0000
,  // measure 78
0000
0000
0000
0000
,  // measure 79
0000
0000
0000
0002
,  // measure 80
0000
MMM0
0000
0000
0000
MMM0
0000
0000
0000
MMM0
0000
0000
0000
MMM0
0000
0000
0000
MMM0
0000
0000
0000
MMM0
0000
0000
0000
MMM0
0000
0000
0000
MMM0
0000
0000
0000
MMM0
0000
0000
0000
MMM0
0000
0000
0000
MMM0
0000
0000
0000
MMM0
0000
0000
0003
MMM0
0000
0000
0000
0000
0000
0000
0000
0000
0000
0000
0000
0000
0000
0000
,  // measure 81
0000
0000
0000
0000
,  // measure 82
0000
0000
0000
0000
,  // measure 83
0000
0000
0000
0000
,  // measure 84
0000
0000
0000
0000
,  // measure 85
0000
0000
0000
0000
,  // measure 86
0000
0000
0000
0000
,  // measure 87
0000
0000
0000
0000
0000
0000
0000
1000
,  // measure 88
0002
0000
0010
0000
0010
0000
0013
0001
,  // measure 89
2000
0000
0010
0000
0010
0000
3010
1000
,  // measure 90
0200
0000
0310
0000
0001
0010
0100
1000
,  // measure 91
0001
0100
0010
1000
0100
0010
0001
0100
0010
1000
0100
0010
0001
0000
1000
0001
,  // measure 92
2000
0000
0010
0000
3010
0000
1000
0100
2000
0000
0100
0000
3002
0000
0010
0000
,  // measure 93
1003
0000
0001
0010
0100
1000
0010
0100
0001
0000
0110
0000
2002
0000
3003
0000
,  // measure 94
2000
0000
3001
0010
0100
0000
0120
0000
0032
0000
1003
0010
0100
0000
0120
0000
,  // measure 95
0130
0010
0001
0010
0001
0010
0100
0001
1000
0100
0010
1000
0010
1000
0010
0001
,  // measure 96
2000
0000
0001
0000
3010
0100
0001
1000
0100
0000
0010
0100
1000
0001
0100
0000
,  // measure 97
0001
0000
1000
0010
0100
0001
0010
0100
1000
0000
0110
0000
2002
0000
3003
0000
,  // measure 98
0001
0000
1000
0100
0010
0001
1000
0001
0100
0000
0010
0000
1000
0000
0000
0000
,  // measure 99
0012
1003
2010
3001
0102
1003
2100
3001
,  // measure 100
1000
0000
0010
0000
0100
0000
0010
0000
0002
0000
0003
0020
0000
0030
2000
0000
,  // measure 101
3000
0000
0001
0000
1000
0100
0010
0100
0002
0000
0003
0200
0000
0300
2000
0000
,  // measure 102
3001
0100
0000
0100
0000
0010
1000
0001
1000
0100
0000
0100
0000
1000
0001
0010
,  // measure 103
0001
0100
0000
0100
0000
0010
0100
0001
2000
0000
0000
0010
0000
0000
3001
0000
,  // measure 104
0001
0000
0010
0000
0100
0000
0010
0000
2000
0000
3000
0020
0000
0030
0002
0000
,  // measure 105
0003
0000
1000
0000
0001
0100
0010
0100
2000
0000
3000
0200
0000
0300
0002
0000
,  // measure 106
1003
0100
0000
0100
0000
0010
0001
0100
0010
0000
0000
0110
0000
0000
0010
1000
,  // measure 107
0001
1000
0100
0010
0001
1000
0001
0100
0010
1000
0001
1000
0200
0000
0000
0000
,  // measure 108
0301
0100
1000
0010
0002
0000
0000
0000
0000
0000
0000
0000
0000
0000
0000
0000
,  // measure 109
0000
0000
0003
0000
;

//---------------dance-single - ----------------
#NOTEDATA:;
#CHARTNAME:;
#STEPSTYPE:dance-single;
#DESCRIPTION:;
#CHARTSTYLE:;
#DIFFICULTY:Hard;
#METER:15;
#RADARVALUES:0.728034,0.921463,0.195232,1.063679,0.636188,757.000000,728.000000,29.000000,158.000000,23.000000,0.000000,0.000000,0.000000,40.000000,0.728034,0.921463,0.195232,1.063679,0.636188,757.000000,728.000000,29.000000,158.000000,23.000000,0.000000,0.000000,0.000000,40.000000;
#CREDIT:;
#OFFSET:-0.182000;
#BPMS:0.000000=165.000000
;
#STOPS:;
#DELAYS:;
#WARPS:303.000000=16.000000
,320.000000=16.000000
;
#TIMESIGNATURES:0.000000=4=4
;
#TICKCOUNTS:0.000000=4
;
#COMBOS:0.000000=1
;
#SPEEDS:0.000000=1.000000=0.000000=0
;
#SCROLLS:0.000000=1.000000
,47.000000=2.000000
,47.250000=1.000000
,47.500000=0.500000
,48.000000=1.000000
,95.000000=0.000000
,95.500000=2.000000
,96.000000=1.000000
,111.000000=2.000000
,111.250000=1.000000
,111.500000=0.500000
,112.000000=1.000000
,137.000000=0.000000
,139.750000=2.000000
,140.000000=0.000000
,140.750000=2.000000
,141.000000=0.000000
,141.750000=2.000000
,142.000000=0.000000
,143.000000=2.000000
,143.250000=1.000000
,143.500000=0.500000
,144.000000=1.000000
,208.000000=0.000000
,209.000000=0.062500
,210.000000=0.125000
,211.000000=0.187500
,212.000000=0.250000
,213.000000=0.312500
,214.000000=0.375000
,215.000000=0.437500
,216.000000=0.500000
,217.000000=0.562500
,218.000000=0.625000
,219.000000=0.687500
,220.000000=0.750000
,221.000000=0.812500
,222.000000=0.875000
,223.000000=0.937500
,224.000000=1.000000
,255.000000=0.000000
,255.500000=2.000000
,256.000000=1.000000
,271.000000=2.000000
,271.250000=1.000000
,271.500000=0.500000
,272.000000=1.000000
,286.000000=0.000000
,286.125000=2.000000
,286.250000=0.000000
,286.375000=2.000000
,286.500000=0.000000
,286.625000=2.000000
,286.750000=0.000000
,286.875000=2.000000
,287.000000=1.000000
,319.000000=0.000000
,320.000000=1.000000
,336.000000=0.500000
,351.500000=1.000000
,431.000000=2.000000
,431.250000=1.000000
,431.500000=0.500000
,432.000000=1.000000
;
#FAKES:;
#LABELS:0.000000=Song Start
;
#NOTES:
0000
0000
0000
0000
,
0000
0000
0000
0000
,
0000
0000
0000
0000
,
0000
0000
0000
0000
,
0001
0000
0010
0000
0100
0000
0010
0000
2000
0000
3000
0020
0000
0030
0002
0000
,
0003
0000
0100
0000
0010
0000
0100
0000
2000
0000
3000
0200
0000
0300
0002
0000
,
1003
0100
0000
0010
0000
0100
1000
0000
0010
0100
0000
0001
0000
0100
0010
0000
,
1000
0100
0000
0010
0000
0001
0010
0100
2000
0000
0000
0001
0000
0000
3001
0000
,
1000
0000
0010
0000
0100
0000
0010
0000
0002
0000
0003
0020
0000
0030
2000
0000
,
3000
0000
0100
0000
0010
0000
0100
0000
0002
0000
0003
0200
0000
0300
2000
0000
,
3001
0100
0000
0010
0000
1000
0001
1000
0100
0000
0000
0010
0000
0000
0220
0000
,
0000
0000
0330
1001
,
0001
0000
0010
0100
0010
0000
0001
0000
0100
0000
0010
1000
0000
0010
1000
0000
,
0001
0000
1000
0100
0010
0000
0002
0000
0010
0000
1000
0000
1003
0000
0000
0000
,
0001
0000
0100
0010
0100
0000
0001
0000
0010
0000
0100
1000
0000
1000
0001
0000
,
2000
3020
0230
0302
0023
0230
2300
3002
,
1003
0000
0010
0100
0010
0000
1000
0000
0100
0000
0010
0001
0000
0010
0001
0000
,
1000
0000
0001
0100
0010
0000
2000
0000
0010
0000
0001
0000
3001
0000
0000
0000
,
1000
0000
0100
0010
0100
0000
1000
0000
0010
0000
0100
0000
0001
0000
1000
0000
,
0002
0023
0230
2300
3002
0003
1001
0000
,
1000
0000
0010
0100
0010
0000
0100
0010
0100
0000
1000
0000
0100
0000
0001
1000
,
0100
0000
0010
0100
0010
0000
0100
0010
0100
0000
0001
0000
0100
0000
1000
0001
,
0100
0000
0010
0000
1000
0000
0001
1000
0100
0000
0010
0000
0001
0000
1000
0010
,
1000
0000
0000
0000
0001
0000
0010
0000
0001
0000
0000
0000
0100
0000
0000
0000
0200
0000
0000
0000
0300
0000
0000
0000
2002
0000
0000
0000
0000
3003
0000
0000
,
1000
0000
0100
0010
0100
0000
0010
0100
0010
0000
1000
0000
0010
0000
0001
1000
,
0010
0000
0100
0010
0100
0000
0010
0100
0010
0000
0001
0000
0010
0000
1000
0001
,
0010
0000
0100
0000
1000
0100
1000
0000
0010
0000
0100
0000
0001
0100
0001
0000
,
1000
0000
0100
0010
0001
0000
0010
0100
1000
0000
0001
0000
2002
0000
0000
0000
,
3003
0000
0001
0000
0100
0000
0001
0200
0010
0000
0000
0000
0301
0000
0102
0000
,
0000
1003
2100
0000
3001
0102
0000
1003
,
0000
0000
1000
0100
1000
0100
1000
0200
0010
0000
0000
0000
1300
0000
2100
0000
,
0000
3001
0102
0000
1003
2100
0000
3001
,
0000
0000
0001
0100
0001
0100
0001
0200
0010
0000
0000
0000
0301
0000
1002
0000
,
0000
0013
0210
0000
1300
2001
0000
3010
,
0220
0330
0000
0000
,
2002
0000
0000
0000
0000
0000
0000
0000
0000
0000
0000
0000
0000
3003
0000
0000
0220
0000
0000
0000
0000
0000
0000
0000
0000
0000
0000
0000
0000
0330
0000
0000
2002
0000
0000
0000
0000
0000
0000
0000
0000
0000
0000
0000
0000
0000
0000
0000
0000
0000
3003
0000
0000
0000
0000
0000
0000
0000
0000
0000
0000
0000
0000
0000
,
2000
0000
0010
0000
3010
0000
1000
0001
2000
0000
0100
0000
3002
0000
0010
0000
,
1003
0000
0001
0100
0001
1000
0100
1000
0001
0000
1000
0000
2002
0000
3003
0000
,
0002
0000
1000
0000
0103
0000
0010
0100
0020
0000
0100
0000
2030
0000
0001
0000
,
3100
0000
0010
0100
0002
0000
0203
0000
0302
0000
0203
0000
0310
0000
0100
0000
,
2000
0000
0001
0000
3010
1000
0010
0000
0100
0000
0001
1000
0001
0000
0010
0000
,
0100
0000
1000
0010
1000
0001
0010
0001
1000
0000
0001
0000
2002
0000
3003
0000
,
1000
0000
0010
0100
0001
0000
0010
0100
1000
0000
0001
0000
1000
0000
0000
0000
,
0001
0100
1000
0100
0002
0000
1003
0000
,
0002
0000
0010
0000
0013
0000
0001
1000
0002
0000
0100
0000
2003
0000
0010
0000
,
3001
0000
1000
0100
1000
0001
0100
0001
1000
0000
0001
0000
2002
0000
3003
0000
,
2000
0000
0001
0000
3100
0000
0010
0100
0020
0000
0100
0000
0032
0000
1000
0000
,
0103
0000
0010
0100
2000
0000
3200
0000
2300
0000
3200
0000
0310
0000
0100
0000
,
0002
0000
1000
0000
0013
0001
0010
0000
0100
0000
1000
0001
1000
0000
0010
0000
,
0100
0000
0001
0010
0001
1000
0010
1000
0001
0000
1000
0000
2002
0000
3003
0000
,
1000
0000
0100
1000
0001
1000
0010
0000
1000
0000
0001
0000
0010
0000
0000
0000
,
0001
0010
1000
0010
0001
0100
1000
0100
,
0002
0000
0000
0000
,
0M00
00M0
0M00
00M0
,
0M00
0000
0000
0000
00M0
0000
0000
0000
0M00
0000
0000
0000
00M0
0000
0000
0M00
0000
0000
00M0
0000
0000
0M00
0000
0000
,
00M0
0M00
00M0
0M00
00M0
0M00
00M0
0M00
00M0
0M00
00M0
0M00
,
1003
1000
0100
0100
,
0010
0000
0000
0000
0010
0000
0000
0000
0001
0000
0000
0000
0001
0000
1000
0001
,
1000
0010
0100
0001
1000
0001
0010
0100
,
2000
0000
3002
0000
1003
0010
0100
0001
,
2000
3200
0302
2003
3002
0203
2300
3002
,
2003
3020
0032
2003
3002
0023
2030
3002
,
1003
0100
0010
0000
0001
1000
0010
0000
0100
0001
1000
0000
0100
0010
0001
0000
,
0010
0000
0001
0000
0100
0000
0000
0000
0010
0000
1000
0000
0100
0000
0000
0000
0010
0000
0001
0000
1000
0000
0001
0000
0200
0000
0000
0000
0000
0300
0000
0000
,
2002
0000
3003
0000
0001
0000
0100
0020
1000
0000
0130
0001
0000
0100
0001
0000
,
1000
0000
0100
0010
0000
0100
0020
0000
0001
0000
0130
1000
0000
0100
1000
0000
,
0001
0100
0010
0000
0100
0001
0010
0000
0100
1000
0001
1000
0000
0010
0100
0000
,
0001
0010
0100
1000
0010
0100
0001
0000
,
2002
0000
3003
0000
0001
0000
0010
0200
0001
0000
0310
0001
0000
0010
0001
0000
,
1000
0000
0001
0100
0001
0100
0020
0000
0001
0000
0130
0001
0000
0100
0001
0000
,
1000
0000
0001
0010
0001
0010
0100
0000
2000
0001
0000
3010
0000
0100
0001
0000
,
1000
0100
0010
0000
0100
1000
0010
0000
2000
0000
0000
0000
3100
0000
0010
0000
,
1002
0000
0000
0000
1003
0000
0010
0200
1000
0000
0310
1000
0000
0010
1000
0000
,
0001
0000
1000
0100
1000
0100
0020
0000
1000
0000
0130
1000
0000
0100
1000
0000
,
0010
1000
0100
0000
0010
0001
0100
0000
0010
1000
0001
1000
0000
0100
0010
0000
,
0001
0100
0001
1000
0100
1000
0010
0000
,
0000
0000
0000
0000
,
0000
0000
0000
0000
,
0000
0000
0000
0000
,
0000
0000
0000
0020
,
0000
MM0M
0000
0000
0000
MM0M
0000
0000
0000
MM0M
0000
0000
0000
MM0M
0000
0000
0000
MM0M
0000
0000
0000
MM0M
0000
0000
0000
MM0M
0000
0000
0000
MM0M
0000
0000
0000
MM0M
0000
0000
0000
MM0M
0000
0000
0000
MM0M
0000
0000
0000
MM0M
0000
0000
0030
MM0M
0000
0000
0000
0000
0000
0000
0000
0000
0000
0000
0000
0000
0000
0000
,
0000
0000
0000
0000
,
0000
0000
0000
0000
,
0000
0000
0000
0000
,
0000
0000
0000
0000
,
0000
0000
0000
0000
,
0000
0000
0000
0000
,
0000
0000
0000
0000
0000
0000
0000
0001
,
2000
0000
0010
0000
0010
0000
3010
1000
,
0002
0000
0010
0000
0010
0000
0013
0001
,
0200
0000
0310
0000
1000
0010
0100
0001
,
2000
0000
0000
3001
,
2000
0000
0010
0000
3010
0000
1000
0001
2000
0000
0100
0000
3002
0000
0010
0000
,
1003
0000
0001
0100
0001
1000
0100
1000
0001
0000
1000
0000
2002
0000
3003
0000
,
2000
0000
0001
0000
3100
0000
0100
0010
0002
0000
1000
0000
0103
0000
0100
0010
,
0002
2003
3200
0302
0023
2030
3002
0203
,
2300
0000
0001
0000
3010
1000
0010
0000
0100
0000
0001
1000
0001
0000
0010
0000
,
0100
0000
1000
0010
1000
0001
0010
0001
1000
0000
0001
0000
2002
0000
3003
0000
,
0001
0000
0100
0001
1000
0001
0010
0000
0001
0000
1000
0000
0010
0000
0000
0000
,
1000
0010
0001
0010
1000
0100
0001
0100
,
1000
0000
0010
0000
0100
0000
0010
0000
0002
0000
0003
0020
0000
0030
2000
0000
,
3000
0000
0100
0000
0010
0000
0100
0000
0002
0000
0003
0200
0000
0300
2000
0000
,
3001
0100
0000
0010
0000
0100
0001
0000
0010
0100
0000
1000
0000
0100
0010
0000
,
0001
0100
0000
0010
0000
1000
0010
0100
0002
0000
0000
1000
0000
0000
1003
0000
,
0001
0000
0010
0000
0100
0000
0010
0000
2000
0000
3000
0020
0000
0030
0002
0000
,
0003
0000
0100
0000
0010
0000
0100
0000
2000
0000
3000
0200
0000
0300
0002
0000
,
1003
0100
0000
0010
0000
0001
1000
0001
0100
0000
0000
0010
0000
0000
0220
0000
,
0000
0000
0330
1001
,
1000
0100
0010
0100
0002
0000
0000
0000
0000
0000
0000
0000
0000
0000
0000
0000
,
0000
0000
0003
0000
;

//---------------dance-single - ----------------
#NOTEDATA:;
#CHARTNAME:;
#STEPSTYPE:dance-single;
#DESCRIPTION:;
#CHARTSTYLE:;
#DIFFICULTY:Medium;
#METER:12;
#RADARVALUES:0.547227,0.626595,0.195232,0.821322,0.100982,569.000000,540.000000,29.000000,122.000000,0.000000,0.000000,0.000000,0.000000,40.000000,0.547227,0.626595,0.195232,0.821322,0.100982,569.000000,540.000000,29.000000,122.000000,0.000000,0.000000,0.000000,0.000000,40.000000;
#CREDIT:;
#OFFSET:-0.182000;
#BPMS:0.000000=165.000000
;
#STOPS:;
#DELAYS:;
#WARPS:303.000000=16.000000
,320.000000=16.000000
;
#TIMESIGNATURES:0.000000=4=4
;
#TICKCOUNTS:0.000000=4
;
#COMBOS:0.000000=1
;
#SPEEDS:0.000000=1.000000=0.000000=0
;
#SCROLLS:0.000000=1.000000
,137.000000=0.000000
,139.000000=1.000000
,208.000000=0.000000
,209.000000=0.062500
,210.000000=0.125000
,211.000000=0.187500
,212.000000=0.250000
,213.000000=0.312500
,214.000000=0.375000
,215.000000=0.437500
,216.000000=0.500000
,217.000000=0.562500
,218.000000=0.625000
,219.000000=0.687500
,220.000000=0.750000
,221.000000=0.812500
,222.000000=0.875000
,223.000000=0.937500
,224.000000=1.000000
,286.000000=0.000000
,287.000000=1.000000
,319.000000=0.000000
,320.000000=1.000000
,336.000000=0.500000
,351.500000=1.000000
;
#FAKES:;
#LABELS:0.000000=Song Start
;
#NOTES:
0000
0000
0000
0000
,
0000
0000
0000
0000
,
0000
0000
0000
0000
,
0000
0000
0000
0000
,
0001
0010
0100
1000
0002
0000
1003
0000
,
0001
0100
0010
1000
0002
0000
1003
0000
,
0001
0000
0000
0010
0000
0000
0001
0000
1000
0000
0000
0010
0000
0000
1000
0000
,
0100
0000
0000
0010
0000
0000
0100
0000
2002
0000
0000
0000
3003
0000
0000
0000
,
1000
0010
0100
0001
2000
0000
3001
0000
,
1000
0100
0010
0001
2000
0000
3001
0000
,
1000
0000
0000
0010
0000
0000
0100
0000
0001
0000
0000
1000
0000
0000
2002
0000
,
0000
0000
0000
3003
,
1000
0100
1000
0100
0020
0000
0001
0000
,
0130
1000
0100
1000
0010
0000
1010
0000
,
0001
1000
0001
1000
0200
0000
0010
0000
,
1300
0010
1000
0001
0010
0001
1000
0000
,
0001
0100
0001
0100
0020
0000
1000
0000
,
0130
0001
0100
0001
0010
0000
0011
0000
,
1000
0001
1000
0001
0200
0000
0010
0000
,
0301
1000
0100
0010
0002
0000
0003
0000
,
0001
0100
0001
0200
1000
0000
0310
0000
,
1000
0100
1000
0200
0001
0000
0310
0000
,
0001
0100
0001
0000
1000
0100
1000
0000
,
0001
0100
0010
1000
0002
0000
1003
0000
,
0001
0010
0001
0020
1000
0000
0130
0000
,
1000
0010
1000
0020
0001
0000
0130
0000
,
0001
0010
0001
0000
1000
0010
1000
0000
,
0001
0010
0100
1000
0010
0100
0002
0000
,
0003
1000
0100
1000
2100
0000
3001
0102
,
0000
1003
2100
0000
3001
0102
0000
0013
,
0000
0001
0100
0001
0102
0000
1003
2100
,
0000
3001
0102
0000
1003
2100
0000
3010
,
0000
1000
0100
0010
0012
0000
1003
2010
,
0000
3001
0102
0000
1003
2100
0000
3001
,
2002
3003
0000
0000
,
1001
0110
2002
3003
,
1000
0010
0010
1000
0002
0010
2003
0100
,
3001
0100
0010
0100
0001
0001
0002
0000
,
0013
0100
1000
0001
0200
0010
0302
1000
,
0013
0200
0302
0203
0302
0203
1300
0000
,
0001
0100
0100
0010
2000
0010
3002
0010
,
0103
0010
1000
0001
0010
0010
0010
0000
,
1001
0000
1001
0000
1000
0100
0010
0000
,
0001
0100
0010
1000
0002
0000
1003
0000
,
0001
0010
0010
0001
2000
0010
3002
0100
,
1003
0100
0010
0100
1000
1000
2000
0000
,
3010
0100
0001
1000
0200
0010
2300
0001
,
3010
0200
2300
3200
2300
3200
0301
0000
,
1000
0100
0100
0010
0002
0010
2003
0010
,
3100
0010
0001
1000
0010
0010
0010
0000
,
1000
0010
1000
0010
0001
0010
1000
0000
,
0001
0010
0100
0010
1000
0010
0100
0010
,
0002
0000
0000
0000
,
0000
0000
0000
0000
,
0000
0000
0000
0000
,
0000
0000
0000
0000
,
1003
1000
0010
0010
,
0100
0000
0100
0000
0001
0000
0001
1000
,
0100
0010
0100
0010
0001
1000
0001
1000
,
0020
0000
0230
0000
0301
1000
0100
0010
,
0002
0203
0320
2030
3200
2300
3020
0230
,
0302
0023
0032
0203
0320
2030
3200
2300
,
3010
0100
0010
0100
0001
1000
0001
1000
,
0100
0010
0100
0010
0002
0000
1003
0000
,
1002
0000
0000
0000
0103
0000
0010
0000
2000
0000
0000
0001
0000
0000
3100
0000
,
0010
0000
0000
0100
0000
0000
0010
0000
0002
0000
0000
1000
0000
0000
0103
0000
,
0020
0000
0230
0000
0301
1000
0001
0000
,
1000
0100
1000
0100
0010
0001
1000
0000
,
2001
0000
0000
0000
3010
0000
0100
0000
0002
0000
0000
0100
0000
0000
0013
0000
,
0100
0000
1000
0000
1100
0000
0000
0000
0002
0000
0000
0010
0000
0000
0103
0000
,
0010
1000
0001
0010
0100
1000
0001
0100
,
0020
2030
3001
0000
,
1002
0000
0000
0000
0013
0000
0100
0000
2000
0000
0000
0100
0000
0000
3010
0000
,
0100
0000
0001
0000
0101
0000
0000
0000
2000
0000
0000
0010
0000
0000
3100
0000
,
0010
0001
1000
0010
0100
0001
1000
0000
,
0001
0010
0100
1000
0010
0100
0001
0000
,
0000
0000
0000
0000
,
0000
0000
0000
0000
,
0000
0000
0000
0000
,
0000
0000
0000
0002
,
0000
MMM0
0000
0000
0000
MMM0
0000
0000
0000
MMM0
0000
0000
0000
MMM0
0000
0000
0000
MMM0
0000
0000
0000
MMM0
0000
0000
0000
MMM0
0000
0000
0000
MMM0
0000
0000
0000
MMM0
0000
0000
0000
MMM0
0000
0000
0000
MMM0
0000
0000
0000
MMM0
0000
0000
0003
MMM0
0000
0000
0000
0000
0000
0000
0000
0000
0000
0000
0000
0000
0000
0000
,
0000
0000
0000
0000
,
0000
0000
0000
0000
,
0000
0000
0000
0000
,
0000
0000
0000
0000
,
0000
0000
0000
0000
,
0000
0000
0000
0000
,
0000
0000
0000
0000
0000
0000
0000
0001
,
2000
0000
0010
0000
0010
0000
3010
1000
,
0002
0000
0010
0000
0010
0000
0013
0001
,
0200
0000
0310
0000
1000
0010
0100
0001
,
2000
0000
0000
3001
,
1000
0010
0010
1000
0002
0010
2003
0100
,
3001
0100
0010
1000
0100
0100
0200
0000
,
2300
0001
3010
0100
0002
1000
0013
0010
,
0002
0023
2030
3020
0032
0203
2300
3200
,
0301
0010
0010
0001
2000
0010
3002
0100
,
1003
0100
0010
0001
0100
0100
0100
0000
,
0001
0010
0001
0010
1000
0010
0001
0000
,
1000
0010
0100
0010
0001
0010
0100
0010
,
1000
0001
0100
0010
2000
0000
3001
0000
,
1000
0100
0010
0001
2000
0000
3001
0000
,
1000
0000
0000
0010
0000
0000
1000
0000
0001
0000
0000
0010
0000
0000
0001
0000
,
0100
0000
0000
0010
0000
0000
0100
0000
2002
0000
0000
0000
3003
0000
0000
0000
,
0001
0010
0100
1000
0002
0000
1003
0000
,
0001
0100
0010
1000
0002
0000
1003
0000
,
0001
0000
0000
0010
0000
0000
0100
0000
1000
0000
0000
0001
0000
0000
2002
0000
,
0000
0000
0000
3003
,
0001
0100
2000
0000
0000
0000
0000
0000
,
0000
0000
3000
0000
;

//---------------dance-single - ----------------
#NOTEDATA:;
#CHARTNAME:;
#STEPSTYPE:dance-single;
#DESCRIPTION:;
#CHARTSTYLE:;
#DIFFICULTY:Easy;
#METER:10;
#RADARVALUES:0.424125,0.546650,0.188500,0.538572,0.000000,441.000000,413.000000,28.000000,80.000000,0.000000,0.000000,0.000000,0.000000,0.000000,0.424125,0.546650,0.188500,0.538572,0.000000,441.000000,413.000000,28.000000,80.000000,0.000000,0.000000,0.000000,0.000000,0.000000;
#CREDIT:;
#OFFSET:-0.182000;
#BPMS:0.000000=165.000000
;
#STOPS:;
#DELAYS:;
#WARPS:;
#TIMESIGNATURES:0.000000=4=4
;
#TICKCOUNTS:0.000000=4
;
#COMBOS:0.000000=1
;
#SPEEDS:0.000000=1.000000=0.000000=0
;
#SCROLLS:0.000000=1.000000
,137.000000=0.000000
,139.000000=1.000000
,286.000000=0.000000
,287.000000=1.000000
,303.000000=0.000000
,303.937500=16.000000
,304.000000=1.000000
;
#FAKES:;
#LABELS:0.000000=Song Start
;
#NOTES:
0000
0000
0000
0000
,
0000
0000
0000
0000
,
0000
0000
0000
0000
,
0000
0000
0000
0000
,
1000
0100
0010
0000
0100
0000
0100
0000
,
0010
0100
1000
0000
0001
0000
0001
0000
,
1000
0010
1000
0000
0001
0010
0001
0000
,
1000
0100
1000
0000
0002
0000
0003
0000
,
0001
0100
0010
0000
0100
0000
0100
0000
,
0010
0100
0001
0000
1000
0000
1000
0000
,
0001
0010
0100
0000
1000
0000
0000
2002
,
0000
0000
0000
3003
,
0001
0100
0001
0000
0100
0000
0010
0000
,
0100
0001
0100
0000
0001
0000
0010
0000
,
0100
0010
0100
0000
1000
0000
0001
0000
,
2000
3020
0230
0302
,
1003
0100
1000
0000
0100
0000
0010
0000
,
0100
1000
0100
0000
1000
0000
0010
0000
,
0100
0010
0100
0000
0001
0000
1000
0000
,
0100
0010
0100
0010
0200
0000
0300
0000
,
0010
0000
0010
0000
0010
0001
0100
0000
,
0010
0000
0010
0000
0010
1000
0100
0000
,
0010
0001
1000
0000
1000
0001
0100
0000
,
0010
0100
0010
0100
0020
0000
0030
0000
,
0100
0000
0100
0000
0100
0001
0010
0000
,
0100
0000
0100
0000
0100
1000
0010
0000
,
0100
0001
1000
0000
1000
0001
0010
0000
,
0100
1000
0001
0100
0010
0000
0220
0000
,
0330
0000
1000
0000
1010
0000
0000
0101
,
0000
0000
1010
0000
0000
0101
0000
1000
,
0100
0000
0010
0000
0011
0000
0000
1100
,
0000
0000
0011
0000
0000
1100
0000
0001
,
0100
0000
0010
0000
1010
0000
0000
0101
,
0000
0000
0011
0000
0000
1100
0000
0000
,
2002
3003
0000
0000
,
1001
0110
2002
3003
,
1000
0010
2000
0000
0001
0000
3100
0000
,
0010
0100
0010
0100
1000
0001
1000
0000
,
0010
0100
0002
0000
0100
0000
1003
0000
,
2000
3200
0302
0203
,
1300
0001
2000
0000
0001
0000
3010
0000
,
0100
0010
0100
0010
1000
0001
1000
0000
,
0002
0010
2003
0010
,
3001
1000
0001
1000
0002
0000
0003
0000
,
0001
0010
0002
0000
1000
0000
0103
0000
,
0010
0100
0010
0100
0001
1000
0001
0000
,
0010
0100
2000
0000
0100
0000
3001
0000
,
0002
0203
2300
3200
,
0301
1000
0002
0000
1000
0000
0013
0000
,
0100
0010
0100
0010
0001
1000
0001
0000
,
1000
0010
1000
0000
0001
0010
0001
0000
,
2000
3020
0230
0302
,
0023
0000
0000
0000
,
0000
0000
0000
0000
,
0000
0000
0000
0000
,
0000
0000
0000
0000
,
0031
0001
0010
0010
,
0100
0100
1000
1000
,
0001
0100
0010
1000
,
0002
0000
2003
0000
3001
1000
0100
0010
,
0210
0001
0010
1300
,
2000
0100
0001
3010
,
0020
1000
0100
0031
,
0002
0023
2030
3001
,
1002
0000
0013
0100
1000
0000
0001
0000
,
2000
0000
3010
0100
0001
0000
1000
0000
,
0002
0000
0023
0000
0130
1000
0001
0000
,
0200
0000
0300
0110
,
1002
0000
0013
0001
1000
0001
0100
0000
,
1002
0000
0103
0001
0010
0001
0100
0000
,
0001
0010
0100
0000
1000
0010
0100
0000
,
0002
2003
3001
0000
,
2001
0000
3010
1000
0001
1000
0100
0000
,
2001
0000
3100
1000
0010
1000
0100
0000
,
2000
0000
3020
0000
0130
0001
0010
0100
,
2000
0000
0000
0002
,
3003
0000
0000
0000
,
0000
0000
0000
0000
,
0000
0000
0000
0000
,
0000
0000
0000
0000
,
0002
0100
0103
0010
,
2000
0100
3100
0010
,
0002
0000
1003
0000
0010
0100
0001
1000
,
0200
0000
0000
0300
,
1000
0010
2000
0000
0001
0000
3100
0000
,
0010
0100
0010
0100
1000
0001
0100
0000
,
1002
0013
1002
0103
,
0002
0023
2030
3020
,
0031
0010
0002
0000
1000
0000
0103
0000
,
0010
0100
0010
0100
0001
1000
0100
0000
,
0010
0001
1000
0000
1000
0001
0100
0000
,
0002
0023
0230
2300
,
3001
0100
0010
0000
0100
0000
0100
0000
,
0010
0100
0001
0000
1000
0000
1000
0000
,
0001
0010
0001
0000
1000
0010
1000
0000
,
0001
0100
0001
0000
2000
0000
3000
0000
,
1000
0100
0010
0000
0100
0000
0100
0000
,
0010
0100
1000
0000
0001
0000
0001
0000
,
1000
0010
0100
0000
0001
0000
0000
2002
,
0000
0000
0000
3003
,
1000
0100
0020
0000
0000
0000
0000
0000
,
0000
0000
0030
0000
;

//---------------dance-single - ----------------
#NOTEDATA:;
#CHARTNAME:;
#STEPSTYPE:dance-single;
#DESCRIPTION:;
#CHARTSTYLE:;
#DIFFICULTY:Beginner;
#METER:6;
#RADARVALUES:0.274095,0.375822,0.121179,0.323143,0.000000,285.000000,267.000000,18.000000,48.000000,0.000000,0.000000,0.000000,0.000000,0.000000,0.274095,0.375822,0.121179,0.323143,0.000000,285.000000,267.000000,18.000000,48.000000,0.000000,0.000000,0.000000,0.000000,0.000000;
#CREDIT:;
#NOTES:
0000
0000
0000
0000
,
0000
0000
0000
0000
,
0000
0000
0000
0000
,
0000
0000
0000
0000
,
1000
0100
0010
0000
,
0100
1000
0010
0000
,
0100
0100
0001
0001
,
1000
0100
0020
0030
,
0001
0100
0010
0000
,
0100
0001
0010
0000
,
0100
0000
1000
0000
0001
0000
0000
2002
,
0000
0000
0000
3003
,
0001
0100
0001
0000
,
1000
0100
0010
0000
,
0001
1000
0001
0000
,
2000
3020
0230
0302
,
1003
0100
1000
0000
,
0001
0100
0010
0000
,
1000
0001
1000
0000
,
0200
0320
0032
0003
,
1000
1000
0010
0000
,
0100
0100
0001
0000
,
1000
1000
0100
0100
,
0010
0001
0200
0300
,
0001
0001
0010
0000
,
0100
0100
1000
0000
,
0001
0001
0100
0100
,
0010
1000
0001
0020
,
0030
0000
0100
0000
0220
0000
0000
0030
,
0000
0000
0300
0000
0000
0110
0000
0000
,
1000
0000
0001
0000
2002
0000
0000
3000
,
0000
0000
0003
0000
0000
1001
0000
0000
,
0001
0000
0100
0000
0220
0000
0000
0300
,
0000
0000
0030
0000
0000
0110
0000
0000
,
2002
3003
0000
0000
,
1001
1001
2002
3003
,
1000
0100
1000
0100
,
0010
0001
1000
0000
,
0010
0100
0001
0001
,
1000
0100
0001
0010
,
1000
0001
1000
0001
,
0010
0100
1000
0000
,
0001
0100
0001
0010
,
0100
0100
0220
0330
,
0001
0100
0001
0100
,
0010
1000
0001
0000
,
0010
0100
1000
1000
,
0001
0100
1000
0010
,
0001
1000
0001
1000
,
0010
0100
0001
0000
,
1000
1000
0100
0010
,
0001
0001
0100
0010
,
2000
0000
0000
0000
,
0000
0000
0000
0000
,
0000
0000
0000
0000
,
0000
0000
0000
0000
,
3001
0000
1000
0000
,
0001
0000
1000
0000
,
0200
0000
0300
0000
,
1000
0100
0010
0001
,
2002
0000
0000
0000
,
0000
0000
0000
3003
,
0001
0100
0010
1000
,
0100
0010
0001
0000
,
1001
0000
0001
0001
,
0100
0000
1000
1000
,
0100
0000
0001
1000
,
0002
0000
0000
0003
,
2001
3010
0100
0100
,
0002
1003
0100
0100
,
0010
0001
1000
0010
,
0200
0320
0130
0000
,
1002
0013
0100
0100
,
2000
3001
0100
0100
,
0020
0230
0301
1000
,
0200
0000
0300
2002
,
3003
0000
0000
0000
,
0000
0000
0000
0000
,
0000
0000
0000
0000
,
0000
0000
0000
0000
,
2000
0000
3000
0000
,
0002
0000
0003
0000
,
0200
0000
0310
1000
,
0002
0000
0000
0003
,
1000
0100
1000
0100
,
0010
0001
1000
0000
,
0010
0100
0001
0001
,
1000
0100
0001
0010
,
1000
0001
1000
0001
,
0010
0100
1000
0000
,
0001
0001
0100
0010
,
1000
1000
0100
0010
,
0001
0100
0010
0000
,
0100
0001
0010
0000
,
0100
0100
1000
1000
,
0001
0100
0020
0030
,
1000
0100
0010
0000
,
0100
1000
0010
0000
,
0100
0000
0001
0000
1000
0000
0000
2002
,
0000
0000
0000
3003
,
0010
0200
0000
0000
,
0000
0000
0300
0000
;
