#VERSION:0.83;
#TITLE:OUTER LIMITS;
#SUBTITLE:;
#ARTIST:L.E.D.-G;
#TITLETRANSLIT:;
#SUBTITLETRANSLIT:;
#ARTISTTRANSLIT:;
#GENRE:Hardcore Breakbeats;
#ORIGIN:;
#CREDIT:;
#BANNER:OUTER LIMITS.png;
#BACKGROUND:OUTER LIMITS-bg.png;
#PREVIEWVID:;
#JACKET:OUTER LIMITS-jacket.png;
#CDIMAGE:;
#DISCIMAGE:;
#LYRICSPATH:;
#CDTITLE:cdtitle.png;
#MUSIC:OUTER LIMITS.ogg;
#OFFSET:-0.375120;
#SAMPLESTART:24.234770;
#SAMPLELENGTH:11.228071;
#SELECTABLE:YES;
#DISPLAYBPM:86.000000:171.000000;
#BPMS:0.000=85.500,
30.000=171.000,
155.000=85.500,
157.000=171.000,
189.000=85.500,
201.000=171.000;
#STOPS:30.000=2.456,
201.000=2.456;
#DELAYS:;
#WARPS:;
#TIMESIGNATURES:0.000=4=4;
#TICKCOUNTS:0.000=4;
#COMBOS:0.000=1;
#SPEEDS:0.000=1.000=0.000=0;
#SCROLLS:0.000=1.000,
59.000=0.000,
59.500=1.000,
60.000=0.000,
60.500=1.000,
61.000=0.000,
61.500=1.000,
230.000=0.000,
230.500=1.000,
231.000=0.000,
231.500=1.000,
232.000=0.000,
232.500=1.000;
#FAKES:;
#LABELS:0.000=Song Start;
#BGCHANGES:-1.000=OUTER LIMITS.mp4=1.000=1=0=1===CrossFade==,
266.000=OUTER LIMITS-bg.png=1.000=1=0=1===CrossFade==,
99999=-nosongbg-=1.000=0=0=0 // don't automatically add -songbackground-
;
#KEYSOUNDS:;
#ATTACKS:
;

//---------------dance-single - ----------------
#NOTEDATA:;
#CHARTNAME:;
#STEPSTYPE:dance-single;
#DESCRIPTION:;
#CHARTSTYLE:;
#DIFFICULTY:Challenge;
#METER:16;
#RADARVALUES:0.731192,0.741127,0.553111,0.528345,0.577877,620.000000,553.000000,67.000000,64.000000,0.000000,0.000000,0.000000,0.000000,0.000000,0.731192,0.741127,0.553111,0.528345,0.577877,620.000000,553.000000,67.000000,64.000000,0.000000,0.000000,0.000000,0.000000,0.000000;
#CREDIT:;
#OFFSET:-0.375120;
#BPMS:0.000000=85.500000
,30.000000=171.000000
,155.000000=85.500000
,157.000000=171.000000
,189.000000=85.500000
,201.000000=171.000000
;
#STOPS:30.000000=2.456141
,201.000000=2.456139
;
#DELAYS:;
#WARPS:;
#TIMESIGNATURES:0.000000=4=4
;
#TICKCOUNTS:0.000000=4
;
#COMBOS:0.000000=1
;
#SPEEDS:0.000000=1.000000=0.000000=0
;
#SCROLLS:0.000000=1.000000
,59.000000=0.000000
,59.500000=1.000000
,60.000000=0.000000
,60.500000=1.000000
,61.000000=0.000000
,61.500000=1.000000
,230.000000=0.000000
,230.500000=1.000000
,231.000000=0.000000
,231.500000=1.000000
,232.000000=0.000000
,232.500000=1.000000
;
#FAKES:;
#LABELS:0.000000=Song Start
;
#DISPLAYBPM:86.000000:171.000000;
#NOTES:
// measure 0
0000
0000
0000
0000
,  // measure 1
0000
0000
0000
0000
,  // measure 2
0000
0000
0000
0000
,  // measure 3
0000
0000
0000
0000
,  // measure 4
0002
0010
0010
0010
2003
0100
3002
0023
,  // measure 5
0032
0000
1000
0000
1003
0001
0100
0001
1000
0000
1000
0000
1000
0001
0010
0001
,  // measure 6
2000
0010
0010
0010
3002
0100
2003
3020
,  // measure 7
2030
0000
0001
0000
3001
0010
0100
1000
0002
0000
0000
0000
1003
0000
0010
0000
,  // measure 8
0110
0000
0010
0000
1000
0001
0000
1000
0001
0000
1000
0100
0010
0000
0100
0000
,  // measure 9
0110
0000
0100
0000
1000
0001
0000
1000
0001
0000
0100
0000
0010
0000
0100
0000
,  // measure 10
0110
0000
0110
0000
1000
0010
0000
0100
0001
0000
1000
0100
0010
0001
0010
0100
,  // measure 11
1000
0000
1000
0000
0001
0100
0001
0100
0010
0000
1000
0000
0001
0000
0010
0000
,  // measure 12
0110
0000
0010
0000
0001
1000
0000
0001
1000
0000
0001
0100
0010
0000
0100
0000
,  // measure 13
0110
0000
0100
0000
0001
1000
0000
0001
1000
0000
0100
0000
0010
0000
0100
0000
,  // measure 14
0110
0000
0110
0000
0001
0010
0000
0100
1000
0000
0001
0100
0020
0000
0000
0030
,  // measure 15
0220
0000
0000
0330
2002
0000
0000
3003
1000
0100
0010
0001
1000
0000
0010
0000
,  // measure 16
2010
0000
0002
0000
3003
0001
1000
0001
0010
0000
0100
1000
0001
0000
1000
0000
,  // measure 17
1002
0000
0203
0000
1300
0100
0000
0010
0100
0000
0001
1000
0100
0000
0010
0000
,  // measure 18
0012
0000
2000
0000
3003
1000
0001
1000
0010
0000
0100
0001
1000
0001
0010
0100
,  // measure 19
1000
0000
0001
0000
0100
0010
0100
0000
1001
0000
0000
0000
1000
0000
0100
0000
,  // measure 20
2100
0000
0002
0000
3003
0001
1000
0001
0100
0000
0010
1000
0001
0000
1000
0000
,  // measure 21
1002
0000
0023
0000
1030
0010
0000
0100
0010
0000
0001
1000
0001
0000
0100
0000
,  // measure 22
0102
0000
2000
0000
3003
1000
0001
1000
0100
0000
0010
0000
0100
1000
0001
0100
,  // measure 23
0001
0000
0100
0000
0010
1000
0001
0000
1001
0000
0000
0000
0001
0000
0010
0000
,  // measure 24
0011
0000
1000
0000
0010
0000
1010
0000
1010
0000
0000
0001
0010
0000
0100
0000
,  // measure 25
1100
0000
0101
0000
1000
0010
1000
0010
0100
0001
0100
0001
1000
0000
0100
0000
,  // measure 26
1100
0000
0001
0000
0100
0000
0101
0000
0000
0000
1001
0000
0001
0010
0100
1000
,  // measure 27
0010
0100
0001
0000
1000
0100
1000
0100
0010
0001
1000
0001
2000
0000
0000
0000
,  // measure 28
3000
0020
0000
0030
2020
0000
0030
0000
,  // measure 29
0000
0000
0010
0001
0010
0000
3002
0000
,  // measure 30
0003
0020
0000
0030
0022
0000
0030
0000
,  // measure 31
0000
0000
0000
0000
1000
0000
1003
0000
0001
0100
0010
1000
0001
0000
1000
0000
,  // measure 32
0100
0000
0110
0000
0000
0100
0000
0100
0010
0000
0011
0000
1000
0000
0001
0000
,  // measure 33
0100
0000
0110
0000
0000
0100
0000
0100
0010
0000
1010
0000
0001
0000
1000
0000
,  // measure 34
0100
0000
0110
0000
0000
0100
0000
0100
0010
0000
0011
0000
1000
0000
0010
0000
,  // measure 35
0100
0000
0001
0000
1000
0100
0000
0010
0001
0000
1001
0000
0001
0000
0100
0000
,  // measure 36
1000
0000
1100
0000
0000
1000
0000
0100
0001
0000
1001
0000
1000
0000
0100
0000
,  // measure 37
0001
0000
0101
0000
0000
0001
0000
0100
1000
0000
1001
0000
0001
0000
0100
0000
,  // measure 38
0010
0000
1010
0000
1000
0100
0000
0010
0001
0000
0011
0000
0000
0000
0000
0000
,  // measure 39
0000
0000
0000
0000
2001
0000
3100
0000
0010
0000
0100
0001
0100
0001
0100
0000
,  // measure 40
0010
0000
0100
1000
0002
0000
0103
0000
0010
0000
2001
0000
3100
0000
0010
0000
,  // measure 41
0010
0000
0001
1000
0002
0000
0103
0000
0010
0000
0100
1000
0100
1000
0100
0000
,  // measure 42
0010
0000
1000
0001
0010
0000
0010
0000
0010
0000
0100
0001
0100
0001
0100
0000
,  // measure 43
0010
0000
0001
0000
2001
0000
3000
0001
0010
0000
1002
0000
0103
0010
1000
0000
,  // measure 44
0010
0000
1000
0001
2000
0000
3100
0000
0010
0000
1000
0010
1000
0010
0100
0000
,  // measure 45
0010
0000
0001
1000
0002
0000
0103
0000
0010
0000
0001
0010
0001
0010
0100
0000
,  // measure 46
0010
0000
1000
0001
1000
0000
0100
0000
0010
0000
0010
0000
0010
0000
0100
0010
,  // measure 47
0100
0000
0001
0100
2000
0000
0001
0000
0001
0000
0001
0000
3020
0000
1000
0000
,  // measure 48
1000
1000
0230
0001
0001
0001
0310
0110
,  // measure 49
1001
0000
0001
0010
0200
0000
0001
0000
0001
0000
0001
0000
0320
0000
1000
0000
,  // measure 50
0100
0002
0033
0000
0001
0010
0110
0010
,  // measure 51
0001
1000
0000
0001
0100
0000
1000
0100
0010
0000
0100
0000
0110
0000
0100
0000
,  // measure 52
0001
1000
0000
0100
0010
0000
0100
0000
0001
0000
0100
0000
0110
0000
0110
0000
,  // measure 53
0001
0010
0000
0100
1000
0000
0001
0100
0010
1000
0010
0100
0001
0000
0001
0000
,  // measure 54
1000
0100
1000
0100
0010
0000
0001
0000
1000
0000
0010
0000
0110
0000
0010
0000
,  // measure 55
1000
0001
0000
1000
0100
0000
0001
0100
0010
0000
0100
0000
0110
0000
0100
0000
,  // measure 56
1000
0001
0000
0100
0010
0000
0100
0000
1000
0000
0100
0000
0110
0000
0110
0000
,  // measure 57
1000
0010
0000
0100
0001
0000
1000
0100
0020
0000
0000
0030
0220
0000
0000
0330
,  // measure 58
2002
0000
0000
3003
0001
0100
0010
1000
0001
0000
0010
0000
1100
0000
1000
0000
,  // measure 59
0010
0000
0101
0000
0101
0000
0000
1000
0100
0000
0010
0000
0011
0000
1010
0000
,  // measure 60
0001
0010
0001
0010
0100
1000
0100
1000
0001
0000
0100
0000
1010
0000
1000
0000
,  // measure 61
0100
0000
0011
0000
0000
0000
1001
0000
1000
0010
0100
0001
0010
0100
1000
0000
,  // measure 62
0001
0100
0001
0100
0010
1000
0100
0010
0002
0000
0000
0000
0003
0000
0020
0000
,  // measure 63
0000
0030
0022
0000
0030
0000
0000
0000
,  // measure 64
1003
0100
0010
0001
1000
0001
0100
0010
2000
0000
0000
0000
3000
0000
0020
0000
,  // measure 65
0000
0030
2020
0000
0030
0000
0000
0000
,  // measure 66
3001
1000
0001
1000
0200
0000
0000
0000
0310
0000
0000
0000
0000
0000
0000
0000
;

//---------------dance-single - ----------------
#NOTEDATA:;
#CHARTNAME:;
#STEPSTYPE:dance-single;
#DESCRIPTION:;
#CHARTSTYLE:;
#DIFFICULTY:Hard;
#METER:13;
#RADARVALUES:0.548394,0.576433,0.321960,0.421025,0.028894,465.000000,426.000000,39.000000,51.000000,0.000000,0.000000,0.000000,0.000000,0.000000,0.548394,0.576433,0.321960,0.421025,0.028894,465.000000,426.000000,39.000000,51.000000,0.000000,0.000000,0.000000,0.000000,0.000000;
#CREDIT:;
#OFFSET:-0.375120;
#BPMS:0.000000=85.500000
,30.000000=171.000000
,155.000000=85.500000
,157.000000=171.000000
,189.000000=85.500000
,201.000000=171.000000
;
#STOPS:30.000000=2.456141
,201.000000=2.456139
;
#DELAYS:;
#WARPS:;
#TIMESIGNATURES:0.000000=4=4
;
#TICKCOUNTS:0.000000=4
;
#COMBOS:0.000000=1
;
#SPEEDS:0.000000=1.000000=0.000000=0
;
#SCROLLS:0.000000=1.000000
,59.000000=0.000000
,59.500000=1.000000
,60.000000=0.000000
,60.500000=1.000000
,61.000000=0.000000
,61.500000=1.000000
,230.000000=0.000000
,230.500000=1.000000
,231.000000=0.000000
,231.500000=1.000000
,232.000000=0.000000
,232.500000=1.000000
;
#FAKES:;
#LABELS:0.000000=Song Start
;
#DISPLAYBPM:86.000000:171.000000;
#NOTES:
0000
0000
0000
0000
,
0000
0000
0000
0000
,
0000
0000
0000
0000
,
0000
0000
0000
0000
,
0002
0010
0010
0010
2003
0100
3002
0023
,
0032
0000
1000
0000
1003
0001
1000
0000
0001
0000
0001
0000
0001
1000
0001
0000
,
2000
0010
0010
0010
3002
0100
2003
3020
,
2030
0001
0001
0010
3200
0000
0310
0001
,
1000
0001
0100
0010
1010
0000
0010
0100
,
0001
1000
0100
0010
0110
0000
0001
0010
,
0100
1000
0001
1000
0001
0100
1000
0100
,
0001
0010
0100
1000
1001
0000
0010
1000
,
0001
1000
0100
0010
0011
0000
0010
0100
,
1000
0001
0100
0010
0110
0000
1000
0010
,
0100
0000
0001
0000
1000
0000
0001
0000
1000
0000
0100
0000
0220
0000
0000
0330
,
0022
0000
0000
0033
2002
0000
0000
3003
0001
0000
1000
0000
0001
0000
0100
0000
,
0001
0100
1000
0100
1000
0100
0001
1000
,
0100
0010
1000
0010
1000
0010
0001
1000
,
0001
1000
0001
0010
0001
1000
0010
0001
,
1000
0100
0001
1000
1001
0000
1000
0100
,
1000
0100
0001
0100
0001
0100
1000
0001
,
0100
0010
0001
0010
0001
0010
1000
0001
,
1000
0001
1000
0100
1000
0001
0100
0001
,
1000
0100
0010
0001
1001
0000
1000
0010
,
1000
0000
0010
0000
0100
0000
0010
0000
0110
0000
0000
0100
0001
0000
0010
0000
,
0100
0000
1000
0000
0001
0000
0010
0000
0110
0000
0000
0100
1000
0000
0010
0000
,
0100
0010
0100
0001
1000
0001
0010
1000
,
0001
0100
1000
0001
1001
0000
2000
0000
,
3000
0020
0000
0030
2020
0000
0030
0000
,
0000
0000
0010
0010
0010
0000
3002
0000
,
0003
0020
0000
0030
0022
0000
0030
0000
,
0000
0000
0010
1003
1001
0000
0001
0100
,
0010
0010
0000
0010
0100
0010
1000
0100
,
0010
0010
0000
0010
0100
0010
0001
0100
,
0010
0010
0000
0010
0100
0010
1000
0001
,
0010
0100
1000
0001
0001
0000
1000
0010
,
0100
0100
0000
0100
1000
0100
0001
0010
,
0100
0100
0000
0100
0001
0100
1000
0001
,
0100
0100
0000
0010
0100
0110
0000
0000
,
0000
0000
1000
0100
0001
0100
1000
0100
,
0001
0100
0120
0000
0031
2001
0000
0001
,
3001
1000
0001
0100
1000
0100
0001
0100
,
1000
0100
0010
0010
0010
1000
0100
1000
,
0010
1000
2010
0000
3100
0012
0000
0010
,
0013
0100
0210
0000
1300
0001
0100
0010
,
0001
0010
0210
0000
0301
1000
0100
0010
,
1000
0010
0001
1000
0010
0010
0010
0100
,
0001
1000
1002
0010
0010
0010
2003
0100
,
0100
0100
3002
0100
0100
0100
1003
1010
,
0101
0000
0001
1000
0200
0000
0001
0000
0001
0000
0001
0000
0320
0000
1000
0000
,
0100
0002
0033
0000
0001
1000
0010
1000
,
0100
1000
1010
0000
1000
0001
0010
0001
,
0100
0001
0011
0000
1000
0010
0100
0001
,
1000
0001
1000
0100
0001
0100
1000
0010
,
0100
0001
1001
0000
0001
0100
0001
0010
,
0001
0100
0110
0000
1000
0100
1000
0010
,
1000
0100
0110
0000
0001
0010
0100
1000
,
0001
0000
1000
0000
0001
0000
0100
0000
0220
0000
0000
0330
2020
0000
0000
3030
,
2002
0000
0000
3003
1000
0000
0001
0000
1000
0000
0100
0000
0001
0000
0100
0000
,
1000
0000
0100
0000
0110
0000
0000
0010
0001
0000
0100
0000
1000
0000
0100
0000
,
0001
0000
0100
0000
0110
0000
0000
0010
1000
0000
0001
0000
0010
0000
0001
0000
,
1000
0010
1000
0100
0001
1000
0010
0001
,
0100
1000
0001
0010
2000
0000
3000
0020
,
0000
0030
2020
0000
0030
0000
0000
0000
,
3001
0010
0100
1000
0002
0000
0003
0020
,
0000
0030
0022
0000
0030
0000
0000
0000
,
1003
0010
0001
0000
0110
0000
0000
0000
;

//---------------dance-single - ----------------
#NOTEDATA:;
#CHARTNAME:;
#STEPSTYPE:dance-single;
#DESCRIPTION:;
#CHARTSTYLE:;
#DIFFICULTY:Medium;
#METER:10;
#RADARVALUES:0.400976,0.414833,0.305449,0.388003,0.000000,340.000000,303.000000,37.000000,47.000000,0.000000,0.000000,0.000000,0.000000,0.000000,0.400976,0.414833,0.305449,0.388003,0.000000,340.000000,303.000000,37.000000,47.000000,0.000000,0.000000,0.000000,0.000000,0.000000;
#CREDIT:;
#OFFSET:-0.375120;
#BPMS:0.000000=85.500000
,30.000000=171.000000
,191.000000=85.500000
,203.000000=171.000000
;
#STOPS:30.000000=2.456141
,203.000000=2.456139
;
#DELAYS:;
#WARPS:;
#TIMESIGNATURES:0.000000=4=4
;
#TICKCOUNTS:0.000000=4
;
#COMBOS:0.000000=1
;
#SPEEDS:0.000000=1.000000=0.000000=0
;
#SCROLLS:0.000000=1.000000
,154.500000=0.000000
,158.000000=1.000000
;
#FAKES:;
#LABELS:0.000000=Song Start
;
#DISPLAYBPM:86.000000:171.000000;
#NOTES:
0000
0000
0000
0000
,
0000
0000
0000
0000
,
0000
0000
0000
0000
,
0000
0000
0000
0000
,
0002
0000
0010
0000
2003
0000
3002
0203
,
0302
0000
1003
0001
1000
0000
1000
0001
,
2000
0000
0010
0000
3002
0000
2003
3200
,
2300
0001
3020
1030
,
1010
0000
0001
0100
0010
0000
1000
0000
,
1001
0000
1000
0100
0010
0000
0001
0000
,
1001
0000
0001
0100
0010
0000
1000
0100
,
1000
0100
0010
0000
0110
0000
0001
0000
,
0011
0000
1000
0100
0010
0000
0001
0000
,
1001
0000
0001
0100
0010
0000
1000
0000
,
1001
0000
1000
0100
0010
0000
0100
0000
,
0100
0000
0100
0000
1001
0000
0001
0100
,
0001
0000
0100
0010
0100
0000
0010
1000
,
0010
0000
1000
0001
1000
0000
0100
1000
,
0100
0000
0010
0001
0010
0000
0001
0100
,
0001
0100
0010
0000
0110
0000
1000
0010
,
1000
0000
0001
1000
0001
0000
0010
0001
,
0010
0000
0100
0010
0100
0000
1000
0100
,
1000
0000
0001
1000
0001
0000
0100
0000
,
0100
0000
0010
0100
0010
0000
2010
0000
,
0001
0000
3010
1000
0001
0000
2001
0000
,
3100
0000
0010
0100
0010
0000
0012
0000
,
1000
0000
0013
0001
1000
0000
0001
0100
,
0010
1000
0001
0000
0010
0000
0200
0000
,
0300
2000
0000
3000
2200
0000
0300
0000
,
0000
3001
0001
0200
,
0300
0002
0000
0003
0202
0000
0300
0000
,
0000
1003
1000
0001
,
0010
0000
0001
0010
0001
0000
1000
0000
,
0010
0000
1000
0010
1000
0000
0001
0000
,
0010
0000
0100
0010
0100
0000
1000
0000
,
0010
0000
0100
0010
0100
0000
0001
0000
,
1000
0000
0100
0010
0001
0000
1000
0000
,
0001
0000
0100
0010
1000
0000
0001
0000
,
0001
0000
1000
0100
0010
0001
0000
0000
,
0000
0000
0000
1002
,
0103
0000
0001
0100
1000
0000
0102
0000
,
1003
2100
0000
0001
3001
0000
2001
0000
,
3100
0000
1000
0100
0001
0000
0100
0100
,
0100
0000
0010
0100
1000
0000
2001
0000
,
3010
1002
0000
0100
0103
0000
1002
0000
,
0013
0000
0001
0010
1000
0000
0012
0000
,
1003
0000
1000
0010
0001
0000
1010
0000
,
0001
0001
0001
0000
1000
0001
0020
0000
,
0001
0230
0010
2300
,
0001
0000
3020
1030
0010
1000
0200
0000
,
0001
0320
1000
0030
,
0001
0000
0011
0000
1000
0100
0010
0000
,
0001
0000
1001
0000
0001
0100
0010
0000
,
1000
0000
1001
0000
1000
0100
0010
0000
,
0001
0100
0001
0100
0010
0000
0110
0000
,
1000
0000
1010
0000
0001
0100
0010
0000
,
1000
0000
1001
0000
1000
0100
0010
0000
,
0001
0000
1001
0000
0001
0100
0010
0000
,
0100
0100
0100
1001
,
0012
0000
0100
0000
0013
0001
0100
0000
,
2001
0000
3100
0000
0010
0001
1000
0000
,
2010
0000
0100
0000
3010
1000
0100
0000
,
0010
0001
1000
0001
0100
0000
0010
0000
,
0200
0000
0300
0002
0000
0003
0202
0000
,
0300
0000
0000
0000
1003
0001
1000
0000
,
0200
0000
0300
2000
0000
3000
2200
0000
,
0300
0000
0000
0000
3001
1000
0001
0000
,
0110
0000
0000
0000
;

//---------------dance-single - ----------------
#NOTEDATA:;
#CHARTNAME:;
#STEPSTYPE:dance-single;
#DESCRIPTION:;
#CHARTSTYLE:;
#DIFFICULTY:Easy;
#METER:7;
#RADARVALUES:0.304270,0.359522,0.198129,0.346726,0.000000,258.000000,234.000000,24.000000,42.000000,0.000000,0.000000,0.000000,0.000000,0.000000,0.304270,0.359522,0.198129,0.346726,0.000000,258.000000,234.000000,24.000000,42.000000,0.000000,0.000000,0.000000,0.000000,0.000000;
#CREDIT:;
#OFFSET:-0.375120;
#BPMS:0.000000=85.500000
,30.000000=171.000000
,191.000000=85.500000
,203.000000=171.000000
;
#STOPS:30.000000=2.456141
,203.000000=2.456139
;
#DELAYS:;
#WARPS:;
#TIMESIGNATURES:0.000000=4=4
;
#TICKCOUNTS:0.000000=4
;
#COMBOS:0.000000=1
;
#SPEEDS:0.000000=1.000000=0.000000=0
;
#SCROLLS:0.000000=1.000000
,154.500000=0.000000
,158.000000=1.000000
;
#FAKES:;
#LABELS:0.000000=Song Start
;
#DISPLAYBPM:86.000000:171.000000;
#NOTES:
0000
0000
0000
0000
,
0000
0000
0000
0000
,
0000
0000
0000
0000
,
0000
0000
0000
0000
,
0002
0000
0000
0000
2003
0000
3002
0203
,
0320
0000
0030
0000
,
2000
0000
0000
0000
3002
0000
2003
3200
,
0320
0000
0030
0001
,
0010
0001
0010
0100
,
1000
0100
1000
0001
,
0010
0000
0001
0000
0100
0000
0010
1000
,
0010
1010
0000
1000
,
0010
1000
0010
0100
,
0001
0100
0001
1000
,
0010
1000
0100
0010
,
0010
0000
0010
0000
0001
1000
0002
0000
,
0100
0103
0010
2000
,
0010
0100
3100
0020
,
0100
0000
0130
0000
0010
0000
0001
1000
,
0001
1001
0000
2000
,
0010
3010
0100
0002
,
0100
0010
0013
0200
,
0010
0310
0100
1000
,
0001
0000
1000
0001
1000
0000
0010
0000
,
0110
0000
0110
1000
,
1000
0000
0001
1000
0001
0000
0010
0000
,
0110
0000
0000
0000
0110
0000
1000
0001
,
1000
0010
0100
0002
,
0003
0020
0000
0030
0022
0000
0030
0000
,
0000
1003
0010
2000
,
3000
0020
0000
0030
2020
0000
0030
0000
,
0000
3001
0010
0100
,
1000
0100
1000
0010
,
1000
0100
0010
0001
,
1000
0001
1000
0001
,
0100
0010
1000
0001
,
0010
0001
0010
0001
,
0100
0001
0010
0100
,
1000
0001
0001
0000
,
0000
0000
0000
0001
,
0011
1000
1010
0001
,
1000
0000
0001
1000
0001
0000
1000
0000
,
1100
0000
0001
0000
0101
0000
1000
0100
,
0010
0100
0010
2002
,
3003
0000
0010
0100
0010
0000
1001
0000
,
0001
0000
0010
0100
0010
0000
0001
0000
,
1000
0000
0010
0100
0010
0000
1000
0000
,
0001
1000
0100
0000
0010
0000
0210
0000
,
0000
2300
0000
3002
,
0000
0203
0310
0220
,
0000
0330
2002
0000
0000
0000
3003
0000
,
1000
0010
1000
0010
,
0100
0001
0100
0001
,
1000
0010
1000
0100
,
0010
0001
0010
0000
0011
0000
0000
0000
,
0001
0010
0001
0010
,
0100
1000
0100
1000
,
0001
0010
0001
0100
,
0010
0000
0010
0000
0010
0000
1000
0001
,
0010
1100
0000
1100
,
0001
0000
0001
0000
1000
0001
1000
0000
,
0010
0101
0000
0101
,
0001
1000
0100
0000
0010
0000
0001
0000
,
2000
0000
3000
0020
0000
0030
2020
0000
,
0030
0000
3001
0010
,
0002
0000
0003
0020
0000
0030
0022
0000
,
0030
0000
1003
0010
,
0100
0000
0000
0000
;

//---------------dance-single - ----------------
#NOTEDATA:;
#CHARTNAME:;
#STEPSTYPE:dance-single;
#DESCRIPTION:;
#CHARTSTYLE:;
#DIFFICULTY:Beginner;
#METER:4;
#RADARVALUES:0.195771,0.267475,0.090809,0.198129,0.000000,166.000000,155.000000,11.000000,24.000000,0.000000,0.000000,0.000000,0.000000,0.000000,0.195771,0.267475,0.090809,0.198129,0.000000,166.000000,155.000000,11.000000,24.000000,0.000000,0.000000,0.000000,0.000000,0.000000;
#CREDIT:;
#OFFSET:-0.375120;
#BPMS:0.000000=171.000000
;
#STOPS:;
#DELAYS:;
#WARPS:;
#TIMESIGNATURES:0.000000=4=4
;
#TICKCOUNTS:0.000000=4
;
#COMBOS:0.000000=1
;
#SPEEDS:0.000000=1.000000=0.000000=0
;
#SCROLLS:0.000000=1.000000
;
#FAKES:;
#LABELS:0.000000=Song Start
;
#DISPLAYBPM:171.000000;
#NOTES:
0000
0000
0000
0000
,
0000
0000
0000
0000
,
0000
0000
0000
0000
,
0000
0000
0000
0000
,
0000
0000
0000
0000
,
0000
0000
0000
0000
,
0000
0000
0000
0000
,
0000
0000
0000
0000
,
0002
0000
0003
0000
,
0010
0000
0100
0100
,
0200
0000
0000
0000
,
0300
0000
0000
0000
,
2000
0000
3000
0000
,
0010
0000
0100
0100
,
0200
0000
0000
0000
,
0300
0000
0000
0000
,
0000
0000
0000
0000
,
0001
0001
0001
0000
,
0010
0010
0010
0000
,
0100
0100
0100
0000
,
1000
0001
1000
0000
,
0001
0001
0001
0000
,
0100
0100
0100
0000
,
0010
0010
0010
0000
,
1001
0000
1001
0000
,
1000
1000
1000
0000
,
0010
0010
0010
0000
,
1000
1000
1000
0000
,
0100
0010
0100
0000
,
0010
0010
0010
0000
,
0001
0001
0001
0000
,
0100
0100
0100
0000
,
0010
0000
0100
0010
,
0100
0000
1001
0000
,
0010
0000
1001
0000
,
0100
0000
1001
0000
,
0001
1000
0001
0000
,
0020
0000
0000
0030
,
0000
0000
0010
0000
,
0200
0000
0000
0300
,
0000
0000
0100
0000
,
2000
0000
3010
0000
,
0020
0000
0130
0000
,
0200
0000
0301
0000
,
0002
0000
2003
0000
,
3002
0000
0013
0000
,
0020
0000
0130
0000
,
2000
0000
0001
3001
,
0000
0000
0000
0000
,
1000
1000
0010
0000
,
1000
1000
0010
0000
,
1000
0000
0001
0000
,
1000
0001
1000
0000
,
0001
0001
0010
0000
,
0001
0001
0010
0000
,
1001
0000
0110
0000
,
0001
0001
0001
0000
,
2000
0000
3000
0000
,
0020
0000
0030
0000
,
0200
0000
0300
0000
,
0002
0000
1003
0000
,
0200
0000
0000
0000
,
0020
0000
0000
0000
,
0330
0000
0000
0000
,
0000
0000
0000
0000
,
1000
1000
1000
0000
,
0010
0010
0010
0000
,
0100
0100
0100
0000
,
0001
1000
0001
0000
,
1000
1000
1000
0000
,
0100
0100
0100
0000
,
0010
0010
0010
0000
,
1001
0000
1001
0000
,
0001
0001
0001
0000
,
1000
1000
1000
0000
,
0001
0001
0001
0000
,
1000
0001
1000
0000
,
2002
0000
0000
3003
,
0000
0000
0010
0000
,
2002
0000
0000
3003
,
0000
0000
0100
0010
,
0100
0000
0000
0000
;
