#TITLE:Nothing but Theory;
#SUBTITLE:;
#ARTIST:lapix;
#TITLETRANSLIT:;
#SUBTITLETRANSLIT:;
#ARTISTTRANSLIT:;
#GENRE:Ultra Jazzfunktion;
#CREDIT:;
#BANNER:Nothing but Theory.png;
#BACKGROUND:Nothing but Theory-bg.png;
#LYRICSPATH:;
#CDTITLE:cdtitle.png;
#MUSIC:Nothing But Theory.ogg;
#OFFSET:0.489270;
#SAMPLESTART:91.010727;
#SAMPLELENGTH:12.000000;
#SELECTABLE:YES;
#BPMS:0.000000=160.000000
;
#STOPS:
;
#BGCHANGES:4.000=Nothing but Theory.mp4=1.000=1=0=1===CrossFade==,
327.000=Nothing but Theory-bg.png=1.000=1=0=1===CrossFade==,
99999=-nosongbg-=1.000=0=0=0 // don't automatically add -songbackground-
;
#KEYSOUNDS:;
#ATTACKS:;

//---------------dance-single - ----------------
#NOTES:
     dance-single:
     :
     Medium:
     12:
     0.567512,0.609725,0.494610,0.494610,0.160945,506.000000,443.000000,63.000000,63.000000,0.000000,0.000000,0.567512,0.609725,0.494610,0.494610,0.160945,506.000000,443.000000,63.000000,63.000000,0.000000,0.000000:
0000
0000
0000
0000
,
0000
0000
0000
0000
,
0000
0000
0000
0000
,
0001
1000
0100
0000
0010
0000
0110
0000
,
0100
0010
0001
0000
1000
0000
0001
0001
,
1000
0001
0100
0000
0010
0000
0110
0000
,
0100
0010
1000
0001
0000
1000
1000
0000
,
0001
0010
0100
0000
1000
0010
0100
0001
,
0010
0100
1000
0000
0001
0100
0010
1000
,
1010
0012
1000
1000
,
0103
0010
0100
0010
1000
0100
0010
0000
,
0011
0000
0000
1001
0000
0000
0202
0000
0000
0303
0000
0000
1010
0000
0000
1001
,
0000
2200
0000
0000
3300
0000
0000
0001
,
0010
0000
0000
0001
0000
0000
1000
0000
0010
0000
0000
1000
0000
0000
0001
0000
,
0010
0000
0001
0000
0100
0000
0000
0010
0000
0000
1000
0000
0010
0000
1000
0000
,
0100
0010
0100
0010
0001
0100
0010
1000
,
0001
1000
0100
0000
0011
0000
1010
0000
,
2000
0000
0000
3020
0000
0000
0230
0000
0302
0000
0000
0023
0000
0000
0230
0000
,
1300
0000
0010
0000
1000
0000
0100
0000
0010
0000
0000
0100
0000
0000
0010
0000
,
0012
0000
0103
0010
2010
0000
3100
0010
,
2002
0000
0000
0000
0000
0000
0000
3003
0000
0000
0001
0000
0001
0000
0000
0000
,
1000
0000
0010
0000
0001
0000
0000
0010
0000
0000
0001
0000
0010
0000
1000
0000
,
0001
0000
0000
1000
0000
0000
0200
0000
0000
0000
0010
0000
0310
0000
0000
0000
,
0001
0000
0010
0000
1000
0000
0000
0010
0000
0000
1000
0000
0010
0000
0001
0000
,
1000
0000
0001
0000
0100
0000
0000
0200
0000
0000
0310
0000
1000
0000
0001
0000
,
0010
0000
0000
0000
0100
0000
0000
0001
0000
0000
0100
0000
1000
0000
0001
0000
,
0100
0000
0000
1000
0000
0000
0100
0000
0010
0000
1000
0000
0001
0000
0010
0000
,
1200
0000
1300
0010
0102
0000
1003
0001
,
2002
0000
3000
0000
1000
1000
0013
0000
,
0021
0001
1000
0001
,
0130
0010
0100
0010
0001
0100
0010
0000
,
1020
1000
0001
1000
,
0130
0001
1000
0100
0010
0000
0000
0000
,
1200
1000
0001
1000
,
0310
0100
0010
0100
1000
0010
0100
0000
,
0201
0001
1000
0001
,
0310
0000
1000
0000
0001
0000
1000
0000
0100
0000
0000
0010
0000
0000
0100
0000
,
0210
0000
1000
0000
,
0010
0000
0010
0000
1300
0000
1000
0010
,
0210
0000
0001
0000
,
0010
0010
0301
0010
,
0022
0033
2020
3030
,
0011
0000
1010
0000
0011
0000
1000
1000
,
0001
0100
1000
0100
0001
0010
1000
0010
,
0002
0000
0000
0003
,
0011
0000
0000
0000
1010
0000
0000
0000
1100
0000
0000
0100
0001
0000
0000
0000
,
0001
0010
1000
0010
0002
0010
0103
0000
,
0101
0000
0000
0000
1100
0000
0000
0000
1010
0000
0000
0010
0001
0000
0000
0000
,
0001
0100
1000
0100
0001
0000
1000
1000
,
1010
0000
0000
0000
0011
0000
0000
0000
0101
0000
0000
0100
1000
0000
0000
0000
,
1000
0010
0001
0010
2000
0010
3100
0000
,
1100
0000
0000
0000
0101
0000
0000
0000
0011
0000
0000
0010
1000
0000
0000
0000
,
1000
0000
0100
0000
0001
0000
0100
0000
1000
0000
0000
0001
0000
0000
1000
0000
,
0010
0000
1000
0000
0100
0000
1000
0000
0010
0000
0000
1002
0000
0000
0000
0000
,
0013
0000
0001
0000
0100
0000
0001
0000
0010
0000
0000
2001
0000
0000
0000
0000
,
3010
0000
0000
1010
0000
0000
0001
0000
0010
0000
0000
0011
0000
0000
1000
0000
,
0100
0000
0000
0101
0000
0000
0001
0000
0100
0000
0000
1100
0000
0000
0001
0000
,
0100
0010
2000
0000
3100
0010
0002
0000
,
1003
0000
0000
0001
0000
0000
1000
0000
0000
0001
0000
0000
1000
0000
0000
0000
,
0220
0000
0000
0330
,
0002
0000
0203
0000
0320
1030
1001
0000
,
1000
0100
1000
0100
0010
1000
0010
0100
,
1000
0000
0010
0000
0100
0000
0000
1000
0000
0000
0100
0000
0010
0000
1000
0000
,
0001
1000
0001
1000
0100
1000
0001
0100
,
0001
0000
0010
0000
0100
0000
1000
0010
0000
1000
0010
0000
0100
0000
0000
0000
,
0002
0000
0000
0010
0000
0000
1000
0000
2003
0000
0000
0010
0000
0000
0100
0000
,
3100
0010
0100
0010
0100
0010
0001
1000
,
0020
0000
0000
0032
0000
0000
2003
0000
3100
0000
0010
0000
0100
0000
0001
0000
,
1001
0000
1001
0000
0001
0010
0100
1000
,
0001
0100
0001
0100
0010
0001
0010
0100
,
0001
0000
0010
0000
0100
0000
0000
0001
0000
0000
0100
0000
0010
0000
0001
0000
,
1000
0010
0100
0001
0010
0100
1000
0010
,
0100
0000
0001
0000
1000
0000
0001
0010
0000
0100
1000
0000
0010
0000
0100
0000
,
0001
0000
0000
0000
1001
0000
0000
0000
0002
0000
0000
0010
0000
0000
0100
0000
,
0103
0010
0100
0010
0100
0010
1000
0001
,
0020
0000
0000
2030
0000
0000
3002
0000
0103
0000
0010
0000
0100
0000
1000
0000
,
1001
0000
1001
0000
0002
0100
0103
0000
,
0220
0330
0000
0000
2002
3003
0000
0000
,
1000
0010
0100
0001
0010
0001
0100
0010
,
1010
0000
0000
1001
0000
0000
2200
0000
0000
3300
0000
0000
0011
0000
0000
1001
,
0000
0202
0000
0000
0303
0000
0000
0000
,
0000
0220
0000
0330
;

//---------------dance-single - ----------------
#NOTES:
     dance-single:
     :
     Hard:
     16:
     0.842296,0.898542,0.549567,0.455356,0.910711,751.000000,681.000000,70.000000,58.000000,0.000000,0.000000,0.842296,0.898542,0.549567,0.455356,0.910711,751.000000,681.000000,70.000000,58.000000,0.000000,0.000000:
0000
0000
0000
0000
,
0000
0000
0000
0000
,
0000
0000
0000
0000
,
1000
0000
0010
0000
0100
0010
0000
0100
0000
0010
0000
0010
2000
0000
0000
0000
,
3001
0000
0010
0000
0100
0010
0000
0100
0000
0010
0000
0010
0002
0003
2000
3000
,
0001
0000
0100
0000
0010
0100
0000
0010
0000
0100
0000
0100
0002
0000
0000
0000
,
1003
0000
0100
0000
0010
0100
0000
0100
1000
0000
0001
0100
0010
0000
0000
0000
,
1000
0000
0100
0010
0000
0100
0010
0000
0001
0100
0001
0100
0010
1000
0001
1000
,
0100
0000
0010
0001
0000
0100
0010
0000
0100
0000
0010
1000
0100
0000
0010
0000
,
0011
0000
0000
0000
2010
0000
0000
0001
0000
0001
0000
0001
0000
3001
0000
1000
,
0100
0000
1001
0000
0010
0000
1001
0000
0001
0000
0100
0010
1000
0000
1000
0000
,
1010
0000
0000
1001
0000
0000
1200
0000
0000
0310
0000
0000
0011
0000
0000
1001
,
0000
0000
0201
0000
0000
0000
0000
0000
0310
1000
0000
1000
0000
0010
1000
0000
,
0001
0000
1000
0100
0000
0100
0010
0000
0001
0000
0100
0010
0000
0010
1000
0000
,
0001
0000
0010
0000
0100
1000
0000
0001
0000
1000
0010
0000
0100
0010
0100
0010
,
1000
0000
0001
0000
0010
0100
0010
0100
1000
0000
0001
0000
0100
0000
0010
0000
,
1000
0000
0001
1000
0100
0000
0000
0000
1100
0000
0000
0000
0011
0000
0000
0000
,
2001
0000
0000
3020
0000
0000
0230
0000
0302
0000
0000
0023
0000
0000
0230
0000
,
1300
0000
0001
0010
0001
0000
0100
0000
0010
1000
0000
0010
0000
1000
0100
0000
,
0210
0000
0000
0000
0310
0100
0010
0000
1002
0000
0000
0000
0103
0000
0010
0000
,
2000
0001
0000
0001
0000
0001
0000
3001
0000
0000
1001
0000
1001
0000
0000
0000
,
0001
0000
0010
0000
1000
0000
0010
0001
0000
0000
1000
0000
0100
0000
0010
0001
,
0100
0000
0000
0110
0000
0000
1010
0000
0000
0000
0001
0010
0100
1000
0001
0000
,
1000
0000
0010
0000
0001
0000
0010
1000
0000
0000
0001
0000
0100
0000
0010
0000
,
1000
0000
0100
1000
0100
0000
0010
0001
0000
0000
1000
0001
1000
0000
0010
0000
,
0110
0000
0000
0000
1000
0000
0010
0100
0000
1000
0100
0000
0001
0000
1000
0000
,
0001
0000
0010
0100
0000
0001
0100
0000
0010
0000
0001
0000
1000
0000
0010
0000
,
0210
0000
0000
0000
0310
0100
0010
0000
2001
0000
0000
0000
3100
0010
0100
0010
,
0002
0000
0000
0000
0000
0000
0000
0000
0103
0010
0100
0010
1000
0000
0000
0000
,
1010
0000
0000
0000
1010
0000
0000
0000
0001
0010
0000
0001
1000
0001
0000
0100
,
0002
0000
0100
0000
2003
0000
0100
0000
3001
0100
0000
0010
1000
0000
0100
0000
,
0011
0000
0000
0000
0011
0000
0000
0000
1000
0010
0000
1000
0001
1000
0000
0100
,
2000
0000
0100
0000
3002
0000
0100
0000
1003
0100
0000
0010
0001
1000
0001
0000
,
0101
0000
0000
0000
0101
0000
0000
0000
1000
0010
0000
1000
0100
1000
0000
0100
,
0020
0000
0100
0000
0032
0000
1000
0000
0103
0010
0000
1000
0001
0000
1000
0000
,
1100
0000
0000
0000
1100
0000
0000
0000
0001
0010
0000
0001
0100
0001
0000
0100
,
0020
0000
0100
0000
2030
0000
0001
0000
3100
0010
0000
0001
0000
0100
0010
0000
,
1010
0000
0000
0000
0010
0000
0000
0000
0100
0000
0000
0100
0000
0000
0000
0000
,
1000
0000
1000
0000
0010
0000
0010
0000
0100
0000
0000
0010
1000
0000
0001
0000
,
0011
0000
0000
0000
0010
0000
0000
0000
0100
0000
0000
0100
0000
0000
0000
0000
,
0001
0000
0001
0000
0010
0000
0010
0000
0100
1000
0000
0010
0000
0100
0001
0000
,
0101
0000
0000
0000
1000
0000
0000
0000
1100
0000
0000
0001
0000
0000
0000
0000
,
0011
0000
1000
0000
1010
0000
0001
0000
0011
0000
0000
1000
0001
0000
1000
0000
,
0001
0000
0101
0000
1000
0000
1100
0000
0001
0100
0001
0100
0010
1000
0010
1000
,
0200
0000
0000
0300
,
0011
0000
0000
0000
1010
0000
0000
0000
1100
0000
0001
0100
0001
0000
0001
0010
,
0002
0000
0010
0000
2003
0000
0010
0000
3001
0000
1000
0001
0010
0000
0100
0000
,
1100
0000
0000
0000
0101
0000
0000
0000
0011
0000
1000
0010
1000
0000
1000
0100
,
2000
0000
0100
0000
3002
0000
0010
0000
1003
0010
0000
0001
0000
0010
1000
0000
,
1010
0000
0000
0000
0011
0000
0000
0000
0101
0000
1000
0100
1000
0000
1000
0010
,
2000
0000
0010
0000
3002
0000
0010
0000
1003
0000
0001
1000
0010
0000
0100
0000
,
0101
0000
0000
0000
1100
0000
0000
0000
1010
0000
0001
0010
0001
0000
0001
0100
,
0002
0000
0100
0000
2003
0000
0010
0000
3001
0010
0000
1000
0000
0010
0001
0000
,
1000
0010
1000
0000
0010
1000
0000
0010
0001
0010
0000
2010
0000
0000
3100
0010
,
0001
0010
0001
0000
0010
0001
0000
0010
1000
0010
0000
0012
0000
0000
0103
0010
,
1000
0001
1000
0000
1100
0000
0000
0000
0001
1000
0001
0000
0101
0000
0000
0000
,
1000
0010
1000
0000
0001
0010
0001
0000
1000
0010
0100
0000
0001
0010
0100
0000
,
0010
0001
0010
0001
2000
0000
0000
0000
3010
1000
0010
1000
0002
0000
0000
0000
,
1003
0100
0000
0100
0010
0000
0001
0100
0000
0100
0010
0000
1000
0000
0000
0000
,
0002
0100
2003
0100
,
3002
0000
0203
0000
0301
0010
1001
0000
,
1000
0010
1000
0010
0100
0000
1000
0000
0100
0010
0100
0010
1000
0000
0001
0000
,
1000
0100
0010
0000
1000
0010
0000
0010
0100
0000
1000
0001
0100
0010
1000
0000
,
0001
0010
0001
0010
0100
1000
0001
0000
1000
0001
0100
0010
1000
0010
0100
0001
,
1000
0000
0100
0000
0001
0000
1000
0010
0000
0010
0001
0000
1000
0000
1000
0000
,
0001
1000
0010
1000
0000
1000
0100
0000
1000
0001
0010
0001
0000
0001
0100
0000
,
0002
0000
0100
0000
2003
0000
0100
0000
3001
0000
0100
0001
0010
0000
0011
0000
,
1000
0010
0000
0001
0010
0000
1000
0010
1000
0001
0010
0001
0010
0001
1000
0000
,
1010
0000
0011
0000
0001
0100
1000
0100
,
0001
0010
0001
0010
0100
0000
0001
0000
0100
0010
0100
0010
0001
0000
1000
0000
,
0001
0100
0010
0000
0001
0010
0000
0010
0100
0000
0001
1000
0100
0010
0001
0000
,
1000
0010
1000
0001
0010
0001
1000
0000
0001
0100
0010
1000
0100
0010
0001
1000
,
0001
0000
0100
0000
1000
0000
0001
0010
0000
1000
0010
0000
1000
0001
1000
0000
,
0200
0000
0000
0000
0310
0001
0010
0000
0001
1000
0010
1000
0000
1000
0100
0000
,
2000
0000
0100
0000
3002
0000
0100
0000
1003
0000
0100
1000
0010
0000
1010
0000
,
0001
0010
0000
1000
0010
0000
0001
0010
0001
1000
0010
1000
0010
1000
0001
0000
,
0011
0000
1010
0000
2000
0010
3100
0000
,
0220
0330
0000
0000
2002
3003
0000
0000
,
0001
0010
0001
0010
0100
1000
0100
1000
0001
0100
0010
1000
0001
1000
0100
0010
,
0001
0000
0000
1001
0000
0000
0201
0000
0000
0310
0000
0000
1010
0000
0000
1001
,
0000
0000
1200
0000
0000
0000
0000
0000
0310
0001
0000
0001
0000
0010
0001
0000
,
0000
2002
0000
3003
;

//---------------dance-single - ----------------
#NOTES:
     dance-single:
     :
     Easy:
     10:
     0.474422,0.513453,0.463206,0.321889,0.023553,423.000000,364.000000,59.000000,41.000000,0.000000,0.000000,0.474422,0.513453,0.463206,0.321889,0.023553,423.000000,364.000000,59.000000,41.000000,0.000000,0.000000:
// measure 0
0000
0000
0000
0000
,  // measure 1
0000
0000
0000
0000
,  // measure 2
0000
0000
0000
0000
,  // measure 3
0001
0001
0100
0001
,  // measure 4
0010
0010
0001
0011
,  // measure 5
1000
1000
0100
1000
,  // measure 6
0010
0010
0000
1010
,  // measure 7
0001
0100
0001
0000
1000
0100
0010
0000
,  // measure 8
0001
0100
0010
0000
1000
0010
1000
0000
,  // measure 9
0011
2010
0001
3001
,  // measure 10
1000
0100
1000
0100
1000
0001
0100
0000
,  // measure 11
0001
0000
0000
0001
0000
0000
0002
0000
0000
0003
0000
0000
1000
0000
0000
1000
,  // measure 12
0000
2000
0000
0000
3000
0000
0000
0000
,  // measure 13
0002
0100
2003
0100
,  // measure 14
3001
0010
0001
1000
0010
0000
1000
0000
,  // measure 15
0001
0010
0100
0000
0010
0100
1000
0000
,  // measure 16
0002
0003
0101
1010
,  // measure 17
2000
0010
3200
0010
,  // measure 18
1300
0001
0010
0001
0100
0000
0001
0000
,  // measure 19
0012
1003
2010
3001
,  // measure 20
2002
0000
0000
0000
0000
3000
0003
0000
,  // measure 21
1000
0010
1000
0000
0010
0000
0001
0010
,  // measure 22
1000
0000
0010
1000
0100
0000
0010
0000
,  // measure 23
0001
0010
0001
0000
0010
0000
1000
0010
,  // measure 24
0001
0000
0010
0001
0100
0000
0010
0000
,  // measure 25
1002
0010
2003
0010
,  // measure 26
3001
0100
0001
0000
1000
0100
1000
0000
,  // measure 27
2010
3001
0012
1003
,  // measure 28
2002
0000
3003
0000
0001
0100
0010
0000
,  // measure 29
1000
0000
1000
0000
0010
1000
0100
0000
,  // measure 30
0010
0100
0010
0000
1100
0000
0101
0000
,  // measure 31
0001
0000
0001
0000
0010
0001
0100
0000
,  // measure 32
0010
0100
0010
0000
1001
0000
0000
0000
,  // measure 33
0001
0000
0001
0000
0100
0001
0010
0000
,  // measure 34
0100
1000
0010
0000
0101
0000
1100
0000
,  // measure 35
1000
0000
1000
0000
0001
1000
0001
0000
,  // measure 36
1000
0010
0100
0001
1000
0000
0100
0000
,  // measure 37
0012
0000
1000
0000
,  // measure 38
0010
0010
1003
0000
,  // measure 39
2010
0000
0001
0000
,  // measure 40
0010
0010
3001
0000
,  // measure 41
0202
0303
2200
3300
,  // measure 42
0101
1100
0101
1001
,  // measure 43
0001
0010
0100
1000
0100
0010
0002
0000
,  // measure 44
0003
0000
0000
0000
,  // measure 45
0011
1001
0101
0101
,  // measure 46
0001
0010
0001
0200
0001
0000
1300
0000
,  // measure 47
0101
1001
0011
0011
,  // measure 48
0001
0010
1000
0010
0001
0000
1000
0000
,  // measure 49
1010
1001
1100
1100
,  // measure 50
1000
0010
1000
0200
1000
0000
0301
0000
,  // measure 51
1100
1001
1010
1010
,  // measure 52
1000
0010
0001
0010
1000
0000
1000
0000
,  // measure 53
0010
1000
0100
1000
0100
0000
0011
0000
,  // measure 54
0010
0001
0100
0001
0100
0000
1010
0000
,  // measure 55
0001
0010
0001
0000
1000
0010
1000
0000
,  // measure 56
0011
1010
0011
1010
,  // measure 57
0200
0300
0200
0300
,  // measure 58
0001
0000
0000
1000
0000
0000
0001
0000
0000
1000
0000
0000
0001
0000
0000
0000
,  // measure 59
0020
0000
0000
0030
,  // measure 60
0020
0000
0032
0000
0103
0010
1000
0000
,  // measure 61
1000
0100
0010
0000
1000
0010
0100
0000
,  // measure 62
1000
0010
1000
0010
0100
0000
1000
0000
,  // measure 63
0100
0010
1000
0000
0010
1000
0100
0000
,  // measure 64
0010
0001
0010
0001
0100
0010
1000
0000
,  // measure 65
2010
3001
0012
1003
,  // measure 66
0010
0100
0010
0100
0010
0100
0001
0000
,  // measure 67
1001
0000
1001
0000
0001
0100
0010
1000
,  // measure 68
0100
0000
0100
0000
0010
0100
1000
0000
,  // measure 69
0001
0100
0010
0000
0001
0010
0100
0000
,  // measure 70
0001
0010
0001
0010
0100
0000
0001
0000
,  // measure 71
0100
1000
0001
0000
1000
0001
0100
0000
,  // measure 72
0001
0100
0010
1000
0100
0010
0001
0000
,  // measure 73
0000
1000
2010
3001
,  // measure 74
0010
0100
0010
0100
0010
0100
1000
0000
,  // measure 75
1001
0000
1001
0000
1000
0100
0010
0001
,  // measure 76
0100
0010
0220
0330
,  // measure 77
1010
0000
0011
0000
,  // measure 78
1000
0010
1000
0010
0100
0001
0010
0100
,  // measure 79
1000
0000
0000
1000
0000
0000
2000
0000
0000
3000
0000
0000
0001
0000
0000
0001
,  // measure 80
0000
0002
0000
0000
0003
0000
0000
0000
,  // measure 81
0000
0220
0000
0330
;

//---------------dance-single - ----------------
#NOTES:
     dance-single:
     :
     Beginner:
     5:
     0.253474,0.350840,0.211976,0.235529,0.000000,226.000000,199.000000,27.000000,30.000000,0.000000,0.000000,0.253474,0.350840,0.211976,0.235529,0.000000,226.000000,199.000000,27.000000,30.000000,0.000000,0.000000:
// measure 0
0000
0000
0000
0000
,  // measure 1
0000
0000
0000
0000
,  // measure 2
0000
0000
0000
0000
,  // measure 3
1000
0000
1000
0000
,  // measure 4
0001
0000
0001
0000
,  // measure 5
1000
0000
1000
0000
,  // measure 6
0001
0000
0000
0001
,  // measure 7
1000
0010
1000
0000
,  // measure 8
0001
0010
0001
0000
,  // measure 9
0200
0320
0230
0000
,  // measure 10
0010
0010
0310
0000
,  // measure 11
2002
0000
0000
3003
0000
0000
0220
0000
,  // measure 12
0000
0330
0000
0000
0000
0000
0000
0000
,  // measure 13
1000
0000
0001
0000
,  // measure 14
1000
0001
1000
0000
,  // measure 15
0001
0010
0100
1000
,  // measure 16
0001
0000
0100
0010
,  // measure 17
1000
0000
0001
0000
,  // measure 18
0010
0100
1000
0000
,  // measure 19
0001
0001
1000
1000
,  // measure 20
2002
0000
3003
0000
,  // measure 21
0001
0100
0010
0000
,  // measure 22
0100
0000
0001
0000
,  // measure 23
1000
0100
0010
0000
,  // measure 24
0100
0000
1000
0000
,  // measure 25
0001
0000
0100
0000
,  // measure 26
0010
1000
0001
0000
,  // measure 27
1000
1000
0001
0001
,  // measure 28
2002
0000
3003
0000
,  // measure 29
1000
0000
1000
0000
,  // measure 30
1000
0100
0010
0000
,  // measure 31
0001
0000
0001
0000
,  // measure 32
0010
0100
1000
0000
,  // measure 33
0001
0000
0001
0000
,  // measure 34
0001
0100
0010
0000
,  // measure 35
1000
0000
1000
0000
,  // measure 36
0010
0100
0001
0000
,  // measure 37
1001
0000
0000
0000
,  // measure 38
0000
0000
0000
0000
,  // measure 39
1001
0000
0000
0000
,  // measure 40
0000
0000
0000
0000
,  // measure 41
1001
0000
1001
0000
,  // measure 42
1001
1001
1001
0000
,  // measure 43
0001
1000
0001
1000
,  // measure 44
0001
0000
0000
0000
,  // measure 45
1001
0000
0100
0000
,  // measure 46
1001
0100
0100
0000
,  // measure 47
1001
0000
0010
0000
,  // measure 48
1001
1000
0010
0000
,  // measure 49
1001
0000
0100
0000
,  // measure 50
1001
0100
0100
0000
,  // measure 51
1001
0000
0010
0000
,  // measure 52
1001
0001
0010
0000
,  // measure 53
0001
0010
0001
0001
,  // measure 54
1000
0010
1000
1000
,  // measure 55
0001
0000
1000
0000
,  // measure 56
0001
1000
0001
1000
,  // measure 57
0100
0000
0100
0000
,  // measure 58
0100
0010
0100
1000
,  // measure 59
0020
0000
0000
0000
,  // measure 60
0000
0000
0000
0030
,  // measure 61
1000
0010
0100
0010
,  // measure 62
1000
0001
1000
0000
,  // measure 63
0001
0010
0100
1000
,  // measure 64
0100
0010
0001
0000
,  // measure 65
2002
3003
2002
3003
,  // measure 66
0001
1000
0001
0000
,  // measure 67
2000
3020
0230
0302
,  // measure 68
0010
0010
0013
0000
,  // measure 69
0001
0010
0100
0010
,  // measure 70
0001
1000
0001
0000
,  // measure 71
1000
0010
0100
0001
,  // measure 72
0010
0100
1000
0001
,  // measure 73
0000
1000
2002
3003
,  // measure 74
1000
0001
1000
0000
,  // measure 75
0002
0023
0230
2300
,  // measure 76
0010
0010
3010
0000
,  // measure 77
1001
0000
1001
0000
,  // measure 78
0010
1000
0100
0010
,  // measure 79
2002
0000
0000
3003
0000
0000
0220
0000
,  // measure 80
0000
0330
0000
0000
0000
0000
0000
0000
,  // measure 81
0000
1001
0000
0000
;

//---------------dance-single - ----------------
#NOTES:
     dance-single:
     :
     Challenge:
     18:
     1.003801,0.994815,0.714437,0.471057,1.291482,895.000000,804.000000,91.000000,60.000000,34.000000,0.000000,1.003801,0.994815,0.714437,0.471057,1.291482,895.000000,804.000000,91.000000,60.000000,34.000000,0.000000:
0000
0000
0000
0000
,
0000
0000
0000
0000
,
0000
0000
0000
0000
,
0001
0000
1000
0000
0010
1000
0000
0001
0000
1000
0000
1000
0200
0000
0000
0000
,
1300
0000
0001
0000
0010
0001
0000
1000
0000
0001
0000
0001
0200
0300
0020
0030
,
1000
0000
0010
0000
0100
0010
0000
0001
0000
0010
0000
0010
2000
0000
0000
0000
,
3001
0000
0010
0000
0100
0010
0000
0010
1000
0000
0010
0100
1000
0000
0000
0000
,
1001
0000
0001
0100
0000
0001
0100
0010
1000
0001
1000
0100
0010
0100
1000
0001
,
0100
0010
0100
0010
0000
1000
0000
1000
0000
0100
0000
0010
0001
0000
1000
0000
,
2010
0000
3001
0000
0012
0000
1003
0010
0000
0010
0000
0010
0000
0010
0000
0010
,
0110
0000
1010
0000
1001
0000
0011
0000
0110
0000
0100
1000
0002
0003
0200
0300
,
1010
0000
0000
1001
0000
0000
1200
0000
0000
0310
0000
0010
0011
0000
0000
1001
,
0000
0000
0201
0000
0000
0000
0000
0000
0310
1000
0000
1000
0000
0010
1000
0001
,
0010
0M00
0010
1000
0000
1000
0001
1000
0010
0M00
0010
0001
0000
0001
1000
0001
,
0100
0010
1000
0001
1000
0100
00M0
0100
0000
0001
1000
0100
0010
0001
0010
0100
,
1000
0000
0001
0000
1000
0010
0100
0001
0010
0100
1000
0000
0001
0000
0100
0000
,
0010
0000
1000
0001
0010
0000
0000
0000
1100
0000
0000
0000
0101
0000
0000
0000
,
1002
0000
0000
0023
0000
0000
2030
0000
3002
0000
0000
0203
0000
0000
2300
0000
,
3001
0000
1000
0010
0100
0001
0010
0100
1000
0001
0000
0100
00M0
0100
1000
0000
,
0001
0010
0001
0100
0010
0100
0010
1000
0100
1000
0010
0100
0001
0000
2000
0000
,
0001
0001
0000
0001
0000
0001
0000
3001
0000
0000
1001
0000
1001
0000
0000
0000
,
1000
0000
0010
0000
1000
0000
0010
0001
M000
0001
0100
0000
1000
0000
0100
0010
,
0100
0000
0001
0010
0000
0010
0100
0000
1000
0000
0001
0100
0010
1000
0010
0100
,
0001
0000
0010
0000
0001
0000
0010
1000
000M
1000
0100
0000
0001
0000
0100
0000
,
1000
0000
0001
0100
0010
0100
0010
1000
0000
0001
0010
0100
1000
0000
0001
0000
,
1001
0000
0000
0000
0001
0000
0100
1000
000M
1000
0010
0000
0100
0000
0001
0000
,
1000
0000
0100
0001
M000
0001
0010
0000
0100
0000
1000
0000
0001
0000
0100
0000
,
0110
0000
1001
0000
1000
0100
0010
0001
0100
0001
0010
0100
1000
0001
0100
0010
,
1000
0001
1000
0001
1000
0001
1000
0000
0001
0010
0100
0010
1000
0000
0000
0000
,
0011
0000
0000
0000
0011
0000
0000
0000
1000
0010
0M00
0010
0001
0100
00M0
0100
,
1000
0100
0010
0000
0100
0000
0010
0100
1000
0001
0000
0001
0100
0010
0000
0010
,
1010
0000
0000
0000
1010
0000
0000
0000
0001
0010
0M00
0010
1000
0100
00M0
0100
,
0001
0100
0010
0000
0100
0000
0010
0100
0001
1000
0000
1000
0100
0010
0001
0000
,
0011
0000
0000
0000
0011
0000
0000
0000
1000
0010
0M00
0010
0001
0100
M000
0100
,
0010
0100
0001
0000
0001
0000
0100
0010
0100
1000
0000
1000
0001
1000
0000
1000
,
1010
0000
0000
0000
1010
0000
0000
0000
0001
0010
0M00
0010
1000
0100
000M
0100
,
0010
0100
1000
0000
1000
0100
0010
0100
0001
1000
0000
0100
0000
0100
0010
0000
,
0012
0000
0000
0000
1000
0000
0000
0000
0100
0000
0000
0100
0000
0000
0000
0000
,
0010
0000
0010
0000
1000
0000
1000
0000
0103
0000
0000
0001
0100
0000
0010
0000
,
2010
0000
0000
0000
0001
0000
0000
0000
0100
0000
0000
0100
0000
0000
0000
0000
,
0010
0000
0010
0000
0001
0000
0001
0000
3100
0010
0000
0001
0000
0100
0010
0000
,
2010
0000
0000
0000
3001
0000
0000
0000
0012
0000
0000
1003
0000
0000
0000
0000
,
2001
0000
3010
0000
1002
0000
0013
0000
2001
0000
3000
0010
2010
0000
3001
0000
,
0021
0000
0100
0000
0100
0000
0130
0000
0010
0100
1000
0001
1000
0010
0100
0001
,
2000
0000
0010
0000
3002
0010
0000
2003
0000
0100
0000
3002
0103
0000
0000
0000
,
2010
0000
3001
0000
2001
0000
3100
0000
2100
0000
3001
0100
0001
0000
0100
0000
,
1010
0000
1010
0000
1001
0000
1001
0000
1200
0000
0310
0100
0001
0000
0100
0000
,
2100
0000
3001
0000
2001
0000
3010
0000
2010
0000
3001
0010
0001
0000
1000
0000
,
1010
0000
1001
0000
0011
0000
2001
0000
3010
1000
0000
1000
0100
0010
0001
0000
,
0012
0000
1003
0000
1002
0000
0103
0000
0102
0000
1003
0100
1000
0000
0100
0000
,
0011
0000
0011
0000
1001
0000
1001
0000
0201
0000
0310
0100
1000
0000
0100
0000
,
0102
0000
1003
0000
1002
0000
0013
0000
0012
0000
1003
0010
1000
0000
0001
0000
,
0011
0000
1001
0000
1010
0000
1002
0000
0013
0001
0000
0100
0000
0010
1000
0000
,
0001
0010
0100
0000
0010
0100
0000
0010
0100
0001
M000
0001
0010
0100
0010
0100
,
1000
0010
0100
0000
0010
0100
0000
0010
0100
1000
000M
1000
0010
0100
0010
0100
,
0001
1000
0100
00M0
0100
0001
0000
0001
1000
0001
0010
0M00
0010
1000
0000
1000
,
0001
1000
0010
0M00
0010
0001
0100
00M0
0100
1000
0010
0M00
0010
0001
0100
00M0
,
0100
1000
0010
1000
0200
0000
00M0
0300
0100
0001
0010
0001
0200
0000
00M0
0300
,
0100
1000
0000
0100
1000
0000
0001
0100
0000
0010
1000
0000
1001
0000
0000
0000
,
0001
0010
0100
1000
0010
0100
0010
0100
0001
0010
0100
1000
0010
0100
0010
0100
,
0002
0000
0023
0000
1030
0010
0011
0000
,
1000
0010
0100
0001
1000
0001
1000
0100
0001
0100
0010
0001
1000
0100
0010
0001
,
1000
0001
0100
0000
0010
0001
M000
0001
0100
0000
0001
0100
0010
1000
0100
0010
,
0001
1000
0010
0100
0010
1000
0001
0010
0100
0010
0001
1000
0010
0100
0001
1000
,
0100
0000
1100
0000
0011
0000
0001
0100
00M0
0100
1000
0000
1010
0000
0011
0000
,
1000
0001
1000
0010
0M00
0010
0001
1000
0001
1000
0001
0010
0M00
0010
1000
0001
,
0100
0000
0010
0000
0100
0000
0010
1000
0100
0000
0010
0001
0100
0000
0110
0000
,
0001
0100
0010
0001
0010
0100
0001
0010
0100
0001
0100
0001
0100
0010
0001
1000
,
0010
0100
0010
0000
0010
0100
0010
0000
2001
0000
3010
0000
1002
0000
0013
0000
,
0100
0010
0100
1000
0001
1000
0001
0100
1000
0100
0010
1000
0001
0100
0010
1000
,
0001
1000
0100
0000
0010
1000
000M
1000
0100
0000
1000
0100
0010
0001
0100
0010
,
1000
0010
0001
0010
0100
0001
1000
0001
0010
1000
0010
0100
0010
0001
1000
0001
,
0100
0000
0101
0000
1010
0000
0001
0010
0M00
0010
1000
0000
01M0
0100
0001
0000
,
0020
0000
0000
0000
0130
1000
0001
0100
0010
1000
0001
0010
0M00
0010
1000
0001
,
0010
0000
0100
0000
0010
0000
0100
1000
0010
0000
0100
0001
0010
0000
0110
0000
,
1000
0100
0010
1000
0010
0100
1000
0010
0100
1000
0100
1000
0100
0001
1000
0001
,
0010
0100
0010
0000
0010
0100
0010
0000
1100
0000
0001
0000
0101
0000
0000
0000
,
2002
0000
3003
0000
0001
0010
0100
0010
0002
0000
0003
0000
1000
0010
0100
0010
,
1000
0100
0010
0100
0001
0100
0010
0100
1000
0010
0100
0010
0001
0010
0100
0010
,
1010
0000
0000
1001
0000
0000
1200
0000
0000
0310
0000
0010
0011
0000
0000
1001
,
0000
0000
0201
0000
0000
0000
0000
0000
0310
1000
0000
1000
0000
0010
1000
0000
,
0000
2002
0000
3003
;
