#TITLE:Nightmare Parade 2020s;
#SUBTITLE:;
#ARTIST:FAKE TYPE.;
#TITLETRANSLIT:;
#SUBTITLETRANSLIT:;
#ARTISTTRANSLIT:;
#GENRE:Electro Swing;
#CREDIT:;
#BANNER:Nightmare Parade 2020s.png;
#BACKGROUND:Nightmare Parade 2020s-bg.png;
#LYRICSPATH:;
#CDTITLE:cdtitle.png;
#MUSIC:Nightmare Parade 2020s.ogg;
#OFFSET:-0.561000;
#SAMPLESTART:43.227684;
#SAMPLELENGTH:14.222200;
#SELECTABLE:YES;
#BPMS:0.000000=135.000000
;
#STOPS:
;
#BGCHANGES:-2.000=Nightmare Parade 2020s.mp4=1.000=1=0=1===CrossFade==,
99999=-nosongbg-=1.000=0=0=0 // don't automatically add -songbackground-
;
#KEYSOUNDS:;
#ATTACKS:;

//---------------dance-single - ----------------
#NOTES:
     dance-single:
     :
     Challenge:
     15:
     0.691782,0.743112,0.408303,0.555292,0.690032,593.000000,543.000000,50.000000,68.000000,8.000000,0.000000,0.691782,0.743112,0.408303,0.555292,0.690032,593.000000,543.000000,50.000000,68.000000,8.000000,0.000000:
// measure 0
0000
0000
0000
0000
,  // measure 1
0000
0000
0000
0000
,  // measure 2
0000
0000
0000
0000
,  // measure 3
0000
0000
0000
0000
,  // measure 4
1000
0000
0000
0001
0000
0010
0001
0000
0000
0010
0000
0000
0011
0000
0000
0000
0000
0000
0101
0000
0000
0000
0000
0000
,  // measure 5
0001
0000
0000
1000
0000
0010
1000
0000
0000
0010
0000
0000
1010
0000
0000
0000
0000
0000
1100
0000
0000
0000
0000
0000
,  // measure 6
0001
0000
0000
0000
0000
0000
0010
0000
0000
0000
0100
0000
0010
0000
0000
0000
0000
0000
0100
0000
0000
0000
0000
0000
1000
0000
0000
0000
0000
0000
0000
0000
0000
0000
0000
0000
0001
0000
0000
1000
0000
0000
0001
0000
0000
1000
0000
0000
,  // measure 7
0001
0000
0000
1000
0000
0010
0100
0000
0000
0001
0000
0000
1000
0000
0000
0000
0000
0001
0010
0000
0000
0100
0000
0000
,  // measure 8
1000
0000
0001
0000
0100
0000
0001
0100
0010
0000
1010
0000
1001
0000
0000
0000
,  // measure 9
0001
1000
0100
1000
0100
0000
1000
0100
0010
0000
0011
0000
1001
0000
0000
0000
,  // measure 10
0001
0000
0100
0000
0010
0000
1000
0100
0010
0000
0011
0000
1010
0000
0000
0000
,  // measure 11
2000
0000
0000
0000
0000
0010
0000
0000
0000
0001
0000
0000
3001
0000
0000
0000
0000
0000
MMMM
0000
0000
0000
0000
0000
,  // measure 12
0001
0000
0010
0000
0100
0000
0010
0100
1000
0000
1100
0000
1001
0000
0000
0000
,  // measure 13
0001
0000
0000
1000
0010
0100
0010
0100
0001
0000
0101
0000
1001
0000
0000
0000
,  // measure 14
1000
0100
0010
0001
1000
0000
0001
0100
0010
0000
1010
0000
0011
0000
0000
0000
,  // measure 15
0002
0000
0000
0000
0000
0000
0000
0000
0000
0000
0010
0000
0000
0000
0000
0000
0000
0000
1000
0000
0000
0000
0000
0000
1003
0000
0000
0000
0000
0000
0000
0000
0000
0000
0000
0000
MMMM
0000
0000
0000
0000
0000
0000
0000
0000
0001
0000
0000
,  // measure 16
0100
0010
0100
0010
1000
0001
1000
0000
0001
0010
0000
0001
0010
0000
0100
0000
,  // measure 17
1000
0000
0000
0010
0000
0000
1000
0000
0010
0000
0000
0000
0100
0000
0000
0000
0001
0000
0000
1000
0000
0000
0001
0000
0020
0000
0000
0000
0000
0000
0000
0000
,  // measure 18
0130
1000
0100
1000
0001
0100
0001
0100
0010
1000
0001
2000
0010
0000
3100
0010
,  // measure 19
0100
0010
0001
1000
0002
0000
0010
0000
0103
0010
0100
0010
1000
0000
0000
0001
,  // measure 20
0010
0000
0000
0000
0000
0000
0000
0000
0000
0000
0000
0000
0000
0000
0000
0000
0000
0000
0100
0000
0000
0000
0000
0000
0000
0000
0000
0000
0000
0000
0000
0000
0000
0000
0000
0000
0010
0000
0000
0000
0000
0000
0000
0000
0000
0000
0000
0000
0100
0000
0000
0000
0000
0000
0000
0000
0000
0000
0000
0000
0000
0000
0000
0000
0000
0000
0000
0000
0000
0000
0000
0000
1000
0000
0000
0000
0000
0000
0000
0000
0000
0000
0000
0000
0000
0000
0000
0000
0000
0000
0000
0000
0000
0000
0000
0000
0001
0000
0000
0000
0000
0000
0000
0000
0000
0000
0000
0000
0000
0000
0000
0000
0100
0000
0000
0000
0000
0000
0000
0000
0010
0000
0000
0000
0000
0000
0000
0000
0000
0000
0000
0000
0000
0000
0000
0000
0100
0000
0000
0000
0000
0000
0000
0000
0020
0000
0000
0000
0000
0000
0000
0000
0000
0000
0000
0000
0000
0000
0000
0000
1000
0000
0000
0000
0000
0000
0000
0000
0000
0000
0000
0000
0000
0000
0000
0000
0000
0000
0000
0000
0000
0000
0000
0000
0130
0000
0000
0000
0000
0000
0000
0000
,  // measure 21
0001
0000
0000
0000
0000
0000
1000
0000
0000
0001
0000
0000
1000
0000
0000
0000
0000
0000
0001
0000
0000
0000
0000
0000
1000
0000
0000
0000
0100
0000
0010
0000
0000
0000
0100
0000
0020
0000
0000
0000
0001
0000
0000
0000
0000
0000
0000
0000
,  // measure 22
0130
1000
0001
0100
0010
0000
0110
0000
0100
0010
1000
0001
0010
0000
0011
0000
,  // measure 23
1100
0000
0000
0000
0000
0001
0010
0000
0001
0100
0000
0000
0001
0000
0000
0100
0000
0001
0010
0000
0000
0000
0000
0000
,  // measure 24
1001
0000
0000
1001
0000
0000
2000
0000
0010
0000
3000
0002
0000
0000
0000
1000
0000
0000
1003
0000
0000
0001
0010
0001
,  // measure 25
0010
0000
0000
0100
0000
0000
2000
0000
0001
0000
3000
0020
0000
0000
0000
1000
0000
0000
0130
0000
0000
0000
0000
0000
,  // measure 26
0110
0000
0000
1001
0000
0000
2000
0000
0001
0000
3000
0200
0000
0000
0000
0010
0000
0000
0310
0000
0000
0001
1000
0001
,  // measure 27
1000
0000
0000
0010
0000
0000
0100
0000
0001
0000
0000
2002
0000
0000
0000
3003
0000
1000
0001
0000
0000
1000
0000
0000
,  // measure 28
1001
0000
0000
1001
0000
0000
0002
0000
0010
0000
0003
2000
0000
0000
0000
0001
0000
0000
3001
0000
0000
1000
0010
1000
,  // measure 29
0010
0000
0000
0100
0000
0000
0002
0000
1000
0000
0003
0020
0000
0000
0000
0001
0000
0000
0130
0000
0000
0000
0000
0000
,  // measure 30
0110
0000
0000
1001
0000
0000
0002
0000
1000
0000
0003
0200
0000
0000
0000
0010
0000
0000
0310
0000
0000
1000
0001
1000
,  // measure 31
0001
0000
0000
0010
0000
0100
1000
0000
0001
0100
0000
0010
2000
0000
0000
0000
3000
0100
0010
0000
0000
0001
0000
0000
,  // measure 32
2000
3020
0230
0302
,  // measure 33
0013
0100
0010
0100
1000
0001
0100
0000
,  // measure 34
0010
1000
0001
0010
0001
1000
0010
1000
,  // measure 35
0001
0010
0100
1000
0010
0100
0001
0000
,  // measure 36
0010
0000
0001
0010
0001
0010
0100
0000
1000
0000
0010
1000
0010
0000
0100
0001
,  // measure 37
1000
0100
0010
0100
1000
0100
0010
0100
1000
0000
0001
1000
0010
0000
0000
0000
,  // measure 38
1000
0010
0100
0001
0000
0001
1000
0000
0001
0010
0100
1000
0001
0000
1000
0000
,  // measure 39
0001
0100
0010
0100
0001
0100
0010
0100
0001
0010
0100
1000
0001
0000
0000
0000
,  // measure 40
1000
0000
0010
0100
0000
0010
0100
0000
0001
0000
0000
0001
1000
0000
0000
0001
0000
0010
0100
0000
0010
0100
0000
1000
,  // measure 41
0001
0000
0000
0100
0000
0001
1000
0000
0000
0100
0000
1000
0001
0000
1000
0000
0000
0010
0000
0000
0000
0110
0000
0000
,  // measure 42
0001
0000
0000
0000
0000
0000
1000
0000
0000
0000
0001
0000
1000
0000
0000
0000
0000
0000
0001
0000
0000
1000
0000
0000
0002
0000
0000
0000
0000
0000
0023
0000
0000
0000
0000
0000
0032
0000
0000
0000
0000
0000
2003
0000
0000
0000
0000
0000
,  // measure 43
3020
2030
3200
0320
0032
1000
1003
0000
,  // measure 44
0001
0002
0100
0100
1003
2000
0010
0010
,  // measure 45
3001
0002
0010
1000
0100
1000
0013
0000
,  // measure 46
1000
2000
0100
0100
3001
0002
0010
0010
,  // measure 47
1003
2000
0010
0001
0100
0001
3010
0000
,  // measure 48
0000
0000
0000
0000
,  // measure 49
1001
0000
0000
1010
0000
0000
0020
0000
0100
0000
0000
2030
0000
0000
0000
0010
0000
0000
3001
0000
0000
1000
0100
0010
,  // measure 50
0001
0000
0000
1000
0000
0000
0020
0000
1000
0000
0000
0230
0000
0000
0000
0010
0000
0000
0301
0000
0000
0000
0000
0000
,  // measure 51
1001
0000
0000
1100
0000
0000
0200
0000
0010
0000
0000
2300
0000
0000
0000
0001
0000
0000
3010
0000
0000
1000
0010
0100
,  // measure 52
0001
0000
0000
0010
0000
0000
0100
0000
1000
0000
0000
2002
0000
0000
0000
3003
0000
0001
0100
0000
0000
0001
0000
0000
,  // measure 53
1001
0000
0000
0011
0000
0000
0020
0000
0100
0000
0000
0032
0000
0000
0000
0010
0000
0000
1003
0000
0000
0001
0100
0010
,  // measure 54
1000
0000
0000
0001
0000
0000
0020
0000
0001
0000
0000
0230
0000
0000
0000
0010
0000
0000
1300
0000
0000
0000
0000
0000
,  // measure 55
1001
0000
0000
0101
0000
0000
0200
0000
0010
0000
0000
0302
0000
0000
0000
1000
0000
0000
0013
0000
0000
0001
0010
0100
,  // measure 56
1000
0000
0000
0010
0000
0100
0001
0000
1000
0100
0000
0010
0002
0000
0000
0000
0003
0100
0010
0000
0000
1000
0000
0000
,  // measure 57
1000
0000
0000
0000
0000
1010
0000
0000
0000
0001
0000
1000
0100
0000
0000
0000
0000
1100
0000
0000
0000
0001
0000
1000
,  // measure 58
0010
0000
0000
0000
0000
2020
0000
0000
0000
3030
0000
0000
1001
0000
0000
0010
0000
2001
0000
0000
0000
0001
0000
0000
,  // measure 59
3001
0000
0000
0000
0000
0011
0000
0000
0000
1000
0000
0001
0100
0000
0000
0000
0000
0101
0000
0000
0000
1000
0000
0001
,  // measure 60
0010
0000
0000
0000
0000
0022
0000
0000
0000
0033
0000
0000
1001
0000
0000
0010
0000
1002
0000
0000
0000
0103
0000
0000
,  // measure 61
0020
0000
0000
0000
0000
1000
0000
0000
0000
0130
0000
0000
0001
0000
0000
1000
0000
0200
0000
0000
0000
0310
0000
0100
,  // measure 62
0020
0000
0000
0001
0000
0000
0130
0000
0000
0000
0000
0000
0110
0000
0000
0010
0000
2001
0000
0000
0000
3010
0000
0000
,  // measure 63
0100
0000
0100
0000
0001
1000
0001
0000
0010
0000
0001
1000
0002
0000
0010
0000
,  // measure 64
0103
0000
0000
0010
0000
1000
0001
0000
1000
0100
0000
0010
0001
0000
1000
0010
0000
0000
0200
0000
0000
0000
0000
0000
,  // measure 65
0300
0000
0000
0000
;

//---------------dance-single - ----------------
#NOTES:
     dance-single:
     :
     Hard:
     11:
     0.453800,0.451175,0.171487,0.302144,0.110242,389.000000,368.000000,21.000000,37.000000,8.000000,0.000000,0.453800,0.451175,0.171487,0.302144,0.110242,389.000000,368.000000,21.000000,37.000000,8.000000,0.000000:
// measure 0
0000
0000
0000
0000
,  // measure 1
0000
0000
0000
0000
,  // measure 2
0000
0000
0000
0000
,  // measure 3
0000
0000
0000
0000
,  // measure 4
1000
0100
0010
0100
1000
0000
1100
0000
,  // measure 5
0001
0100
0010
0100
0001
0000
0101
0000
,  // measure 6
1000
0010
1000
0001
0010
0000
0010
0000
,  // measure 7
0001
0010
0001
1000
0010
0000
1001
0000
,  // measure 8
0001
1000
0100
1000
0001
0001
0001
0000
,  // measure 9
1000
0001
0100
0001
1000
1000
1000
0000
,  // measure 10
0001
1000
0100
0010
0100
0100
0100
0000
,  // measure 11
0012
1000
0103
MMMM
,  // measure 12
1000
0010
0100
0010
1000
1000
1000
0000
,  // measure 13
0001
0010
0100
0010
0001
0001
0001
0000
,  // measure 14
1000
0001
0100
0010
0100
0100
0100
0000
,  // measure 15
2010
0001
3100
MMMM
,  // measure 16
0001
0001
0010
0000
0100
0100
0010
0000
,  // measure 17
0001
0100
0001
1000
0100
1000
0002
0000
,  // measure 18
1003
1000
0010
0000
0100
0100
0010
0000
,  // measure 19
1000
0100
0010
0001
0100
0010
1000
0000
,  // measure 20
0110
0000
1001
0000
1000
0100
0100
0000
,  // measure 21
0010
0001
1000
0000
0001
0100
0100
0000
,  // measure 22
0001
0010
0100
0100
0010
0100
1000
1000
,  // measure 23
0001
0000
0100
0001
0010
0001
0100
0000
,  // measure 24
0001
0000
0000
0010
0000
0000
0001
0000
0000
0000
0000
0020
0000
0000
0000
0001
0000
0000
0001
0000
0000
0130
0000
0000
,  // measure 25
1000
0000
0000
0001
0000
0000
0100
0000
0000
0000
0000
0020
0000
0000
0000
1030
0000
0000
0001
0000
0000
0000
0000
0000
,  // measure 26
1000
0000
0000
0100
0000
0000
1000
0000
0000
0000
0000
0200
0000
0000
0000
0010
0000
0000
0010
0000
0000
1300
0000
0000
,  // measure 27
0001
0000
0000
1000
0000
0000
0010
0000
0000
0000
0000
0220
0000
0000
0000
0000
0000
0000
0330
0000
0000
0000
0000
0000
,  // measure 28
1000
0000
0000
0010
0000
0000
1000
0000
0000
0000
0000
0020
0000
0000
0000
1000
0000
0000
1000
0000
0000
0130
0000
0000
,  // measure 29
0001
0000
0000
1000
0000
0000
0100
0000
0000
0000
0000
0020
0000
0000
0000
0031
0000
0000
1000
0000
0000
0000
0000
0000
,  // measure 30
0001
0000
0000
0100
0000
0000
0001
0000
0000
0000
0000
0200
0000
0000
0000
0010
0000
0000
0010
0000
0000
0301
0000
0000
,  // measure 31
1000
0000
0000
0100
0000
0000
0100
0000
0000
0100
0000
0000
0010
0000
0000
0000
0000
1001
0000
0000
0000
0000
0000
0000
,  // measure 32
2000
3020
2030
3020
,  // measure 33
0130
0000
0001
0000
1000
0001
1000
0000
,  // measure 34
0002
0010
2003
0010
,  // measure 35
3100
0000
1000
0000
0001
1000
0001
0000
,  // measure 36
1000
0010
0100
0000
0010
1000
0100
0000
,  // measure 37
0010
0100
0010
0100
1000
1000
1000
0000
,  // measure 38
0001
0010
0100
0000
0010
0001
0100
0000
,  // measure 39
0010
0100
0010
0100
0001
0001
0001
0000
,  // measure 40
1000
0100
0100
0000
0010
0001
0001
0000
,  // measure 41
1000
1000
0010
0100
0001
1000
1000
0000
,  // measure 42
0200
0010
2300
0001
,  // measure 43
3020
0000
0100
0000
1030
0001
1000
0000
,  // measure 44
0001
0010
0001
0010
0001
0100
0001
0100
,  // measure 45
0010
1000
0001
0010
0001
1000
0100
0000
,  // measure 46
1000
0010
1000
0010
1000
0100
1000
0100
,  // measure 47
0010
0001
1000
0010
0100
0001
1000
0000
,  // measure 48
0000
0000
0000
0000
,  // measure 49
1000
0000
0000
0100
0000
0000
0010
0000
0000
0000
0000
0012
0000
0000
0000
1000
0000
0000
1000
0000
0000
0103
0000
0000
,  // measure 50
0010
0000
0000
1000
0000
0000
0001
0000
0000
0000
0000
0020
0000
0000
0000
0130
0000
0000
1000
0000
0000
0000
0000
0000
,  // measure 51
0010
0000
0000
0100
0000
0000
0001
0000
0000
0000
0000
2001
0000
0000
0000
0010
0000
0000
0010
0000
0000
3001
0000
0000
,  // measure 52
0010
0000
0000
0100
0000
0000
1000
0000
0000
0000
0000
2200
0000
0000
0000
0000
0000
0000
3300
0000
0000
0000
0000
0000
,  // measure 53
0001
0000
0000
0100
0000
0000
0010
0000
0000
0000
0000
2010
0000
0000
0000
0001
0000
0000
0001
0000
0000
3100
0000
0000
,  // measure 54
0010
0000
0000
0001
0000
0000
1000
0000
0000
0000
0000
0020
0000
0000
0000
0130
0000
0000
0001
0000
0000
0000
0000
0000
,  // measure 55
0010
0000
0000
0100
0000
0000
1000
0000
0000
0000
0000
1002
0000
0000
0000
0010
0000
0000
0010
0000
0000
1003
0000
0000
,  // measure 56
0001
0000
0000
0100
0000
0000
0100
0000
0000
0100
0000
0000
0010
0000
0000
0000
0000
1001
0000
0000
0000
0000
0000
0000
,  // measure 57
1000
0000
0000
0000
0000
2000
0000
0000
0000
3100
0000
0000
0010
0000
0000
0000
0000
0020
0000
0000
0000
0130
0000
0000
,  // measure 58
1000
0000
0000
0000
0000
2000
0000
0000
0000
3010
0000
0000
1010
0000
0000
0000
0000
0101
0000
0000
0000
0000
0000
0000
,  // measure 59
0001
0000
0000
0000
0000
0002
0000
0000
0000
0103
0000
0000
0010
0000
0000
0000
0000
0020
0000
0000
0000
0130
0000
0000
,  // measure 60
0001
0000
0000
0000
0000
0002
0000
0000
0000
0013
0000
0000
0011
0000
0000
0000
0000
1100
0000
0000
0000
0000
0000
0000
,  // measure 61
0001
0000
0000
0000
0000
0200
0000
0000
0000
0310
0000
0000
1000
0000
0000
0000
0000
0200
0000
0000
0000
0310
0000
0000
,  // measure 62
0001
0000
0000
1000
0000
0000
0010
0000
0000
0100
0000
0000
0110
0000
0000
0000
0000
1001
0000
0000
0000
0000
0000
0000
,  // measure 63
0001
0001
0010
0010
0100
1000
0010
0100
,  // measure 64
0001
1000
1000
1000
0100
0010
0200
0000
,  // measure 65
0300
0000
0000
0000
;

//---------------dance-single - ----------------
#NOTES:
     dance-single:
     :
     Medium:
     7:
     0.311477,0.345016,0.097993,0.449134,0.000000,267.000000,255.000000,12.000000,55.000000,0.000000,0.000000,0.311477,0.345016,0.097993,0.449134,0.000000,267.000000,255.000000,12.000000,55.000000,0.000000,0.000000:
// measure 0
0000
0000
0000
0000
,  // measure 1
0000
0000
0000
0000
,  // measure 2
0000
0000
0000
0000
,  // measure 3
0000
0000
0000
0000
,  // measure 4
1000
0010
0110
0110
,  // measure 5
0001
0010
0110
0110
,  // measure 6
1000
0001
0100
0010
,  // measure 7
1000
0001
0010
0100
,  // measure 8
1000
0000
1000
0000
0010
1000
0010
0000
,  // measure 9
1000
0000
1000
0000
0001
1000
0001
0000
,  // measure 10
1000
0000
1000
0000
0100
1000
0100
0000
,  // measure 11
0020
0032
0203
0300
,  // measure 12
0001
0000
0001
0000
0010
0001
0010
0000
,  // measure 13
0001
0000
0001
0000
1000
0001
1000
0000
,  // measure 14
0001
0000
0001
0000
0100
0001
0100
0000
,  // measure 15
0020
2030
3200
0300
,  // measure 16
0010
0000
0001
0000
1000
0010
0100
0000
,  // measure 17
0001
0010
0001
0200
,  // measure 18
0310
0000
1000
0000
0001
0010
0100
0000
,  // measure 19
1000
0010
1000
0100
,  // measure 20
0010
0000
0010
0000
0100
0010
0100
0000
,  // measure 21
1000
0000
0010
0000
0100
0010
0100
0000
,  // measure 22
0001
0001
1000
1000
,  // measure 23
1001
0000
0110
0000
0001
1000
0100
0000
,  // measure 24
0010
0001
0010
0000
0002
0000
0010
0000
,  // measure 25
0103
0001
0100
0000
0002
0000
0003
0000
,  // measure 26
0100
0001
0100
0000
0002
0000
0100
0000
,  // measure 27
0013
0001
1000
0000
0020
0000
0030
0000
,  // measure 28
0010
1000
0010
0000
2000
0000
0010
0000
,  // measure 29
3100
1000
0100
0000
2000
0000
3000
0000
,  // measure 30
0100
1000
0100
0000
2000
0000
0100
0000
,  // measure 31
3001
0100
0001
0100
0020
0000
1030
0000
,  // measure 32
0002
0003
2000
3000
,  // measure 33
0001
0001
0010
0100
,  // measure 34
2000
3000
0002
0003
,  // measure 35
1000
1000
0010
0100
,  // measure 36
0001
0010
0001
0100
,  // measure 37
0010
0000
0100
0000
0001
0010
0001
0000
,  // measure 38
1000
0010
1000
0100
,  // measure 39
0010
0000
0100
0000
1000
0010
1000
0000
,  // measure 40
0001
0010
0100
1000
,  // measure 41
0010
0100
0001
0001
,  // measure 42
2000
0100
3002
0100
,  // measure 43
2003
0010
0002
3003
,  // measure 44
0002
0023
0230
2300
,  // measure 45
3020
0000
0230
0000
0301
0100
0001
0000
,  // measure 46
2000
3020
0230
0302
,  // measure 47
0023
0000
0230
0000
1300
0010
0100
0000
,  // measure 48
0000
0000
0000
0000
,  // measure 49
0010
1000
0100
0000
2000
0000
0010
0000
,  // measure 50
3100
1000
0100
0000
0020
0000
0030
0000
,  // measure 51
0100
1000
0010
0000
2000
0000
0100
0000
,  // measure 52
3010
1000
0001
0000
0020
0000
0030
0000
,  // measure 53
0010
0001
0100
0000
0002
0000
0010
0000
,  // measure 54
0103
0001
0100
0000
0020
0000
0030
0000
,  // measure 55
0100
0001
0010
0000
0002
0000
0100
0000
,  // measure 56
1003
0100
1000
0100
0020
0000
0031
0000
,  // measure 57
2000
3000
0020
0030
,  // measure 58
0200
0300
1010
0101
,  // measure 59
0002
0003
0020
0030
,  // measure 60
0200
0300
0011
1100
,  // measure 61
0002
0003
0200
0300
,  // measure 62
0010
1000
0010
0000
0110
0000
1001
0000
,  // measure 63
2000
0000
3200
0000
0310
0001
0010
0000
,  // measure 64
0002
0000
1000
0000
0103
0010
0200
0000
,  // measure 65
0300
0000
0000
0000
;

//---------------dance-single - ----------------
#NOTES:
     dance-single:
     :
     Easy:
     5:
     0.220484,0.238857,0.089827,0.212318,0.000000,189.000000,178.000000,11.000000,26.000000,0.000000,0.000000,0.220484,0.238857,0.089827,0.212318,0.000000,189.000000,178.000000,11.000000,26.000000,0.000000,0.000000:
0000
0000
0000
0000
,
0000
0000
0000
0000
,
0000
0000
0000
0000
,
0000
0000
0000
0000
,
0010
0000
1001
0000
,
0100
0000
1001
0000
,
0001
0000
0100
0000
,
0010
0000
1000
1000
,
0001
0001
0010
0000
,
0001
0001
1000
0000
,
0001
0001
0100
0000
,
0020
0230
0320
0030
,
1000
1000
0010
0000
,
1000
1000
0001
0000
,
1000
1000
0100
0000
,
0020
0230
0320
0030
,
0001
0001
0010
0100
,
1000
0000
0001
0000
,
1000
1000
0010
0100
,
0001
0000
1000
0000
,
0100
0010
0001
0000
,
0100
0010
1000
0000
,
0001
0001
1000
1000
,
0100
0000
1001
0000
,
0001
0001
0100
0001
,
0100
0100
0001
0000
,
0001
0001
0010
0001
,
0010
0010
0001
0000
,
1000
1000
0010
1000
,
0010
0010
1000
0000
,
1000
1000
0100
1000
,
0001
1000
0020
0030
,
0100
0000
0100
0000
,
0010
0100
0001
0000
,
0100
0000
0100
0000
,
0001
1000
0100
0000
,
0010
0000
0001
0000
,
0010
0001
1000
1000
,
0010
0000
1000
0000
,
0010
1000
0001
0001
,
0010
0000
0100
0000
,
0010
0100
1000
0001
,
0200
0300
0020
0030
,
0100
0010
0220
0330
,
2000
0000
3020
0000
,
2030
3200
2300
3000
,
0002
0000
0023
0000
,
0032
0203
0320
2030
,
3000
0000
0000
0000
,
1000
1000
0100
0010
,
0001
0001
1000
0000
,
1000
1000
0010
0100
,
0001
0001
1000
0000
,
0001
0001
0010
0100
,
1000
1000
0001
0000
,
0001
0001
0100
0010
,
1000
0001
0020
0030
,
0100
0000
0010
0000
,
0100
0000
0110
0110
,
1000
0000
0001
0000
,
1000
0000
1001
1001
,
0010
0000
0100
0000
,
0010
0000
0110
0110
,
0001
0000
1000
0001
,
0020
0030
0100
0220
,
0330
0000
0000
0000
;

//---------------dance-single - ----------------
#NOTES:
     dance-single:
     :
     Beginner:
     2:
     0.137657,0.185063,0.024498,0.048996,0.000000,118.000000,115.000000,3.000000,6.000000,0.000000,0.000000,0.137657,0.185063,0.024498,0.048996,0.000000,118.000000,115.000000,3.000000,6.000000,0.000000,0.000000:
0000
0000
0000
0000
,
0000
0000
0000
0000
,
0000
0000
0000
0000
,
0000
0000
0000
0000
,
1000
0000
0000
0000
,
0001
0000
0000
0000
,
1000
0000
0000
0000
,
0001
0000
0000
0000
,
1000
0000
0100
0000
,
1000
0000
0001
0000
,
1000
0000
0010
0000
,
0200
0000
0300
0000
,
0001
0000
0100
0000
,
0001
0000
1000
0000
,
0001
0000
0010
0000
,
0200
0000
0300
0000
,
0010
0000
0100
0000
,
1000
0000
1000
0000
,
0010
0000
0100
0000
,
0001
0000
0001
0000
,
1000
0000
0100
0000
,
0010
0000
0001
0000
,
0100
0000
0010
0000
,
1000
0000
0001
0000
,
1000
1000
1000
0000
,
0100
0000
0010
0000
,
0001
0001
0001
0000
,
0010
0000
0100
0000
,
1000
1000
1000
0000
,
0100
0000
0010
0000
,
0001
0001
0001
0000
,
0100
0000
0010
0000
,
2000
0000
0000
0000
,
3000
0000
0000
0000
,
0002
0000
0000
0000
,
0003
0000
0000
0000
,
1000
0000
1000
0000
,
0010
0000
0010
0000
,
0100
0000
0100
0000
,
0001
0000
0001
0000
,
1000
0000
0100
0000
,
0010
0000
0001
0000
,
2000
0000
3000
0000
,
0002
0000
0003
0000
,
0100
0000
0001
0000
,
0010
0000
0010
0000
,
0100
0000
1000
0000
,
0010
0000
0010
0000
,
0000
0000
0000
0000
,
1000
1000
1000
0000
,
0010
0000
0100
0000
,
0001
0001
0001
0000
,
0100
0000
0010
0000
,
1000
1000
1000
0000
,
0010
0000
0100
0000
,
0001
0001
0001
0000
,
0010
0000
0100
0000
,
1000
0000
1000
0000
,
1000
0000
1001
0000
,
0001
0000
0001
0000
,
0001
0000
1001
0000
,
0100
0000
0010
0000
,
0100
0000
0110
0000
,
0001
0000
1000
0000
,
0100
0000
0100
0100
;
