#VERSION:0.83;
#TITLE:なにやってもうまくいかない (feat.asmi);
#SUBTITLE:;
#ARTIST:meiyo;
#TITLETRANSLIT:Nani yatte mo umaku ikanai (feat.asmi);
#SUBTITLETRANSLIT:;
#ARTISTTRANSLIT:;
#GENRE:Japanesque Pop;
#ORIGIN:;
#CREDIT:;
#BANNER:Nani yatte mo umaku ikanai (feat.asmi).png;
#BACKGROUND:Nani yatte mo umaku ikanai (feat.asmi)-bg.png;
#PREVIEWVID:;
#JACKET:Nani yatte mo umaku ikanai (feat.asmi)-jacket.png;
#CDIMAGE:;
#DISCIMAGE:;
#LYRICSPATH:;
#CDTITLE:cdtitle.png;
#MUSIC:Nani yatte mo umaku ikanai (feat.asmi).ogg;
#OFFSET:-0.872000;
#SAMPLESTART:65.671997;
#SAMPLELENGTH:15.360001;
#SELECTABLE:YES;
#BPMS:0.000=125.000;
#STOPS:;
#DELAYS:;
#WARPS:;
#TIMESIGNATURES:0.000=4=4;
#TICKCOUNTS:0.000=4;
#COMBOS:0.000=1;
#SPEEDS:0.000=1.000=0.000=0;
#SCROLLS:0.000=1.000,
167.000=0.900,
167.167=0.800,
167.333=0.700,
167.500=0.600,
167.667=0.500,
167.833=0.400,
168.000=0.300,
168.167=0.200,
168.333=0.100,
168.500=0.000,
169.000=1.000,
218.000=1.010,
218.500=1.020,
219.000=1.030,
219.500=1.040,
220.000=1.060,
220.500=1.080,
221.000=1.100,
221.500=1.120,
222.000=1.150,
222.500=1.180,
223.000=1.210,
223.500=1.240,
224.000=1.280,
224.500=1.320,
225.000=1.360,
225.500=1.400,
226.000=1.450,
226.500=1.500,
227.000=1.550,
227.500=1.600,
228.000=1.660,
228.500=1.720,
229.000=1.780,
229.500=1.840,
230.000=1.910,
230.500=1.980,
231.000=2.050,
231.500=2.120,
232.000=1.000,
296.000=0.000,
300.500=-1.000,
300.625=-0.500,
300.750=0.000,
300.875=2.000;
#FAKES:;
#LABELS:0.000=Song Start;
#BGCHANGES:-1.250=Nani yatte mo umaku ikanai (feat.asmi).mp4=1.000=1=0=1===CrossFade==,
99999=-nosongbg-=1.000=0=0=0 // don't automatically add -songbackground-
;
#KEYSOUNDS:;
#ATTACKS:
;

//---------------dance-single - ----------------
#NOTEDATA:;
#CHARTNAME:;
#STEPSTYPE:dance-single;
#DESCRIPTION:;
#CHARTSTYLE:;
#DIFFICULTY:Challenge;
#METER:15;
#RADARVALUES:0.675575,0.712014,0.121604,0.709354,0.760022,700.000000,682.000000,18.000000,105.000000,20.000000,0.000000,0.000000,0.000000,0.000000,0.675575,0.712014,0.121604,0.709354,0.760022,700.000000,682.000000,18.000000,105.000000,20.000000,0.000000,0.000000,0.000000,0.000000;
#CREDIT:;
#OFFSET:-0.872000;
#BPMS:0.000000=124.999992
;
#STOPS:;
#DELAYS:;
#WARPS:;
#TIMESIGNATURES:0.000000=4=4
;
#TICKCOUNTS:0.000000=4
;
#COMBOS:0.000000=1
;
#SPEEDS:0.000000=1.000000=0.000000=0
;
#SCROLLS:0.000000=1.000000
,167.000000=0.900000
,167.166672=0.800000
,167.333328=0.700000
,167.500000=0.600000
,167.666672=0.500000
,167.833328=0.400000
,168.000000=0.300000
,168.166672=0.200000
,168.333328=0.100000
,168.500000=0.000000
,169.000000=1.000000
,218.000000=1.010000
,218.500000=1.020000
,219.000000=1.030000
,219.500000=1.040000
,220.000000=1.060000
,220.500000=1.080000
,221.000000=1.100000
,221.500000=1.120000
,222.000000=1.150000
,222.500000=1.180000
,223.000000=1.210000
,223.500000=1.240000
,224.000000=1.280000
,224.500000=1.320000
,225.000000=1.360000
,225.500000=1.400000
,226.000000=1.450000
,226.500000=1.500000
,227.000000=1.550000
,227.500000=1.600000
,228.000000=1.660000
,228.500000=1.720000
,229.000000=1.780000
,229.500000=1.840000
,230.000000=1.910000
,230.500000=1.980000
,231.000000=2.050000
,231.500000=2.120000
,232.000000=1.000000
,296.000000=0.000000
,300.500000=-1.000000
,300.625000=-0.500000
,300.750000=0.000000
,300.875000=2.000000
;
#FAKES:;
#LABELS:0.000000=Song Start
,218.000000=ROBOTIX?!
;
#NOTES:
// measure 0
0000
0000
0000
0000
,  // measure 1
0000
0000
0000
0000
0000
0000
0000
0000
0000
0000
0000
0000
0002
0000
0003
1000
,  // measure 2
0010
0000
0100
0001
0100
0001
1000
0001
0010
0000
0001
0000
0001
0000
0000
0100
,  // measure 3
0000
0010
0000
0000
0100
0000
0000
0001
0000
1000
0000
0000
0002
0000
1003
0000
,  // measure 4
0100
0000
0010
0001
0010
0001
1000
0001
0100
0000
0010
0000
1000
0000
0000
1010
,  // measure 5
0000
0000
0000
0000
0001
0000
0000
0101
0000
0000
0000
0000
2000
0000
3000
0001
,  // measure 6
0010
0000
0100
1000
0100
1000
0001
1000
0010
0000
1000
0000
1000
0000
0000
0100
,  // measure 7
0000
0010
0000
0000
0100
0000
0000
1000
0000
0000
0001
0000
2000
0000
3001
0000
,  // measure 8
0100
0000
0010
1000
0010
1000
0001
1000
0100
0000
0000
0000
0020
0000
0030
0100
,  // measure 9
1000
0000
0001
0100
0010
1000
0010
0100
0001
0000
0000
0000
2000
0000
3000
0000
,  // measure 10
0001
0010
0001
0000
1000
0001
0001
2000
,  // measure 11
0010
0000
3000
0001
1000
0000
0001
0000
1000
0000
0100
0000
0010
0000
0002
0000
,  // measure 12
1000
0000
0003
0100
0010
0000
2000
0000
0001
0000
3000
0100
0010
0000
0001
0000
,  // measure 13
1000
0000
0000
0000
0010
0000
0000
0000
0100
0000
0000
0000
0001
0000
0000
0000
2000
3000
0000
0000
0020
0030
0M00
0000
0020
0030
0000
0000
0002
0003
0000
0000
,  // measure 14
1000
0100
0100
1000
0001
0100
0100
0001
,  // measure 15
1000
0000
0001
0010
0001
0000
1000
0010
1000
0000
0001
0000
0001
0000
1000
0000
,  // measure 16
0100
0010
0001
0000
2002
0000
3003
0000
,  // measure 17
0001
0100
0001
0100
0010
1000
0010
1000
0002
0000
0003
1000
0200
0000
0310
0001
,  // measure 18
1000
0000
0001
0100
0010
0000
0100
0000
0001
0000
1000
0100
0010
0000
0100
0000
,  // measure 19
2000
0000
0001
0000
3010
0000
0100
0000
0100
0000
0000
0010
0100
0000
0001
1000
,  // measure 20
0200
0000
0010
0000
2300
0000
0001
0000
3010
0000
0100
0000
0001
1000
0001
0000
,  // measure 21
0200
0000
0010
0000
0302
0000
1000
0000
0013
0000
0100
1000
0001
1000
0010
0000
,  // measure 22
0200
0000
0000
0000
0310
0000
0000
0000
1000
0000
0001
1000
0100
0000
0010
0000
,  // measure 23
0001
0000
1000
0000
0001
0000
0100
0000
0000
0000
0001
0000
0100
0000
0001
0000
0010
0000
0000
0000
0100
0000
0000
0000
2000
3000
0000
0000
0000
0000
0000
0000
,  // measure 24
0002
2003
3002
2003
3002
2003
3002
2003
,  // measure 25
3002
0000
2003
0000
3002
0000
2003
0000
3001
0000
0000
0000
2000
0000
3000
0001
,  // measure 26
0010
0000
0100
1000
0001
1000
0100
1000
0010
0000
0100
0000
0100
0000
0001
0100
,  // measure 27
0000
0010
0000
0100
0001
0000
1000
0100
0000
0010
0000
0100
2000
0000
3001
0000
,  // measure 28
0100
0000
0010
1000
0001
1000
0010
1000
0100
0000
0010
0000
0001
0000
0000
0011
,  // measure 29
0000
0000
0000
0000
1000
0000
0000
1100
0000
0000
0000
0000
0002
0000
0003
1000
,  // measure 30
0010
0000
0100
0001
1000
0001
0100
0001
0010
0000
0100
0000
0100
0000
1000
0100
,  // measure 31
0000
0010
0000
0100
1000
0000
0001
0100
0000
0100
0010
0100
0002
0000
1003
0000
,  // measure 32
0100
0000
0010
0001
1000
0001
0010
0001
0100
0000
0000
0000
0020
0000
0030
0100
,  // measure 33
0001
0000
1000
0100
0010
0001
0100
0010
1000
0000
0000
0000
0002
0000
0003
1000
,  // measure 34
0100
00M0
0100
0001
1000
0001
0100
0001
0010
0000
0100
1000
0010
0000
0100
0001
,  // measure 35
0000
1000
0001
0000
0010
0000
0100
1000
0000
0001
0000
0100
0020
0000
1030
0000
,  // measure 36
0010
0M00
0010
0001
1000
0001
0010
0001
0100
0000
0010
0000
2010
0000
3001
1000
,  // measure 37
0100
0000
0000
0000
0012
0000
1003
0001
0100
0000
0010
0000
2000
0000
3000
0001
,  // measure 38
0100
00M0
0100
1000
0001
1000
0100
1000
0010
0000
0100
0001
0010
0000
0100
1000
,  // measure 39
0000
0001
0000
1000
0010
0000
0100
0001
0000
1000
0000
0100
0020
0000
0031
0000
,  // measure 40
0010
0M00
0010
1000
0001
1000
0010
1000
0100
0000
0010
0001
2000
0000
3000
0001
,  // measure 41
0100
00M0
0100
1000
0001
0100
0010
1000
0001
0000
0000
0000
2000
0000
0000
0000
,  // measure 42
0000
0000
0000
0000
0000
0000
0000
0000
0000
3000
0000
0000
0000
0000
0000
0000
1010
0000
0000
0000
1000
0000
0000
0000
0000
0000
0000
0000
0011
0000
0000
0000
,  // measure 43
0001
0000
1000
0000
0001
0100
0010
0100
0001
0000
1000
0100
0010
0100
1000
0000
,  // measure 44
0001
0100
0010
1000
0002
0000
0000
0000
0103
00M0
0100
0000
1000
0000
0001
1000
,  // measure 45
0100
00M0
0100
0000
0001
0000
1000
0001
0100
00M0
0100
0000
1000
0000
0001
0000
,  // measure 46
2000
0000
0010
0000
3002
0000
0010
0000
0103
0000
0000
0000
0100
0000
0001
0100
,  // measure 47
0000
0001
1000
0001
0010
0000
0100
0000
1000
0000
0010
0M00
0010
0000
0001
1000
,  // measure 48
0001
0000
0100
0000
0010
1000
0010
0100
0001
0000
0010
0M00
0010
0000
1000
0001
,  // measure 49
1000
0000
0100
0000
0010
0001
0010
0100
1000
0000
0001
1000
0001
0000
0100
0010
,  // measure 50
1000
0000
0000
0000
0100
0010
0001
0000
1000
0000
1000
0000
0001
0000
0001
0000
,  // measure 51
1000
1000
0001
0001
1001
1100
1001
0101
,  // measure 52
2002
0000
3003
0000
1000
0010
1000
0001
,  // measure 53
0010
0001
1000
0010
1000
0001
0010
0001
,  // measure 54
0200
0000
0301
1000
0100
0000
0010
0000
0002
0000
2003
0000
3002
0000
2003
0000
,  // measure 55
3002
2003
3002
2003
3002
2003
3002
2003
,  // measure 56
3002
2003
3002
2003
3002
2003
3002
2003
,  // measure 57
3002
2003
3002
2003
3002
2003
3002
2003
,  // measure 58
3001
0000
0000
0000
2000
0000
3000
0001
0100
00M0
0100
1000
0001
1000
0100
1000
,  // measure 59
0010
0000
0100
0000
0100
0000
0002
0100
0000
1000
0000
1003
0100
0000
0020
0001
,  // measure 60
0000
0100
0000
0130
2000
0000
3001
0000
0010
0M00
0010
1000
0001
1000
0010
1000
,  // measure 61
0100
0000
0010
0000
0012
0000
1003
0001
0100
0000
0000
0000
2010
0000
3001
1000
,  // measure 62
0100
0000
0010
0000
0002
0000
0003
1000
0100
00M0
0100
0001
1000
0001
0100
0001
,  // measure 63
0010
0000
0100
0000
0100
0000
2000
0100
0000
0001
0000
3001
0100
0000
0020
1000
,  // measure 64
0000
0130
0010
0100
0002
0000
1003
0000
0010
0M00
0010
0001
1000
0001
0010
0001
,  // measure 65
0100
0000
0000
0000
0002
0000
0003
1000
0100
00M0
0100
0001
1000
0100
0010
0001
,  // measure 66
1000
0000
0000
0000
0001
0000
0100
0000
0010
0000
1000
0000
0100
0000
0010
0000
0001
0000
0000
0000
0010
0M00
0010
0000
1000
0000
0010
0000
0100
0000
0001
0000
,  // measure 67
0010
0000
0100
1000
0010
0000
2000
0010
0000
0001
0000
3100
0010
0000
0002
0010
,  // measure 68
0000
0000
1000
0000
0000
0000
0103
0000
0020
0000
0000
0000
1030
0000
0000
0000
0001
0000
0000
0000
0100
00M0
0100
0000
1000
0000
0100
0000
0010
0000
0001
0000
,  // measure 69
0100
0000
0010
0000
0210
0000
0301
1000
0100
0000
0000
0000
0120
0000
0031
2000
,  // measure 70
0000
0000
3000
0000
0001
0000
1000
0000
0001
0000
0100
0000
0010
0000
0000
0000
1000
0000
0000
0000
0010
0M00
0010
0000
0001
0000
0010
0000
0100
0000
1000
0000
,  // measure 71
0010
0000
0100
0001
0010
0000
0100
2000
0001
0000
3010
0000
0010
0100
0002
1000
,  // measure 72
0000
0000
0013
0000
0100
0000
0000
0000
0020
0000
0000
0000
0031
0000
0000
0000
1000
0000
0000
0000
0100
00M0
0100
0000
0001
0000
0100
0000
0010
0000
1000
0000
,  // measure 73
0100
0000
0010
0001
2000
0000
0000
0000
3001
0100
0010
1000
0001
1000
0100
0010
,  // measure 74
0002
0000
0000
0000
,  // measure 75
0000
0000
0000
0000
0000
0000
0000
0000
0000
0003
0000
0000
0000
0000
0000
0000
0000
0000
0000
0000
0000
0000
0000
0000
0000
0000
0000
0000
0000
0000
0000
0000
;

//---------------dance-single - ----------------
#NOTEDATA:;
#CHARTNAME:;
#STEPSTYPE:dance-single;
#DESCRIPTION:;
#CHARTSTYLE:;
#DIFFICULTY:Hard;
#METER:12;
#RADARVALUES:0.513437,0.534011,0.074313,0.432368,0.331032,532.000000,521.000000,11.000000,64.000000,17.000000,0.000000,0.000000,0.000000,0.000000,0.513437,0.534011,0.074313,0.432368,0.331032,532.000000,521.000000,11.000000,64.000000,17.000000,0.000000,0.000000,0.000000,0.000000;
#CREDIT:;
#OFFSET:-0.872000;
#BPMS:0.000000=124.999992
;
#STOPS:;
#DELAYS:;
#WARPS:;
#TIMESIGNATURES:0.000000=4=4
;
#TICKCOUNTS:0.000000=4
;
#COMBOS:0.000000=1
;
#SPEEDS:0.000000=1.000000=0.000000=0
;
#SCROLLS:0.000000=1.000000
,167.000000=0.900000
,167.166672=0.800000
,167.333328=0.700000
,167.500000=0.600000
,167.666672=0.500000
,167.833328=0.400000
,168.000000=0.300000
,168.166672=0.200000
,168.333328=0.100000
,168.500000=0.000000
,169.000000=1.000000
,296.000000=0.000000
,300.500000=-1.000000
,300.625000=-0.500000
,300.750000=0.000000
,300.875000=2.000000
;
#FAKES:;
#LABELS:0.000000=Song Start
;
#NOTES:
// measure 0
0000
0000
0000
0000
,  // measure 1
0000
0000
0000
0000
0000
0000
0000
0000
0000
0000
0000
0000
2000
0000
3000
0001
,  // measure 2
0010
0001
1000
0001
0100
0000
0001
0000
,  // measure 3
0001
0000
0000
0000
0010
0000
0000
0000
0001
0000
0000
0000
2000
0000
3000
0001
,  // measure 4
0100
0001
1000
0001
0010
0100
1000
0000
,  // measure 5
1100
0000
0000
0000
0001
0000
0000
0000
0101
0000
0000
0000
0002
0000
0003
1000
,  // measure 6
0010
1000
0001
1000
0100
0000
1000
0000
,  // measure 7
1000
0000
0000
0000
0010
0000
0000
0000
1000
0000
0000
0000
0002
0000
0003
1000
,  // measure 8
0100
0000
1000
0000
0001
0000
1000
0000
0010
0000
0000
0000
2000
0000
3000
0001
,  // measure 9
0010
0100
1000
0001
0100
0000
0020
0030
,  // measure 10
2000
0000
0010
0000
3100
0010
0100
0010
,  // measure 11
0002
0000
0010
0000
0103
0010
2000
0010
,  // measure 12
0010
0000
3002
0010
0010
0000
1003
0010
,  // measure 13
0100
0000
0000
0000
0001
0000
0000
0000
0100
0000
0000
0000
0001
0000
0000
0000
2000
3000
0000
0000
0200
0300
00M0
0000
0200
0300
0000
0000
0002
0003
0000
0000
,  // measure 14
1000
0100
0010
0001
0010
0100
1000
0001
,  // measure 15
2000
0010
3002
0010
1003
1000
1000
0000
,  // measure 16
0001
0100
0010
0000
2002
0000
3003
0000
,  // measure 17
1000
0100
1000
0200
0010
0000
1300
0000
,  // measure 18
0001
0100
0010
1000
0001
1000
0100
0010
,  // measure 19
0001
0002
1000
1000
0103
0000
0100
0010
,  // measure 20
1000
2000
0010
0010
3001
1000
0100
0010
,  // measure 21
0001
0002
0010
0010
1003
0001
0100
0010
,  // measure 22
2000
0000
3001
0000
1000
0100
1000
0001
,  // measure 23
0100
0000
0000
0000
0001
0000
1000
0000
0000
0000
1000
0000
0001
0000
0000
0000
0010
0000
0000
0000
0001
0000
0000
0000
0200
0300
0000
0000
0000
0000
0000
0000
,  // measure 24
2002
0000
0000
0000
,  // measure 25
0000
0000
0000
0000
0000
0000
0000
0000
3003
0000
0000
0000
0002
0000
0003
1000
,  // measure 26
0010
0000
0100
0010
0100
0000
0001
0000
0010
0000
0100
0000
1000
0000
0000
0010
,  // measure 27
0000
1000
0000
0000
0010
0000
0000
1000
0000
1000
0000
0000
0002
0000
1003
0000
,  // measure 28
0100
0000
0010
0100
0010
0000
0001
0000
0100
0000
0010
0000
1000
0000
0000
0000
,  // measure 29
1100
0000
0000
0000
0001
0000
0000
0000
0101
0000
0000
0000
2000
0000
3000
0001
,  // measure 30
0010
0000
0100
0010
0100
0000
1000
0000
0010
0000
0100
0000
0001
0000
0000
0010
,  // measure 31
0000
0001
0000
0000
0010
0000
0000
0001
0000
0000
0001
0000
2000
0000
3001
0000
,  // measure 32
0100
0000
0010
0100
0010
0000
1000
0000
0100
0000
0000
0000
2000
0000
3000
0100
,  // measure 33
0010
0000
0001
1000
0001
0000
0100
0000
0010
0000
0000
0000
2000
0000
3000
0010
,  // measure 34
0100
0000
0001
1000
0001
0000
0100
00M0
0100
0000
1000
0001
1000
0000
0000
0010
,  // measure 35
0000
0000
0100
0000
0001
0000
0000
0010
0000
0100
0000
0000
2000
0000
3100
0000
,  // measure 36
0010
0000
0001
1000
0001
0000
0010
0M00
0010
0000
1000
0000
0001
0000
1000
0010
,  // measure 37
1000
0000
0000
0000
1000
0000
0001
0010
0001
0000
1000
0000
0002
0000
0003
0010
,  // measure 38
0100
0000
1000
0001
1000
0000
0100
00M0
0100
0000
0001
1000
0001
0000
0000
0010
,  // measure 39
0000
0100
0000
0000
1000
0000
0000
0010
0000
0100
0000
0000
0002
0000
0103
0000
,  // measure 40
0010
0000
1000
0001
1000
0000
0010
0M00
0010
0000
0000
0000
0002
0000
0003
0010
,  // measure 41
0100
0000
1000
0001
1000
0000
0100
00M0
0100
0000
0000
0000
0002
0000
0000
0000
,  // measure 42
0000
0000
0000
0000
0000
0000
0000
0000
0000
0003
0000
0000
0000
0000
0000
0000
0011
0000
0000
0000
0001
0000
0000
0000
0000
0000
0000
0000
1010
0000
0000
0000
,  // measure 43
1000
1000
0001
0010
0001
0001
1000
0010
,  // measure 44
0200
0000
0301
0000
2000
0100
3100
1000
,  // measure 45
0002
0100
0103
0001
1000
0100
0010
0001
,  // measure 46
2000
0000
0010
0000
3002
0000
0010
0000
0103
0000
0000
0000
0100
0000
0000
0010
,  // measure 47
0000
0100
0000
0000
0001
0000
1000
0000
0001
0000
0100
00M0
0100
0000
1000
0000
,  // measure 48
0001
0000
0001
0000
0100
0000
0010
0000
1000
0000
0100
00M0
0100
0000
0001
0000
,  // measure 49
1000
0000
1000
0000
0100
0000
0010
0000
0001
0000
0100
0000
0010
0000
1000
0010
,  // measure 50
1000
0000
0000
0000
0001
0010
0001
0000
1000
0000
1000
0000
0001
0000
0001
0000
,  // measure 51
1000
1000
0001
0001
2000
0100
3002
0100
,  // measure 52
2000
0000
3003
0000
1000
0010
1000
0001
,  // measure 53
0010
0001
1000
0010
1000
0001
0010
0001
,  // measure 54
0100
0000
1001
0000
1000
0100
1000
0100
,  // measure 55
0010
0001
0010
0001
1000
0010
1000
0010
,  // measure 56
0100
0001
0100
0001
0010
0100
1000
0010
,  // measure 57
0100
0001
0010
0100
1000
0010
0100
0001
,  // measure 58
1000
0000
0000
0000
0002
0000
0003
0010
0100
0000
1000
0001
1000
0000
0100
00M0
,  // measure 59
0100
0000
0001
0000
0002
0000
0000
1000
0000
1000
0000
0000
0023
0000
0000
0100
,  // measure 60
0000
0100
0000
0000
0032
0000
0103
0000
0010
0000
1000
0001
1000
0000
0010
0M00
,  // measure 61
0010
0000
0001
0000
1000
0000
0001
0100
0001
0000
0000
0000
0001
0000
1000
0100
,  // measure 62
1000
0000
0001
0000
2000
0000
3000
0010
0100
0000
0001
1000
0001
0000
0100
00M0
,  // measure 63
0100
0000
1000
0000
2000
0000
0000
0001
0000
0001
0000
0000
3020
0000
0000
0100
,  // measure 64
0000
0000
1000
0000
2030
0000
3100
0000
0010
0000
0001
1000
0001
0000
0010
0M00
,  // measure 65
0010
0000
0000
0000
2000
0000
3000
0010
0100
0000
0001
1000
0001
0000
0100
00M0
,  // measure 66
0100
0000
1000
0000
1002
0000
0003
0100
0010
0000
0100
0010
1000
0000
0010
0M00
,  // measure 67
0010
0000
0001
1000
0002
0000
0000
0010
0000
0100
0000
0000
2003
0000
0000
0100
,  // measure 68
0000
0010
0000
0000
3002
0000
0013
0000
0100
0000
0010
0100
1000
0000
0100
00M0
,  // measure 69
0100
0000
0001
1000
0001
0000
0010
0000
0100
0000
0000
0000
1000
0000
0010
0100
,  // measure 70
0000
0100
0001
0000
2001
0000
3000
0100
0010
0000
0100
0010
0001
0000
0010
0M00
,  // measure 71
0010
0000
1000
0001
2000
0000
0000
0000
0010
0000
0100
0000
3002
0000
0000
0100
,  // measure 72
0000
0000
0010
0000
2003
0000
3010
0000
0100
0000
0010
0100
0001
0000
0100
00M0
,  // measure 73
0100
0000
1000
0001
2000
0000
0000
0000
3001
0000
0100
0010
1000
0000
0100
0010
,  // measure 74
0002
0000
0000
0000
,  // measure 75
0000
0000
0000
0000
0000
0000
0000
0000
0000
0003
0000
0000
0000
0000
0000
0000
0000
0000
0000
0000
0000
0000
0000
0000
0000
0000
0000
0000
0000
0000
0000
0000
;

//---------------dance-single - ----------------
#NOTEDATA:;
#CHARTNAME:;
#STEPSTYPE:dance-single;
#DESCRIPTION:;
#CHARTSTYLE:;
#DIFFICULTY:Medium;
#METER:8;
#RADARVALUES:0.323311,0.356007,0.094581,0.459391,0.000000,335.000000,321.000000,14.000000,68.000000,0.000000,0.000000,0.000000,0.000000,0.000000,0.323311,0.356007,0.094581,0.459391,0.000000,335.000000,321.000000,14.000000,68.000000,0.000000,0.000000,0.000000,0.000000,0.000000;
#CREDIT:;
#OFFSET:-0.872000;
#BPMS:0.000000=124.999992
;
#STOPS:;
#DELAYS:;
#WARPS:;
#TIMESIGNATURES:0.000000=4=4
;
#TICKCOUNTS:0.000000=4
;
#COMBOS:0.000000=1
;
#SPEEDS:0.000000=1.000000=0.000000=0
;
#SCROLLS:0.000000=1.000000
,167.000000=0.900000
,167.166672=0.800000
,167.333328=0.700000
,167.500000=0.600000
,167.666672=0.500000
,167.833328=0.400000
,168.000000=0.300000
,168.166672=0.200000
,168.333328=0.100000
,168.500000=0.000000
,169.000000=1.000000
,296.000000=0.000000
,300.500000=-1.000000
,300.625000=-0.500000
,300.750000=0.000000
,300.875000=2.000000
;
#FAKES:;
#LABELS:0.000000=Song Start
;
#NOTES:
// measure 0
0000
0000
0000
0000
,  // measure 1
0000
0000
0000
2000
,  // measure 2
3001
0010
0001
0000
0100
0000
0000
0000
,  // measure 3
0001
0000
0001
2000
,  // measure 4
3001
0100
0001
0000
0010
0000
0000
0000
,  // measure 5
0110
0000
1001
0002
,  // measure 6
1003
0010
1000
0000
0100
0000
0000
0000
,  // measure 7
1000
0000
1000
0002
,  // measure 8
1003
0100
1000
0000
0010
0000
2000
0000
,  // measure 9
3001
0100
0001
0000
0010
0000
0000
0000
,  // measure 10
0002
0000
0003
0000
1000
0001
1000
0000
,  // measure 11
0020
0000
0130
0000
0001
1000
0001
0000
,  // measure 12
2000
0100
3002
0100
,  // measure 13
1003
0000
0100
0000
0010
0001
1000
0000
,  // measure 14
0001
0000
0100
0000
0001
0100
0010
0000
,  // measure 15
1000
0000
0100
0000
1000
0100
0010
0000
,  // measure 16
0001
0100
0220
0330
,  // measure 17
0100
0010
0100
0000
0002
0000
2003
0000
,  // measure 18
3002
0010
2003
0010
,  // measure 19
3001
0010
0100
0000
1000
0000
0001
0000
,  // measure 20
1000
0010
1000
0000
0001
0010
0001
0000
,  // measure 21
1000
0100
1000
0000
0001
0100
0001
0000
,  // measure 22
2000
3000
1000
0000
,  // measure 23
0001
0000
0100
0000
0010
1000
0100
0000
,  // measure 24
0020
0000
0000
0000
,  // measure 25
0000
0000
0030
0002
,  // measure 26
1003
0010
1000
0010
0100
0000
0000
0000
,  // measure 27
0001
0000
1000
0002
,  // measure 28
1003
0100
1000
0100
0010
0000
0000
0000
,  // measure 29
0110
0000
1001
2000
,  // measure 30
3001
0010
0001
0010
0100
0000
0000
0000
,  // measure 31
1000
0000
0001
2000
,  // measure 32
3001
0100
0001
0100
0010
0000
2000
0000
,  // measure 33
3001
0010
0001
0010
0100
0000
2000
0000
,  // measure 34
3001
0100
0010
1000
0001
0000
1000
0000
,  // measure 35
0100
1000
0010
2000
,  // measure 36
3001
0010
0100
1000
0001
0000
1000
0000
,  // measure 37
1010
0001
0011
0002
,  // measure 38
1003
0100
0010
0001
1000
0000
0001
0000
,  // measure 39
0100
0001
0010
0002
,  // measure 40
1003
0010
0100
0001
1000
0000
0002
0000
,  // measure 41
0013
0100
1000
0001
0100
0000
0020
0000
,  // measure 42
0000
0000
0000
0000
0000
0000
0000
0000
0000
0030
0000
0000
0000
0000
0000
0000
2002
0000
0000
0000
0000
0000
0000
0000
3003
0000
0000
0000
0000
0000
0000
0000
,  // measure 43
1000
1000
0001
0001
,  // measure 44
0220
0000
0330
0000
1000
0010
1000
0000
,  // measure 45
0001
0010
0001
0000
1000
0010
1000
0000
,  // measure 46
0100
0010
0002
0010
,  // measure 47
1003
0000
2000
0100
,  // measure 48
3001
1000
0001
0000
0002
0000
0100
0000
,  // measure 49
1003
0001
1000
0000
0100
0000
0010
0000
,  // measure 50
0220
0330
0001
0001
,  // measure 51
1000
0000
1000
0000
0001
1000
0001
1000
,  // measure 52
0002
0003
0100
0000
,  // measure 53
0000
0000
0002
0000
,  // measure 54
0000
1000
1003
0000
0002
0000
0023
0000
,  // measure 55
0230
2300
3002
0203
,  // measure 56
0320
2030
3200
0320
,  // measure 57
0032
0203
0320
2030
,  // measure 58
3001
0000
0002
0000
0013
0100
0010
0001
,  // measure 59
1000
0001
0100
0001
,  // measure 60
0010
0000
0002
0000
0103
0010
0100
0001
,  // measure 61
1000
0001
0011
1000
,  // measure 62
1010
0000
2000
0000
3010
0100
0010
1000
,  // measure 63
0001
1000
0100
1000
,  // measure 64
0010
0000
2000
0000
3100
0010
0100
1000
,  // measure 65
0001
0000
2000
0000
3010
0100
0001
1000
,  // measure 66
0100
0000
0020
0000
0130
1000
0010
0100
,  // measure 67
0001
2000
0010
3002
,  // measure 68
0010
0000
0203
0000
0310
1000
0100
0010
,  // measure 69
0001
0000
1001
0000
1001
0000
1000
0001
,  // measure 70
1000
0000
0020
0000
0130
0001
0010
0100
,  // measure 71
1000
0002
0010
2003
,  // measure 72
0010
0000
3200
0000
0310
0001
0100
0010
,  // measure 73
1000
0000
0002
0000
0013
0100
1000
0001
,  // measure 74
0200
0000
0000
0000
,  // measure 75
0000
0000
0000
0000
0000
0000
0000
0000
0000
0300
0000
0000
0000
0000
0000
0000
0000
0000
0000
0000
0000
0000
0000
0000
0000
0000
0000
0000
0000
0000
0000
0000
;

//---------------dance-single - ----------------
#NOTEDATA:;
#CHARTNAME:;
#STEPSTYPE:dance-single;
#DESCRIPTION:;
#CHARTSTYLE:;
#DIFFICULTY:Easy;
#METER:4;
#RADARVALUES:0.190126,0.203348,0.013512,0.135115,0.000000,197.000000,195.000000,2.000000,20.000000,0.000000,0.000000,0.000000,0.000000,0.000000,0.190126,0.203348,0.013512,0.135115,0.000000,197.000000,195.000000,2.000000,20.000000,0.000000,0.000000,0.000000,0.000000,0.000000;
#CREDIT:;
#OFFSET:-0.872000;
#BPMS:0.000000=124.999992
;
#STOPS:;
#DELAYS:;
#WARPS:;
#TIMESIGNATURES:0.000000=4=4
;
#TICKCOUNTS:0.000000=4
;
#COMBOS:0.000000=1
;
#SPEEDS:0.000000=1.000000=0.000000=0
;
#SCROLLS:0.000000=1.000000
;
#FAKES:;
#LABELS:0.000000=Song Start
;
#NOTES:
// measure 0
0000
0000
0000
0000
,  // measure 1
0000
0000
0000
0000
,  // measure 2
1000
1000
1000
0000
,  // measure 3
0010
0000
0100
0000
,  // measure 4
0001
0001
0001
0000
,  // measure 5
1000
0000
1000
0000
,  // measure 6
0001
0001
0001
0000
,  // measure 7
0010
0000
0100
0000
,  // measure 8
1000
1000
1000
0000
,  // measure 9
0001
0001
0001
0000
,  // measure 10
0200
0300
0100
0010
,  // measure 11
0200
0300
0100
0010
,  // measure 12
2000
3000
0002
0003
,  // measure 13
1000
0100
0010
0010
,  // measure 14
0010
0000
0100
0000
,  // measure 15
0010
0001
1000
0001
,  // measure 16
0100
0000
0020
0030
,  // measure 17
0100
0100
0200
0300
,  // measure 18
0001
0010
0001
0000
,  // measure 19
1000
0010
1000
0000
,  // measure 20
0100
0010
0001
0000
,  // measure 21
0100
0010
1000
0000
,  // measure 22
0001
0000
0001
0000
,  // measure 23
0001
1000
0100
0000
,  // measure 24
0020
0000
0000
0000
,  // measure 25
0000
0000
0030
0000
,  // measure 26
0001
0010
0001
0000
,  // measure 27
0010
0000
0100
0000
,  // measure 28
1000
0010
1000
0000
,  // measure 29
0001
0000
0001
0000
,  // measure 30
1000
0010
1000
0000
,  // measure 31
0010
0000
0100
0000
,  // measure 32
0001
0010
0001
0000
,  // measure 33
1000
0010
1000
0000
,  // measure 34
0001
0010
0100
1000
,  // measure 35
1000
0000
0001
0000
,  // measure 36
1000
0010
0100
0001
,  // measure 37
1000
0000
0001
0000
,  // measure 38
1000
0100
0010
0001
,  // measure 39
0001
0000
1000
0000
,  // measure 40
0001
0100
0010
0000
,  // measure 41
1000
0100
0010
0002
,  // measure 42
0000
0003
2000
3000
,  // measure 43
0001
0000
1000
0000
,  // measure 44
0002
1003
0100
0000
,  // measure 45
0010
0000
0001
0000
,  // measure 46
0100
0010
1000
1000
,  // measure 47
1000
0000
0001
0001
,  // measure 48
0001
0000
0010
0010
,  // measure 49
0010
0000
0100
1000
,  // measure 50
0001
0000
0200
0000
,  // measure 51
0000
0300
0100
0100
,  // measure 52
0100
0000
0010
0000
,  // measure 53
0000
0000
2000
0000
,  // measure 54
0000
3001
0002
0003
,  // measure 55
2000
3000
0002
0003
,  // measure 56
2000
3000
0002
0003
,  // measure 57
2000
3000
0002
2003
,  // measure 58
3001
0000
1000
0010
,  // measure 59
0100
0001
0001
0000
,  // measure 60
1000
0000
0001
0010
,  // measure 61
0100
1000
0001
0000
,  // measure 62
1000
0000
0001
0100
,  // measure 63
0010
1000
1000
0000
,  // measure 64
0001
0000
1000
0100
,  // measure 65
0010
0000
0001
0100
,  // measure 66
0010
0000
1000
0010
,  // measure 67
1000
0100
0100
0000
,  // measure 68
0010
0000
0001
0010
,  // measure 69
0100
1000
0001
0000
,  // measure 70
1001
0000
0001
0010
,  // measure 71
0001
0100
0100
0000
,  // measure 72
0010
0000
1000
0100
,  // measure 73
0010
0000
0001
0100
,  // measure 74
0010
0000
0000
0000
,  // measure 75
0000
0110
0000
0000
;

//---------------dance-single - ----------------
#NOTEDATA:;
#CHARTNAME:;
#STEPSTYPE:dance-single;
#DESCRIPTION:;
#CHARTSTYLE:;
#DIFFICULTY:Beginner;
#METER:1;
#RADARVALUES:0.073348,0.101674,0.006756,0.141871,0.000000,76.000000,75.000000,1.000000,21.000000,0.000000,0.000000,0.000000,0.000000,0.000000,0.073348,0.101674,0.006756,0.141871,0.000000,76.000000,75.000000,1.000000,21.000000,0.000000,0.000000,0.000000,0.000000,0.000000;
#CREDIT:;
#OFFSET:-0.872000;
#BPMS:0.000000=124.999992
;
#STOPS:;
#DELAYS:;
#WARPS:;
#TIMESIGNATURES:0.000000=4=4
;
#TICKCOUNTS:0.000000=4
;
#COMBOS:0.000000=1
;
#SPEEDS:0.000000=1.000000=0.000000=0
;
#SCROLLS:0.000000=1.000000
;
#FAKES:;
#LABELS:0.000000=Song Start
;
#NOTES:
// measure 0
0000
0000
0000
0000
,  // measure 1
0000
0000
0000
0000
,  // measure 2
2000
0000
3000
0000
,  // measure 3
0000
0000
0000
0000
,  // measure 4
0002
0000
0003
0000
,  // measure 5
0000
0000
0000
0000
,  // measure 6
2000
0000
3000
0000
,  // measure 7
0000
0000
0000
0000
,  // measure 8
0002
0000
0003
0000
,  // measure 9
2000
0000
3000
0000
,  // measure 10
0000
0000
0000
0000
,  // measure 11
0001
0000
0000
0000
,  // measure 12
0010
0000
0000
0000
,  // measure 13
0100
0000
0000
0000
,  // measure 14
1000
0000
0000
0000
,  // measure 15
0010
0000
0000
0000
,  // measure 16
0100
0000
0000
0000
,  // measure 17
0001
0000
0000
0000
,  // measure 18
1000
0000
0000
0000
,  // measure 19
1000
0000
0000
0000
,  // measure 20
0001
0000
0000
0000
,  // measure 21
0001
0000
0000
0000
,  // measure 22
0010
0000
0000
0000
,  // measure 23
0000
0000
0000
0000
,  // measure 24
0200
0000
0000
0000
,  // measure 25
0000
0000
0300
0000
,  // measure 26
2000
0000
3000
0000
,  // measure 27
1000
0000
0000
0000
,  // measure 28
0002
0000
0003
0000
,  // measure 29
0001
0000
0000
0000
,  // measure 30
2000
0000
3000
0000
,  // measure 31
1000
0000
0000
0000
,  // measure 32
0002
0000
0003
0000
,  // measure 33
2000
0000
3000
0000
,  // measure 34
0001
0000
0001
0000
,  // measure 35
0001
0000
0000
0000
,  // measure 36
1000
0000
1000
0000
,  // measure 37
1000
0000
0000
0000
,  // measure 38
0001
0000
0001
0000
,  // measure 39
0001
0000
0000
0000
,  // measure 40
2000
0000
3000
0000
,  // measure 41
0002
0000
0003
0000
,  // measure 42
0000
0000
0100
0000
,  // measure 43
0000
0000
0010
0000
,  // measure 44
0000
0000
1000
0000
,  // measure 45
0000
0000
0100
0000
,  // measure 46
0000
0000
0010
0000
,  // measure 47
0000
0000
0001
0000
,  // measure 48
0000
0000
0100
0000
,  // measure 49
0000
0000
0010
0000
,  // measure 50
0000
0000
0020
0000
,  // measure 51
0000
0000
0000
0000
,  // measure 52
0030
0000
0010
0000
,  // measure 53
0000
0000
2000
0000
,  // measure 54
3000
0000
0100
0000
,  // measure 55
0000
0000
0010
0000
,  // measure 56
0000
0000
0200
0000
,  // measure 57
0300
0000
0020
0000
,  // measure 58
0030
0000
0001
0000
,  // measure 59
0001
0000
0001
0000
,  // measure 60
0000
0000
1000
0000
,  // measure 61
1000
0000
1000
0000
,  // measure 62
0000
0000
0001
0000
,  // measure 63
0001
0000
0001
0000
,  // measure 64
0000
0000
2000
0000
,  // measure 65
3000
0000
0002
0000
,  // measure 66
0003
0000
1000
0000
,  // measure 67
0001
0000
1000
0000
,  // measure 68
0000
0000
0001
0000
,  // measure 69
1000
0000
0001
0000
,  // measure 70
0000
0000
1000
0000
,  // measure 71
0001
0000
1000
0000
,  // measure 72
0000
0000
0200
0000
,  // measure 73
0300
0000
0020
0000
,  // measure 74
0030
0000
0000
0000
,  // measure 75
0000
1001
0000
0000
;
