#VERSION:0.83;
#TITLE:NINE PIECE;
#SUBTITLE:;
#ARTIST:SOUND HOLIC;
#TITLETRANSLIT:;
#SUBTITLETRANSLIT:;
#ARTISTTRANSLIT:;
#GENRE:Jazz;
#ORIGIN:;
#CREDIT:;
#BANNER:NINE PIECE.png;
#BACKGROUND:NINE PIECE-bg.png;
#PREVIEWVID:;
#JACKET:NINE PIECE-jacket.png;
#CDIMAGE:;
#DISCIMAGE:;
#LYRICSPATH:;
#CDTITLE:cdtitle.png;
#MUSIC:NINE PIECE.ogg;
#OFFSET:-0.047283;
#SAMPLESTART:23.264570;
#SAMPLELENGTH:11.428570;
#SELECTABLE:YES;
#BPMS:0.000=168.000,
97.000=160.000,
219.000=168.000,
294.000=140.000;
#STOPS:;
#DELAYS:;
#WARPS:;
#TIMESIGNATURES:0.000=4=4;
#TICKCOUNTS:0.000=4;
#COMBOS:0.000=1;
#SPEEDS:0.000=1.000=0.000=0;
#SCROLLS:0.000=1.000;
#FAKES:;
#LABELS:0.000=Song Start;
#BGCHANGES:;
#KEYSOUNDS:;
#ATTACKS:
;

//---------------dance-single - ----------------
#NOTEDATA:;
#CHARTNAME:;
#STEPSTYPE:dance-single;
#DESCRIPTION:;
#CHARTSTYLE:;
#DIFFICULTY:Challenge;
#METER:17;
#RADARVALUES:1.035132,1.091056,0.853508,0.142251,1.266926,815.000000,719.000000,96.000000,16.000000,0.000000,0.000000,0.000000,0.000000,0.000000,1.035132,1.091056,0.853508,0.142251,1.266926,815.000000,719.000000,96.000000,16.000000,0.000000,0.000000,0.000000,0.000000,0.000000;
#CREDIT:;
#NOTES:
// measure 0
0000
0000
0000
0000
,  // measure 1
0000
0000
0000
0000
,  // measure 2
0000
0000
0000
0000
,  // measure 3
1100
0011
1010
0101
,  // measure 4
1001
0010
0001
1000
,  // measure 5
0001
1000
0100
0010
0100
0001
0100
0010
,  // measure 6
0100
1000
0010
0100
0010
0001
0010
1000
,  // measure 7
0001
0100
0001
0000
1000
0100
1000
0000
0001
0010
0001
0000
1000
0010
1000
0000
,  // measure 8
0001
0010
0000
0010
0100
0000
0100
1000
0000
1000
0001
0000
0001
0100
0000
0000
,  // measure 9
0110
0000
0000
0110
0000
0000
1000
0000
0010
1000
0010
0000
0110
0000
0000
0110
,  // measure 10
0000
0000
0001
1000
0100
0000
0010
0000
0110
0000
0000
0110
0000
0000
0001
0000
,  // measure 11
0010
0001
0010
0000
0110
0000
0000
0110
0000
0000
1000
0000
0001
0100
0010
0000
,  // measure 12
1010
0000
0000
0011
0000
0000
0010
0000
0001
0100
0001
0000
0011
0000
0000
1010
,  // measure 13
0000
0000
1000
0100
1000
0100
0010
0000
0011
0000
0000
0101
0000
0000
1000
0010
,  // measure 14
0100
0001
0010
0100
2000
0000
0000
0000
3001
0100
0001
0100
0010
0100
0010
1000
,  // measure 15
0100
1000
0100
0010
0001
0100
0010
1000
0001
0010
0100
1000
0010
0100
0001
0010
,  // measure 16
0100
1000
0010
0100
0001
0000
0000
0101
0000
0000
1010
0000
1001
0000
0001
0100
,  // measure 17
0000
0000
1010
0000
1100
0000
0000
0011
0000
0000
0101
0000
1001
0000
1000
0010
,  // measure 18
0100
0001
0010
0100
1000
0000
0000
1100
0000
0000
0011
0000
1001
0000
1000
0100
,  // measure 19
0000
0000
0011
0000
0101
0000
0000
1100
0000
0000
1010
0000
0110
0000
0000
0010
,  // measure 20
0100
0001
1000
0100
0010
0000
0000
0011
0000
0000
0101
0000
1010
0000
0010
1000
,  // measure 21
0000
0000
1100
0000
0110
0000
0000
0011
0000
0000
1001
0000
1020
0000
0000
0000
,  // measure 22
0130
0000
0001
0000
1001
0000
0000
1001
0000
0000
0001
1000
0100
1000
0001
0000
,  // measure 23
1000
0000
0010
0000
1000
0010
0100
0001
0010
0001
0010
0100
1000
0000
0001
0100
,  // measure 24
0010
0000
0000
1000
0000
0000
0100
0000
0000
0010
0000
0000
0002
0000
0000
0000
0000
0000
0000
0000
0000
0000
0000
0000
0000
0000
0000
0000
0000
0000
0000
0000
0000
0000
0000
0000
1003
0000
0000
0000
0100
0000
0000
0000
0010
0000
0000
0000
,  // measure 25
0100
0010
0001
1000
0010
0100
0001
0010
0100
2000
0000
0000
,  // measure 26
0000
0000
0000
0000
3001
0000
0000
0000
1000
0010
0100
0000
0100
0010
1000
0000
,  // measure 27
1000
0100
0010
0000
0011
0000
0000
0000
0001
0010
0100
0000
0100
0010
0001
0000
,  // measure 28
0001
0100
0010
0000
1010
0000
0000
0000
0010
1000
0100
0000
0010
0001
0100
0000
,  // measure 29
0010
1000
0100
0000
0120
0000
0000
0000
0000
0000
0000
0000
0000
0000
0000
0000
,  // measure 30
0130
0000
0000
0000
1000
0000
0001
0000
0100
0001
0000
0001
1000
0000
0100
1000
,  // measure 31
0000
1000
0001
0000
1000
0000
0010
0000
0100
0001
0000
1000
0100
0010
0100
0010
,  // measure 32
0001
0100
0010
1000
0001
0000
1000
0100
0000
0001
0100
0000
1000
0010
0000
0001
,  // measure 33
0010
0000
1000
0000
0001
0000
1000
0000
0100
0010
0000
0100
0010
0000
0000
0010
,  // measure 34
0000
0000
1001
0000
0001
0000
0100
0000
0010
1000
0000
0010
1000
0100
1000
0100
,  // measure 35
0010
0000
0001
1000
0001
0000
1000
0010
0100
0001
0010
0100
1000
0100
0010
0001
,  // measure 36
0100
0010
1000
0001
1000
0000
0100
0010
0100
1000
0001
0000
0001
0100
0001
0000
,  // measure 37
0001
0010
0001
0000
1000
0010
1000
0010
0100
0010
0100
0001
1000
0100
0010
0001
,  // measure 38
0100
0010
0100
0010
2000
0000
3000
0000
0001
0010
0001
0010
0001
0010
0001
0010
,  // measure 39
0001
0000
1000
0100
0010
0001
0010
0001
0100
0010
0000
0000
1000
0010
0100
0001
,  // measure 40
0010
0100
1000
0001
0100
0010
0100
0010
1000
0001
0100
0010
1000
0100
1000
0100
,  // measure 41
0010
0001
0010
0100
1000
0001
1000
0001
0100
0000
0001
0100
0010
1000
0100
0010
,  // measure 42
0001
0010
0100
1000
0010
0000
0000
0000
0101
0000
0000
1010
0000
0000
0010
0000
,  // measure 43
1000
0000
0001
0000
0010
0000
0100
0000
1100
0000
0000
0011
0000
0000
0001
0100
,  // measure 44
0000
0100
0010
0000
1000
0010
1000
0001
1000
0100
1000
0001
0010
0001
1000
0001
,  // measure 45
0100
0001
1000
0001
0010
0000
0100
1000
0001
0100
0010
0000
0110
0000
0000
0000
,  // measure 46
0010
0100
0010
0100
0001
0000
0010
0100
2000
0000
0000
0100
0000
0000
3100
0000
,  // measure 47
1000
0100
0010
0001
1000
0001
0100
0001
0010
0001
1000
0001
0100
0001
0010
0001
,  // measure 48
1000
0010
0100
0001
0010
0001
1000
0001
0100
0001
0010
0001
0100
0001
1000
0001
,  // measure 49
0010
0100
1000
0001
0100
0010
2000
0000
0010
0000
0000
3010
0000
0000
1010
0000
,  // measure 50
0100
0001
0010
0000
0021
0000
0001
0000
0001
0000
0130
0010
0000
0000
0010
0001
,  // measure 51
1000
0001
0100
0010
1000
0100
0010
0001
1000
0001
0100
0001
1000
0100
1000
0001
,  // measure 52
0100
0001
1000
0010
0100
0001
1000
0001
0010
0100
0010
0001
1000
0100
0010
0001
,  // measure 53
0100
0010
0100
0010
2000
0000
0000
0000
0000
0000
0000
0000
3010
0000
0000
1001
,  // measure 54
0000
0000
0100
0000
0000
1001
0000
0000
0110
0000
0000
0110
0000
0000
0000
0000
,  // measure 55
0001
0010
1000
0001
0100
1000
2002
0000
,  // measure 56
0000
0000
3003
1100
,  // measure 57
0110
0000
0000
0000
0011
0000
0000
0000
0001
0100
0010
1000
0001
0000
0000
0011
,  // measure 58
0000
0000
1010
0000
1001
0000
1000
0010
0000
0000
0011
0000
0101
0000
0000
1010
,  // measure 59
0000
0000
1100
0000
1001
0000
1000
0010
0100
0001
0010
0100
1000
0000
0000
1100
,  // measure 60
0000
0000
0101
0000
1001
0000
0001
0100
0000
0000
1100
0000
1010
0000
0000
0011
,  // measure 61
0000
0000
0101
0000
0110
0000
0000
0010
1000
0100
0010
0001
0100
0000
0000
1010
,  // measure 62
0000
0000
0011
0000
1100
0000
0010
0001
0000
0000
1010
0000
0110
0000
0000
0101
,  // measure 63
0000
0000
1001
0000
1200
0000
0000
0000
0310
0000
0001
0000
1001
0000
0000
1001
,  // measure 64
0000
0000
0001
0100
0010
1000
0001
0000
0100
0000
0010
0000
1000
0100
0010
0100
,  // measure 65
0010
0001
0100
0010
1000
0000
0100
0010
0001
0100
0010
1000
0002
0000
0100
0000
,  // measure 66
0100
0000
0000
0000
1003
0010
0100
0001
1000
0000
0000
0000
1100
0000
0000
0110
,  // measure 67
0000
0000
1100
0000
1000
0100
0010
0001
1000
0001
0010
0100
2000
0000
0000
0000
,  // measure 68
0000
0000
0000
0000
3001
0100
0010
1000
0001
0010
0100
1000
0010
0000
0000
0110
,  // measure 69
0000
0000
1010
0000
0001
0100
0001
1000
0001
0010
0001
1000
0010
0100
0010
0100
,  // measure 70
0001
0010
0100
1000
0001
0010
0001
0010
0100
1000
0001
0100
0010
1000
0010
1000
,  // measure 71
0001
0100
0001
1000
0100
0010
0100
0010
0001
1000
0100
0000
1000
0100
0010
0001
,  // measure 72
0100
0010
1000
0100
0010
0001
0100
0010
1000
0100
0010
0001
1000
0010
1000
0000
,  // measure 73
0001
0010
0001
0000
1000
0100
0010
0001
0100
0000
0210
0000
0000
0000
0000
0000
,  // measure 74
1300
0000
0000
0000
0100
0000
0000
0000
0001
0000
0000
0000
1000
0000
0000
0100
0000
0000
0001
0000
0000
0000
0000
0000
0000
0000
0000
0000
0000
0000
0000
0000
0000
0000
0000
0000
0000
0000
0000
0000
0000
0000
0000
0000
0000
0000
0000
0000
;

//---------------dance-single - ----------------
#NOTEDATA:;
#CHARTNAME:;
#STEPSTYPE:dance-single;
#DESCRIPTION:;
#CHARTSTYLE:;
#DIFFICULTY:Hard;
#METER:15;
#RADARVALUES:0.823025,0.892682,0.737929,0.551224,0.733483,648.000000,565.000000,83.000000,62.000000,0.000000,0.000000,0.000000,0.000000,0.000000,0.823025,0.892682,0.737929,0.551224,0.733483,648.000000,565.000000,83.000000,62.000000,0.000000,0.000000,0.000000,0.000000,0.000000;
#CREDIT:;
#NOTES:
// measure 0
0000
0000
0000
0000
,  // measure 1
0000
0000
0000
0000
,  // measure 2
0000
0000
0000
0000
,  // measure 3
0101
1010
0011
1100
,  // measure 4
1001
0010
1000
0001
,  // measure 5
1000
0001
0100
0001
1000
0001
0010
0001
,  // measure 6
1000
0010
1000
0001
1000
0100
1000
0001
,  // measure 7
0100
0001
0100
0000
0010
0100
0010
0000
1000
0010
1000
0000
0001
1000
0001
0000
,  // measure 8
1000
0100
0000
1000
0100
0000
0010
0001
0000
1000
0100
0000
1000
0010
0000
0000
,  // measure 9
1010
0000
0000
1010
0000
0000
0010
0000
0100
0000
0010
0000
1010
0000
0000
1010
,  // measure 10
0000
0000
0001
1000
0001
0000
0010
0000
0011
0000
0000
0011
0000
0000
0010
0000
,  // measure 11
0100
0000
0010
0000
0011
0000
0000
0011
0000
0000
1000
0000
0001
1000
0001
0000
,  // measure 12
0101
0000
0000
1010
0000
0000
0010
0000
1000
0000
0100
0000
1100
0000
0000
0011
,  // measure 13
0000
0000
1000
0001
1000
0000
0010
0000
1001
0000
0000
1001
0000
0000
1000
0000
,  // measure 14
0001
0100
0010
1000
0002
0000
0000
0000
1003
0100
1000
0000
0100
0010
0100
0000
,  // measure 15
0010
0001
0010
0000
0001
0100
0010
0000
0100
0010
1000
0000
0001
0010
0100
0000
,  // measure 16
1000
0010
0100
0001
2000
0000
0000
3200
0000
0000
0010
0000
1300
0000
1000
0200
,  // measure 17
0000
0000
0310
0000
0011
0000
0000
1001
0000
0000
1010
0000
1001
0000
0000
1100
,  // measure 18
0000
0000
1001
0000
0002
0000
0000
0203
0000
0000
0010
0000
0301
0000
0001
0200
,  // measure 19
0000
0000
0310
0000
1010
0000
0000
1001
0000
0000
0011
0000
2100
0000
0000
0002
,  // measure 20
0000
0000
3003
0000
2000
0000
0000
3020
0000
0000
0032
0000
0013
0000
1000
0200
,  // measure 21
0000
0000
0301
0000
0101
0000
0000
0110
0000
0000
1100
0000
0012
0000
0000
0000
,  // measure 22
1003
0000
0010
0000
1010
0000
0000
0110
0000
0000
0001
0000
0011
0000
0000
0110
,  // measure 23
0000
0000
2000
0000
3020
0000
0000
0032
0000
0000
2003
0000
3002
0000
0000
0023
,  // measure 24
0000
2030
3002
0000
0000
0000
2003
0000
,  // measure 25
3200
0302
0023
2030
,  // measure 26
0000
0000
0000
0000
3001
0000
0000
0000
1000
0100
1000
0000
0100
0010
0100
0000
,  // measure 27
0010
0001
0010
0000
0011
0000
0000
0000
0001
0100
0001
0000
0100
0010
0100
0000
,  // measure 28
0010
1000
0010
0000
1010
0000
0000
0000
0001
1000
0100
0000
1000
0001
0100
0000
,  // measure 29
0001
1000
0100
0000
0220
0000
0000
0000
0000
0000
0000
0000
0000
0000
0000
0000
,  // measure 30
0330
0000
0000
0000
0001
0000
0010
0000
0100
1000
0000
0100
1000
0000
0001
0100
,  // measure 31
0000
0001
0100
0000
0010
0000
1000
0000
0100
0010
0000
0010
0100
0000
1000
0001
,  // measure 32
0000
0001
1000
0000
0001
0000
1000
0010
0000
0010
0100
0000
0001
0010
0000
0010
,  // measure 33
0100
0000
1000
0000
0001
0000
0100
0000
0010
0100
0000
0100
0010
0000
0000
0010
,  // measure 34
0000
0000
1001
0000
1000
0000
0100
0000
0010
0001
0000
0000
1010
0000
0000
0011
,  // measure 35
0000
0000
1010
0000
0001
0000
0100
0000
0010
0000
1000
0000
0100
0010
0001
0000
,  // measure 36
0100
0010
1000
0000
0001
0000
0100
0000
0001
0000
1000
0000
0001
0010
0001
0000
,  // measure 37
1000
0010
1000
0000
0001
0000
0010
0000
0100
0000
1000
0000
0100
0010
0001
1000
,  // measure 38
0020
0130
0220
0000
,  // measure 39
0330
0000
0010
0100
0010
0000
1000
0000
0100
0010
0000
0000
0100
0010
0100
0000
,  // measure 40
1000
0000
0001
0000
1000
0010
0100
0000
0010
0000
0100
0000
0001
0010
0100
0000
,  // measure 41
0010
0000
0100
0000
1000
0100
1000
0000
0001
0100
0001
0000
1000
0100
1000
0100
,  // measure 42
0010
0001
1000
0100
0010
0000
0000
0000
0011
0000
0000
1001
0000
0000
1000
0000
,  // measure 43
0001
0000
0100
0000
0010
0000
1000
0000
1010
0000
0000
1001
0000
0000
1000
0100
,  // measure 44
0000
0010
0001
0000
1000
0010
1000
0000
0100
0000
0010
0000
0001
0010
0001
0000
,  // measure 45
0100
0000
0010
0000
1000
0000
0100
0010
0000
0010
0001
0000
2001
0000
0000
0000
,  // measure 46
0001
0000
3001
0000
0100
0000
0010
1000
0200
0000
0000
0010
0000
0000
0301
0000
,  // measure 47
0100
1000
0001
0100
1000
0001
0010
1000
,  // measure 48
0001
0100
0010
1000
0001
0000
0010
0000
1000
0000
0001
0000
0100
0000
1000
0000
,  // measure 49
0001
0010
0100
1000
0001
0000
0100
0000
0010
0000
0000
0020
0000
0000
0130
0000
,  // measure 50
0001
1000
0001
0000
0010
0000
0010
0000
0010
0000
0100
1000
0000
0000
1000
0100
,  // measure 51
0010
0000
0001
0000
1000
0010
1000
0000
0010
0100
0010
0000
0100
0001
0100
0000
,  // measure 52
0001
1000
0001
0000
1000
0100
0010
0000
0001
0100
0010
0000
1000
0100
0010
0001
,  // measure 53
0100
0010
1000
0000
2002
0000
0000
0000
3003
0000
0000
0000
1000
0000
0000
1010
,  // measure 54
0000
0000
0001
0000
0000
0011
0000
0000
1001
0000
0000
0110
0000
0000
0000
0000
,  // measure 55
0001
0010
0100
1000
0001
0100
0220
0000
,  // measure 56
0000
0000
0330
1010
,  // measure 57
1001
0000
0000
0000
0011
0000
0000
0000
0001
0010
0100
1000
0002
0000
0000
0203
,  // measure 58
0000
0000
0010
0000
0301
0000
0001
0200
0000
0000
1300
0000
1100
0000
0000
0101
,  // measure 59
0000
0000
0011
0000
1001
0000
0000
0101
0000
0000
1001
0000
2000
0000
0000
3200
,  // measure 60
0000
0000
0010
0000
1300
0000
1000
0200
0000
0000
0301
0000
0101
0000
0000
1100
,  // measure 61
0000
0000
0011
0000
2010
0000
0000
0002
0000
0000
3003
0000
0002
0000
0000
0023
,  // measure 62
0000
0000
2030
0000
3001
0000
0100
2000
0000
0000
3010
0000
1010
0000
0000
0110
,  // measure 63
0000
0000
0011
0000
2010
0000
0000
0000
3001
0000
0010
0000
0011
0000
0000
0110
,  // measure 64
0000
0000
1000
0000
1010
0000
0000
0110
0000
0000
0002
0000
0023
0000
0000
2030
,  // measure 65
0000
0000
3002
0000
2003
0000
0000
3020
0000
0000
0032
0000
2003
0000
0000
0000
,  // measure 66
0000
0000
0000
0000
3001
0100
0001
0100
0010
0000
0000
0000
1010
0000
0000
0101
,  // measure 67
0000
0000
1010
0000
1000
0100
1000
0100
0010
0001
0010
0001
2000
0000
0000
0000
,  // measure 68
0000
0000
0000
0000
3001
1000
0001
1000
0010
0100
0010
0100
0001
0000
0000
0110
,  // measure 69
0000
0000
1001
0000
1000
0010
1000
0000
0001
0010
0001
0000
1000
0000
0010
0100
,  // measure 70
0010
0000
0001
0000
0010
0100
0010
0000
1000
0010
1000
0000
0001
0000
0010
0100
,  // measure 71
0010
0000
1000
0000
0010
0100
0010
0000
0001
0010
0001
0000
1000
0000
0001
0100
,  // measure 72
0000
1000
0100
0000
0001
0010
0000
1000
0010
0000
0001
0000
1000
0001
0100
0000
,  // measure 73
0001
1000
0100
0000
0010
0001
0100
0010
1000
0000
2010
0000
0000
0000
0000
0000
,  // measure 74
3100
0000
0000
0000
0010
0000
0000
0000
0001
0000
0000
0000
1000
0000
0000
0100
0000
0000
0010
0000
0000
0000
0000
0000
0000
0000
0000
0000
0000
0000
0000
0000
0000
0000
0000
0000
0000
0000
0000
0000
0000
0000
0000
0000
0000
0000
0000
0000
;

//---------------dance-single - ----------------
#NOTEDATA:;
#CHARTNAME:;
#STEPSTYPE:dance-single;
#DESCRIPTION:;
#CHARTSTYLE:;
#DIFFICULTY:Medium;
#METER:12;
#RADARVALUES:0.617269,0.660135,0.720147,0.551224,0.257831,486.000000,405.000000,81.000000,62.000000,0.000000,0.000000,0.000000,0.000000,0.000000,0.617269,0.660135,0.720147,0.551224,0.257831,486.000000,405.000000,81.000000,62.000000,0.000000,0.000000,0.000000,0.000000,0.000000;
#CREDIT:;
#NOTES:
// measure 0
0000
0000
0000
0000
,  // measure 1
0000
0000
0000
0000
,  // measure 2
0000
0000
0000
0000
,  // measure 3
1001
0011
1001
1010
,  // measure 4
1001
0010
0001
1000
,  // measure 5
0001
0101
0000
1001
0000
0011
0000
1001
,  // measure 6
0000
0101
0000
1001
0001
0010
0100
1000
,  // measure 7
0001
0100
1000
0010
,  // measure 8
0001
0000
0000
0100
0000
0000
1000
0000
0000
0010
0000
0000
0001
0000
0000
0000
,  // measure 9
0101
0000
0000
0101
0000
0000
0010
0000
1000
0000
0000
0000
1010
0000
0000
1010
,  // measure 10
0000
0000
0100
0000
0001
0000
0000
0000
0011
0000
0000
0011
0000
0000
0100
0000
,  // measure 11
1000
0000
0000
0000
1100
0000
0000
1100
0000
0000
0010
0000
0001
0000
0000
0000
,  // measure 12
1001
0000
0000
0110
0000
0000
0001
0000
0001
0000
0000
0000
0110
0000
0000
1001
,  // measure 13
0000
0000
0010
0000
0010
0000
0000
0000
1001
0000
0000
0110
0000
0000
1000
0000
,  // measure 14
0001
1000
0200
0000
0300
0000
0100
0000
,  // measure 15
0000
0000
0100
0000
0100
0000
0100
0010
,  // measure 16
0001
0000
0100
0000
0110
0000
0000
1010
0000
0000
1000
0000
1010
0000
0000
0110
,  // measure 17
0000
0000
0100
0000
0120
0000
0000
2030
0000
0000
3002
0000
0023
0000
0000
0230
,  // measure 18
0000
0000
0310
0000
0110
0000
0000
0011
0000
0000
0001
0000
0011
0000
0000
0110
,  // measure 19
0000
0000
0100
0000
0120
0000
0000
0032
0000
0000
0203
0000
0320
0000
0000
2000
,  // measure 20
0000
0000
3030
0000
0101
0000
0000
1010
0000
0000
1000
0000
1100
0000
0000
0011
,  // measure 21
0000
0000
0002
0000
0203
0000
0000
2300
0000
0000
3200
0000
0302
0000
0000
0000
,  // measure 22
0000
0000
0000
0000
1003
0000
0000
1100
0000
0000
1000
0000
0001
0000
0000
0101
,  // measure 23
0000
0000
0001
0000
2000
0000
0000
3200
0000
0000
0302
0000
0203
0000
0000
0320
,  // measure 24
0000
0032
2003
0000
0000
0000
3002
0000
,  // measure 25
0203
0320
2030
3002
,  // measure 26
0000
0000
1003
0000
0001
0010
0001
1000
,  // measure 27
0001
0100
0101
0000
1000
0010
1000
0001
,  // measure 28
1000
0100
1100
0000
0001
0010
0100
1000
,  // measure 29
0001
0100
0220
0000
0000
0000
0000
0000
,  // measure 30
0330
0000
0000
0000
1000
0000
0010
0000
0000
0100
0000
0000
0001
0000
0000
0100
,  // measure 31
0000
0000
0001
0000
1000
0000
0100
0000
0000
0010
0000
0000
0001
0000
0000
0010
,  // measure 32
0000
0000
0001
0000
0100
0000
0010
0000
0000
1000
0000
0000
0100
0000
0000
0010
,  // measure 33
0000
0000
0001
0000
0100
0000
0010
0000
0000
0010
0000
0000
0110
0000
0000
0110
,  // measure 34
0000
0000
1001
0000
1000
0000
0100
0000
0001
0000
0000
0000
0100
0000
0000
0100
,  // measure 35
0000
0001
0100
1000
0001
0010
0001
1000
,  // measure 36
0001
0000
0100
0000
0010
0000
0100
0000
1000
0000
0000
0000
0100
0000
0000
0100
,  // measure 37
0000
1000
0100
0001
0010
0100
0010
0100
,  // measure 38
1000
1001
0020
0000
,  // measure 39
0030
1000
0010
1000
0001
0000
0001
0010
,  // measure 40
0001
1000
0001
0100
0001
0100
0010
1000
,  // measure 41
0010
1000
0001
0010
0100
1000
0001
1000
,  // measure 42
0100
0000
0010
0000
0001
0000
0000
0000
1000
0000
0000
1010
0000
0000
0000
0000
,  // measure 43
0001
0000
1000
0000
0100
0000
0010
0000
0001
0000
0000
0011
0000
0000
0000
0000
,  // measure 44
1000
1000
0001
0100
1000
0100
0001
0010
,  // measure 45
1000
0010
0001
0001
0100
0000
2002
0000
,  // measure 46
3003
0000
1000
0010
0002
0000
0013
0000
,  // measure 47
0001
0010
1000
0001
1000
0100
1000
0001
,  // measure 48
1000
0010
1000
0001
1000
0100
1000
0010
,  // measure 49
1000
0100
0001
0200
1000
0000
0010
0000
,  // measure 50
1300
0100
0002
0000
0103
0000
0001
0100
,  // measure 51
1000
0001
0100
0010
1000
0001
0010
0100
,  // measure 52
1000
0001
0100
0010
0100
0010
1000
0010
,  // measure 53
0001
0000
0010
0000
2000
0000
0000
0000
0000
0000
0000
0000
3001
0000
0000
0101
,  // measure 54
0000
0000
1000
0000
0000
1100
0000
0000
0110
0000
0000
0110
0000
0000
0000
0000
,  // measure 55
0001
0010
0100
1000
0001
0100
0020
0000
,  // measure 56
0000
0000
0030
1010
,  // measure 57
0110
0000
0000
0000
0101
0000
0000
0000
1000
0000
0100
0000
0110
0000
0000
0011
,  // measure 58
0000
0000
0001
0000
0101
0000
0000
0110
0000
0000
0010
0000
2010
0000
0000
3200
,  // measure 59
0000
0000
0320
0000
0032
0000
0000
0203
0000
0000
0310
0000
0110
0000
0000
1010
,  // measure 60
0000
0000
1000
0000
1100
0000
0000
0110
0000
0000
0010
0000
0012
0000
0000
0203
,  // measure 61
0000
0000
0320
0000
2030
0000
0000
0002
0000
0000
3003
0000
1100
0000
0000
0011
,  // measure 62
0000
0000
1000
0000
1010
0000
0000
0101
0000
0000
0002
0000
0023
0000
0000
2030
,  // measure 63
0000
0000
3020
0000
0032
0000
0000
0000
0000
0000
0000
0000
1003
0000
0000
1010
,  // measure 64
0000
0000
1000
0000
0001
0000
0000
0011
0000
0000
0001
0000
2000
0000
0000
3020
,  // measure 65
0000
0000
0032
0000
0023
0000
0000
0230
0000
0000
0302
0000
2003
0000
0000
0000
,  // measure 66
0000
0000
0000
0000
3001
0000
0010
0000
0100
0000
0000
0000
0011
0000
0000
1100
,  // measure 67
0000
0001
1000
0010
0100
0001
2000
0000
,  // measure 68
0000
0000
0000
0000
3001
0000
0010
0000
1000
0000
0010
0000
0001
0000
0000
0110
,  // measure 69
0000
1001
0001
0100
1000
0100
0001
0010
,  // measure 70
0001
0010
0100
1000
0001
0100
0010
1000
,  // measure 71
0010
0000
1000
0000
0100
0000
0010
0000
0001
0000
1000
0000
0001
0000
0000
0100
,  // measure 72
0000
0000
1000
0000
0000
0010
0000
0000
0001
0000
1000
0000
1001
0000
0000
0000
,  // measure 73
0110
0000
1000
0100
0010
0002
0000
0000
,  // measure 74
0103
1001
0000
0000
;

//---------------dance-single - ----------------
#NOTEDATA:;
#CHARTNAME:;
#STEPSTYPE:dance-single;
#DESCRIPTION:;
#CHARTSTYLE:;
#DIFFICULTY:Easy;
#METER:9;
#RADARVALUES:0.466127,0.495101,0.408973,0.266721,0.204486,367.000000,321.000000,46.000000,30.000000,0.000000,0.000000,0.000000,0.000000,0.000000,0.466127,0.495101,0.408973,0.266721,0.204486,367.000000,321.000000,46.000000,30.000000,0.000000,0.000000,0.000000,0.000000,0.000000;
#CREDIT:;
#NOTES:
// measure 0
0000
0000
0000
0000
,  // measure 1
0000
0000
0000
0000
,  // measure 2
0000
0000
0000
0000
,  // measure 3
1001
1001
0110
0110
,  // measure 4
1001
1000
0001
0001
,  // measure 5
1000
0100
0001
0100
,  // measure 6
1000
0100
0001
0100
,  // measure 7
1000
1000
0001
0001
,  // measure 8
0200
0000
0000
0300
,  // measure 9
0001
0000
0000
0001
0000
0000
0000
0000
0010
0000
0000
0000
1000
0000
0000
1000
,  // measure 10
0000
0000
0000
0000
0010
0000
0000
0000
0001
0000
0000
0001
0000
0000
0000
0000
,  // measure 11
0100
0000
0000
0000
1000
0000
0000
1000
0000
0000
0000
0000
0100
0000
0000
0000
,  // measure 12
1001
0000
0000
1001
0000
0000
0000
0000
0010
0000
0000
0000
1001
0000
0000
1001
,  // measure 13
0000
0000
0000
0000
0100
0000
0000
0000
1001
0000
0000
1001
0000
0000
0000
0000
,  // measure 14
0010
0220
0330
0001
,  // measure 15
0000
0001
0010
0100
,  // measure 16
1000
0000
0000
0000
0010
0000
0000
1010
0000
0000
0000
0000
1000
0000
0000
1010
,  // measure 17
0000
0000
0000
0000
0010
0000
0000
0010
0000
0000
1000
0000
0100
0000
0000
0100
,  // measure 18
0000
0000
0000
0000
0010
0000
0000
0011
0000
0000
0000
0000
0001
0000
0000
0011
,  // measure 19
0000
0000
0000
0000
0010
0000
0000
0010
0000
0000
0001
0000
0100
0000
0000
0100
,  // measure 20
0000
0000
0000
0000
0010
0000
0000
1001
0000
0000
0000
0000
0100
0000
0000
1001
,  // measure 21
0000
0000
0000
0000
1000
0000
0000
0100
0000
0000
0010
0000
0002
0000
0000
0000
,  // measure 22
0003
0000
0000
0000
1000
0000
0000
1000
0000
0000
0000
0000
0001
0000
0000
0001
,  // measure 23
0000
0000
0000
0000
1000
0000
0000
0010
0000
0000
0100
0000
0001
0000
0000
0010
,  // measure 24
0000
0100
2000
0000
0000
0000
3002
0000
,  // measure 25
0203
0320
2030
3002
,  // measure 26
0000
1003
0100
0010
,  // measure 27
0001
0010
0011
0000
0001
0000
0100
0000
,  // measure 28
0010
1010
0001
1000
,  // measure 29
0100
0010
0220
0000
0000
0000
0000
0000
,  // measure 30
0330
0000
0001
0010
0100
0000
0010
0000
,  // measure 31
0100
0000
1000
0010
0100
0000
0010
0000
,  // measure 32
0100
0000
0001
1000
0100
0000
0010
0000
,  // measure 33
0001
0000
0000
0000
1000
0000
0001
0000
0100
0000
0000
0000
0220
0000
0000
0300
,  // measure 34
0000
0030
1000
0010
1000
0000
0001
0000
,  // measure 35
0001
0000
1000
0100
0010
0000
0100
0010
,  // measure 36
0001
0000
1000
0001
0100
0000
0010
0000
,  // measure 37
0010
0000
0100
0001
0010
0000
0100
1000
,  // measure 38
0010
1001
0200
0000
,  // measure 39
0300
0000
1000
0100
1000
0000
0001
0100
,  // measure 40
0001
0000
0010
0001
1000
0000
0010
1000
,  // measure 41
0001
0000
1000
0000
0100
0000
0010
0001
,  // measure 42
0100
0000
0010
0000
1000
0000
0000
0000
0010
0000
0000
0010
0000
0000
0000
0000
,  // measure 43
1000
0000
0001
0000
1000
0000
0000
0000
0100
0000
0000
0100
0000
0000
0000
0000
,  // measure 44
1000
0000
0001
0010
0100
0000
1000
0010
,  // measure 45
0100
0000
0001
1000
0001
0000
2002
0000
,  // measure 46
3003
0000
1000
0100
0020
0000
0130
0000
,  // measure 47
0010
0001
0100
0000
0001
0100
1000
0000
,  // measure 48
1000
0100
0001
0000
0100
0001
0010
0000
,  // measure 49
0001
0010
2000
0000
3010
0000
1000
0010
,  // measure 50
0001
0000
0022
0000
0033
0000
0010
0001
,  // measure 51
0100
0000
0010
1000
0100
0000
0010
0001
,  // measure 52
0100
0000
1000
0100
0001
0000
1000
0100
,  // measure 53
0001
0000
0000
0000
0220
0000
0000
0000
0330
0000
0000
0000
1000
0000
0000
1000
,  // measure 54
0000
0000
0001
0000
0000
0001
0000
0000
1001
0000
0000
1001
0000
0000
0000
0000
,  // measure 55
0001
0100
0010
2002
,  // measure 56
0000
0000
3003
1100
,  // measure 57
0110
0000
0000
0000
0011
0000
0000
0000
0001
0000
0100
0000
0010
0000
0000
0101
,  // measure 58
0000
0000
0000
0000
0100
0000
0000
1010
0000
0000
0000
0000
0010
0000
0000
0010
,  // measure 59
0000
0000
1000
0000
0100
0000
0000
0100
0000
0000
0000
0000
0010
0000
0000
1100
,  // measure 60
0000
0000
0000
0000
0100
0000
0000
0011
0000
0000
0000
0000
0010
0000
0000
0010
,  // measure 61
0000
0000
0001
0000
0100
0000
0000
0100
0000
0000
0000
0000
0001
0000
0000
0011
,  // measure 62
0000
0000
0000
0000
1000
0000
0000
1010
0000
0000
0000
0000
0001
0000
0000
0010
,  // measure 63
0000
0000
0100
0000
2000
0000
0000
0000
3000
0000
0000
0000
0001
0000
0000
0001
,  // measure 64
0000
0000
0000
0000
1000
0000
0000
1000
0000
0000
0000
0000
0001
0000
0000
0100
,  // measure 65
0000
0000
0010
0000
1000
0000
0000
0100
0000
0000
0010
0000
0002
0000
0000
0000
,  // measure 66
0000
0000
0000
0000
0103
0000
0001
0000
0100
0000
0000
0000
1001
0000
0000
1001
,  // measure 67
0000
0000
0100
1000
0100
0000
2002
0000
,  // measure 68
3003
0000
0000
0000
0010
0000
1000
0000
0010
0000
0000
0000
1001
0000
0000
1001
,  // measure 69
0000
0000
0010
0001
0010
0000
0001
0100
,  // measure 70
0010
1000
0010
1000
0001
0000
1000
0100
,  // measure 71
0010
0000
0001
0000
0010
0000
0001
0000
1000
0000
0000
0000
0001
0000
0000
0100
,  // measure 72
0000
0000
0010
0000
0000
1000
0000
0000
0001
0000
0000
0000
1001
0000
0000
0000
,  // measure 73
0110
0000
1000
0001
1000
0200
0000
0000
,  // measure 74
0310
1001
0000
0000
;

//---------------dance-single - ----------------
#NOTEDATA:;
#CHARTNAME:;
#STEPSTYPE:dance-single;
#DESCRIPTION:;
#CHARTSTYLE:;
#DIFFICULTY:Beginner;
#METER:7;
#RADARVALUES:0.361979,0.495101,0.382300,0.515661,0.000000,285.000000,242.000000,43.000000,58.000000,0.000000,0.000000,0.000000,0.000000,0.000000,0.361979,0.495101,0.382300,0.515661,0.000000,285.000000,242.000000,43.000000,58.000000,0.000000,0.000000,0.000000,0.000000,0.000000;
#CREDIT:;
#OFFSET:-0.047283;
#BPMS:0.000000=168.000000
,97.000000=160.000000
,219.000000=168.000000
,294.000000=140.000000
;
#STOPS:;
#DELAYS:;
#WARPS:;
#TIMESIGNATURES:0.000000=4=4
;
#TICKCOUNTS:0.000000=4
;
#COMBOS:0.000000=1
;
#SPEEDS:0.000000=1.000000=0.000000=0
;
#SCROLLS:0.000000=1.000000
,97.000000=1.050000
,219.000000=1.000000
,294.000000=1.200000
;
#FAKES:;
#LABELS:0.000000=Song Start
;
#NOTES:
// measure 0
0000
0000
0000
0000
,  // measure 1
0000
0000
0000
0000
,  // measure 2
0000
0000
0000
0000
,  // measure 3
1000
1000
0001
0001
,  // measure 4
1000
0010
1000
0001
,  // measure 5
0010
0010
0100
0100
,  // measure 6
1000
1000
0001
0001
,  // measure 7
0100
0010
0100
0010
,  // measure 8
0200
0000
0000
0300
,  // measure 9
0001
0001
0010
1000
,  // measure 10
1000
0010
0001
0001
,  // measure 11
0100
1000
1000
0100
,  // measure 12
0101
0101
0010
1100
,  // measure 13
1100
0010
1001
1001
,  // measure 14
0100
2002
3003
1000
,  // measure 15
0000
1000
0100
0010
,  // measure 16
0001
0202
0303
0202
,  // measure 17
0303
1000
0010
0100
,  // measure 18
0001
2200
3300
2200
,  // measure 19
3300
0001
0010
0100
,  // measure 20
1000
2002
3003
0220
,  // measure 21
0330
1001
0110
2002
,  // measure 22
3003
1000
1000
0001
,  // measure 23
0001
1000
0010
0001
,  // measure 24
0100
2000
0000
3002
,  // measure 25
0203
0320
2030
3002
,  // measure 26
0000
1003
0100
1000
,  // measure 27
0100
0001
0100
0001
,  // measure 28
0100
1000
0010
1000
,  // measure 29
0010
0002
0000
0000
,  // measure 30
0003
0010
0010
1000
,  // measure 31
1000
0100
0100
0010
,  // measure 32
0010
0001
0001
0100
,  // measure 33
0100
0010
1000
2002
,  // measure 34
3003
1000
0100
0010
,  // measure 35
0001
1000
0100
0001
,  // measure 36
0100
1000
0010
0100
,  // measure 37
0001
1000
0010
0001
,  // measure 38
0010
1000
0002
0000
,  // measure 39
0003
1000
1000
0001
,  // measure 40
0001
1000
0100
0010
,  // measure 41
0001
0100
0010
1000
,  // measure 42
0001
0010
0100
0220
,  // measure 43
0330
1000
0001
2002
,  // measure 44
3003
1000
0010
0001
,  // measure 45
0010
1000
0100
0022
,  // measure 46
0033
2002
3003
0010
,  // measure 47
1000
0001
1000
0100
,  // measure 48
1000
0001
1000
0010
,  // measure 49
1000
0200
0300
0100
,  // measure 50
0010
2002
3003
0001
,  // measure 51
0100
0010
1000
0100
,  // measure 52
0010
0001
0100
0010
,  // measure 53
1000
2002
3003
1000
,  // measure 54
0000
0001
0000
0000
0110
0000
0000
0000
,  // measure 55
1000
0100
0010
0002
,  // measure 56
0000
0000
0003
0001
,  // measure 57
0100
0010
1000
2200
,  // measure 58
3300
0022
0033
0001
,  // measure 59
0010
0100
1000
0202
,  // measure 60
0303
2020
3030
1000
,  // measure 61
0010
0100
0001
2002
,  // measure 62
3003
0220
0330
1001
,  // measure 63
0110
2002
3003
0001
,  // measure 64
0001
1000
1000
0001
,  // measure 65
0010
1000
0100
0002
,  // measure 66
0000
0013
0010
1001
,  // measure 67
0000
1000
0010
2001
,  // measure 68
0000
3100
0100
1001
,  // measure 69
0000
0001
0100
1001
,  // measure 70
0010
1000
0100
1001
,  // measure 71
0010
0001
0100
1010
,  // measure 72
1010
0011
0011
1000
,  // measure 73
0100
0000
0010
0000
0000
0002
0000
0000
,  // measure 74
1003
1001
0000
0000
;
