#VERSION:0.83;
#TITLE:曼珠沙華;
#SUBTITLE:;
#ARTIST:96;
#TITLETRANSLIT:Manjushage;
#SUBTITLETRANSLIT:;
#ARTISTTRANSLIT:;
#GENRE:Melancholic Rock;
#ORIGIN:;
#CREDIT:;
#BANNER:Manjushage.png;
#BACKGROUND:Manjushage-bg.png;
#PREVIEWVID:;
#JACKET:Manjushage-jacket.png;
#CDIMAGE:;
#DISCIMAGE:;
#LYRICSPATH:;
#CDTITLE:cdtitle.png;
#MUSIC:Manjushage.ogg;
#OFFSET:-1.172000;
#SAMPLESTART:56.556999;
#SAMPLELENGTH:13.187000;
#SELECTABLE:YES;
#DISPLAYBPM:182.000000;
#BPMS:0.000=91.000,
12.000=182.000;
#STOPS:;
#DELAYS:;
#WARPS:;
#TIMESIGNATURES:0.000=4=4;
#TICKCOUNTS:0.000=4;
#COMBOS:0.000=1;
#SPEEDS:0.000=1.000=0.000=0;
#SCROLLS:0.000=1.000;
#FAKES:;
#LABELS:0.000=Song Start;
#BGCHANGES:;
#KEYSOUNDS:;
#ATTACKS:
;

//---------------dance-single - ----------------
#NOTEDATA:;
#CHARTNAME:;
#STEPSTYPE:dance-single;
#DESCRIPTION:;
#CHARTSTYLE:;
#DIFFICULTY:Beginner;
#METER:3;
#RADARVALUES:0.151447,0.244830,0.052138,0.191171,0.000000,122.000000,116.000000,6.000000,22.000000,0.000000,0.000000,0.000000,0.000000,0.000000,0.151447,0.244830,0.052138,0.191171,0.000000,122.000000,116.000000,6.000000,22.000000,0.000000,0.000000,0.000000,0.000000,0.000000;
#CREDIT:;
#OFFSET:-1.172000;
#BPMS:0.000000=182.000000
;
#STOPS:;
#DELAYS:;
#WARPS:;
#TIMESIGNATURES:0.000000=4=4
;
#TICKCOUNTS:0.000000=4
;
#COMBOS:0.000000=1
;
#SPEEDS:0.000000=1.000000=0.000000=0
;
#SCROLLS:0.000000=1.000000
;
#FAKES:;
#LABELS:0.000000=Song Start
;
#DISPLAYBPM:182.000000;
#NOTES:
0000
0000
0000
0000
,
0000
0000
0000
0000
,
0000
0000
0000
0000
,
0000
0000
0000
0000
,
0000
0000
0000
0000
,
0000
0000
0000
0000
,
1000
0000
0001
0000
,
1000
0000
0000
0000
,
0001
0000
1000
0000
,
0001
0000
0000
0000
,
0000
1000
1000
0000
,
0010
0000
1000
0000
,
0000
1000
1000
0000
,
0100
0000
1000
0000
,
0002
0000
0000
0000
,
0003
0000
0000
0000
,
1000
0000
1000
0000
,
0010
0000
0100
0000
,
0000
0001
0001
0000
,
0010
0000
0001
0000
,
0000
0001
0001
0000
,
0100
0000
0001
0000
,
2000
0000
0000
0000
,
3000
0000
0000
0000
,
0001
0000
0001
0000
,
0010
0000
0100
0000
,
2000
0000
3000
0000
,
0002
0000
0003
0000
,
0000
0100
0100
0000
,
0020
0000
0030
0000
,
1000
0000
0100
0000
,
0010
0000
0010
0000
,
0002
0000
0003
0000
,
0200
0000
0300
0000
,
0002
0000
0003
0000
,
2000
0000
3000
0000
,
0000
0100
0100
0000
,
0020
0000
0030
0000
,
0001
0000
0000
0000
,
1000
0000
0000
0000
,
1001
0000
0000
0000
,
0000
0000
0000
0000
,
0001
0000
0010
0000
,
0001
0000
0010
0000
,
0000
0100
0100
0000
,
1000
0000
0001
0000
,
1000
0000
0010
0000
,
1000
0000
0010
0000
,
0000
0100
0100
0000
,
0001
0000
1000
0000
,
0000
0100
0100
0000
,
0010
0000
0100
0000
,
2002
0000
0000
3003
,
0000
0000
0000
0000
,
0220
0000
0000
0330
,
0000
0000
0000
0000
,
0010
0000
0000
2002
,
0000
0000
3003
0000
,
0100
0000
0000
2002
,
0000
0000
3003
0000
,
0001
1000
0000
0000
,
0001
0000
0000
0000
,
0010
0000
0000
0000
,
0100
0000
1000
0000
,
0001
0000
0000
0000
,
1000
0000
0000
0000
,
0010
0000
0000
0000
,
0100
0000
0001
0000
,
2000
0000
3000
0000
,
0001
0001
0001
0000
,
1000
1000
1000
0000
,
0100
0000
0010
0000
,
0002
0000
0003
0000
,
1000
1000
1000
0000
,
0001
0001
0001
0000
,
0100
0000
0010
0000
,
1000
0000
0001
0000
,
0010
0000
0100
0000
,
0010
0010
0010
0000
,
2002
0000
3003
0000
,
0000
1000
0001
0000
;

//---------------dance-single - ----------------
#NOTEDATA:;
#CHARTNAME:;
#STEPSTYPE:dance-single;
#DESCRIPTION:;
#CHARTSTYLE:;
#DIFFICULTY:Easy;
#METER:6;
#RADARVALUES:0.240826,0.303050,0.130344,0.373653,0.000000,194.000000,179.000000,15.000000,43.000000,0.000000,0.000000,0.000000,0.000000,0.000000,0.240826,0.303050,0.130344,0.373653,0.000000,194.000000,179.000000,15.000000,43.000000,0.000000,0.000000,0.000000,0.000000,0.000000;
#CREDIT:;
#DISPLAYBPM:182.000000;
#NOTES:
0000
0000
0000
0000
,
0000
0000
0000
0000
,
0000
0000
0000
0000
,
1000
0010
1000
0000
,
0010
0000
1000
0000
,
0001
0010
0001
0000
,
0010
0000
0001
0000
,
1000
0010
1000
0010
,
0100
0000
0002
0000
,
1003
0100
1000
0100
,
0010
0000
0002
0000
,
2000
0000
0000
0000
,
0000
0000
3003
0000
,
0001
0000
0100
0000
,
0010
0000
1000
0000
,
0001
0010
0001
0010
,
0100
0000
2000
0000
,
3001
0100
0001
0100
,
0010
0000
2000
0000
,
0002
0000
0000
0000
,
0000
0000
3003
0000
,
1000
0000
0100
0000
,
0010
0000
0001
0000
,
2000
0000
3010
0000
,
0200
0000
0301
0001
,
0000
1000
1000
0000
,
1001
0000
1000
0100
,
0010
0001
0010
0000
,
0002
0000
0103
0010
,
2000
0000
3000
0000
,
0002
0000
0003
0010
,
0002
0000
0013
0000
,
0200
0000
1300
1000
,
0000
0001
0001
0000
,
1001
0000
0001
0100
,
0010
0000
0000
0020
0000
0000
0030
0000
,
0100
0000
0000
0200
0000
0000
0300
0000
,
1001
0000
0000
0100
0000
0000
0000
0010
,
0000
0000
0100
0000
,
1002
0000
0003
0020
0000
0030
0000
0002
,
0000
0003
0000
0200
0000
0300
0001
0000
,
0001
0010
0001
0000
,
1000
0000
0000
2000
0000
0000
3000
0000
,
2001
0000
3000
0020
0000
0030
0000
2000
,
0000
3000
0000
0200
0000
0300
1000
0000
,
1000
0010
1000
0000
,
0001
0000
0000
0002
0000
0000
0003
0000
,
1000
0100
0010
0001
,
0200
0000
0310
1000
,
0001
0000
0000
0001
0000
0000
0022
0000
,
0000
0000
0033
0000
,
1000
0000
0000
1000
0000
0000
2020
0000
,
0000
0000
3030
0000
,
1000
0000
0000
0100
0000
0000
2002
0000
,
0000
0000
3003
0000
,
0001
0000
0000
0100
0000
0000
0000
2002
,
0000
0000
3003
0000
,
1001
1001
0000
0000
,
0001
0010
0100
0000
,
0010
0100
1000
0000
,
0001
1000
0001
0000
,
1000
0000
0001
0000
,
1000
0010
0100
0000
,
0010
0100
0001
0000
,
1000
0001
1000
0000
,
2002
0000
3003
0000
,
0001
0010
0100
1000
,
0001
0010
0100
1000
,
0002
0000
2003
0000
,
3010
1000
0200
0000
,
0310
0001
0200
0000
,
0301
1000
0100
0000
,
1000
0010
0100
0001
,
2000
0000
0001
3001
,
1000
0100
0010
0001
,
0010
0100
1000
0000
,
2002
0000
0000
0000
,
3003
1001
1001
0000
;

//---------------dance-single - ----------------
#NOTEDATA:;
#CHARTNAME:;
#STEPSTYPE:dance-single;
#DESCRIPTION:;
#CHARTSTYLE:;
#DIFFICULTY:Medium;
#METER:10;
#RADARVALUES:0.436963,0.471411,0.225930,0.582204,0.000000,352.000000,326.000000,26.000000,67.000000,0.000000,0.000000,0.000000,0.000000,0.000000,0.436963,0.471411,0.225930,0.582204,0.000000,352.000000,326.000000,26.000000,67.000000,0.000000,0.000000,0.000000,0.000000,0.000000;
#CREDIT:;
#DISPLAYBPM:182.000000;
#NOTES:
0000
0000
0000
0000
,
0000
0000
0000
0000
,
0000
0000
0000
0000
,
1000
0000
0010
0000
1000
0001
0000
0010
,
0000
0001
0010
0000
0100
0000
0010
0000
,
0001
0000
0100
0000
0001
1000
0000
0100
,
0000
1000
0100
0000
1000
0001
0100
0000
,
0010
1000
0010
0000
1000
0000
0001
0000
,
1000
0000
0100
0000
0010
0000
0100
1000
,
0000
0100
1000
0000
0001
0000
1000
0000
,
0010
0000
0100
0000
0001
0000
0010
0100
,
0000
1000
0002
0000
0203
0000
0320
0000
,
0230
0000
0000
0302
0000
0000
2003
0000
,
3100
0020
0032
2003
,
3020
0000
0230
0000
0301
1000
0100
0000
,
0010
0001
0010
0000
0001
0000
1000
0000
,
0001
0000
0100
0000
0010
0000
0100
0001
,
0000
0100
0001
0000
1000
0000
0001
0000
,
0010
0000
0100
0000
1000
0000
0010
0100
,
0000
0001
2000
0000
3200
0000
0320
0000
,
0230
0000
0000
2300
0000
0000
3002
0000
,
0103
0020
2030
3002
,
0023
0000
0230
0000
1300
0001
0100
0000
,
0220
0000
0330
0000
0010
0000
1000
0001
,
0000
1000
0100
0000
0010
0000
0100
0000
,
1000
0000
0001
0000
0100
0000
0001
0010
,
0000
0001
0100
0000
0010
1000
0010
0000
,
1000
0000
0100
0000
0010
0000
0001
0100
,
0000
0010
0000
1000
0001
0000
1001
0000
,
0022
0000
0033
0000
0001
0000
0000
1001
,
0000
2020
0000
3030
0001
0000
0010
0000
,
0220
0000
0330
0000
0010
0000
0001
1000
,
0000
0001
0100
0000
0010
0000
0100
0000
,
0001
0000
1000
0000
0100
0000
1000
0010
,
0000
1000
0100
0000
0010
0001
0010
0000
,
0011
0000
0000
1002
0000
0103
0000
0000
,
1010
0000
0000
2001
0000
3100
0000
0000
,
1001
0000
0001
0100
0000
0010
0000
1000
,
0000
0100
0000
0010
0001
0000
0000
0000
,
1000
0000
0010
0200
0000
0301
1000
0002
,
0000
0013
0100
0020
0000
0130
1000
0000
,
0000
0000
0001
0100
0020
0000
2030
0000
,
3002
0000
0000
2000
0000
0000
3003
0000
,
0001
0000
0010
0200
0000
1300
0001
2000
,
0000
3010
0100
0020
0000
0130
0001
0000
,
0000
0000
1000
0100
0020
0000
0032
0000
,
2003
0000
0000
0002
0000
0000
3003
0000
,
0000
0000
0001
0100
0010
0000
0100
0000
,
0220
0000
0330
0000
1000
0100
0010
0000
,
0011
0000
0000
1001
0000
0000
0202
0000
,
0303
0000
0100
0000
0001
0100
0010
0000
,
1010
0000
0000
1001
0000
0000
2200
0000
,
3300
0000
0100
0000
1000
0100
0010
0000
,
0011
0000
1000
0001
0000
1000
0020
0000
,
0000
0000
0130
0000
0010
0100
0010
0000
,
1010
0000
0001
1000
0000
0001
0010
0200
,
0000
0010
0010
0310
,
0100
0010
0100
0010
0000
0000
0000
0000
,
0001
0001
0100
0100
,
0010
0010
1000
1000
,
0001
0010
0100
1000
,
0001
0000
1000
0010
0000
0100
0001
0000
,
1000
1000
0100
0100
,
0010
0010
0001
0001
,
1000
0010
0100
0001
,
1001
0000
0000
1001
0000
0000
1000
0001
,
2000
0000
3001
0010
0002
0000
1003
0010
,
2000
0000
3001
0010
0002
0000
1003
0010
,
0200
0302
2003
3200
,
0310
0001
0010
0002
0000
1003
0010
0000
,
0220
0000
0330
0000
0010
0100
0001
0000
,
0010
0100
1000
0000
0001
1000
0001
0000
,
1000
0000
1000
0000
0010
0100
0001
0000
,
0002
0000
0013
0100
1000
0000
1000
0000
,
0001
0100
0010
0000
1000
0100
0010
0000
,
0001
1000
0001
1000
0002
0000
0103
0000
,
1010
0000
0000
0011
0000
0000
1001
0000
,
0000
1000
0010
0100
0001
0000
0000
0000
;

//---------------dance-single - ----------------
#NOTEDATA:;
#CHARTNAME:;
#STEPSTYPE:dance-single;
#DESCRIPTION:;
#CHARTSTYLE:;
#DIFFICULTY:Hard;
#METER:13;
#RADARVALUES:0.611997,0.606100,0.338895,0.842892,0.026069,493.000000,454.000000,39.000000,97.000000,0.000000,0.000000,0.000000,0.000000,0.000000,0.611997,0.606100,0.338895,0.842892,0.026069,493.000000,454.000000,39.000000,97.000000,0.000000,0.000000,0.000000,0.000000,0.000000;
#CREDIT:;
#DISPLAYBPM:182.000000;
#NOTES:
0000
0000
0000
0000
,
0000
0000
0000
0000
,
0000
0000
0000
0000
,
1000
0010
1010
0000
0001
0001
0010
0100
,
0000
1000
1001
0000
0001
0100
0010
1000
,
0001
0010
0011
0000
1000
1000
0010
0100
,
0000
0001
1001
0000
0001
0010
0100
1000
,
0001
0100
0020
0000
0230
0000
2300
0000
,
3200
0000
0320
0000
0130
0001
1000
0002
,
0000
0013
0200
0000
0320
0000
2030
0000
,
3020
0000
0230
0000
0310
0001
1000
0020
,
0000
0000
0130
0010
0200
0000
0000
0000
0010
0000
0000
0000
0302
0000
0000
0000
,
1003
0001
0010
0200
0000
0310
0110
0000
,
2000
0100
3020
0100
,
1030
0100
0010
0100
1000
0010
0100
0001
,
1000
0100
0020
0000
0230
0000
0302
0000
,
0203
0000
0320
0000
0130
1000
0001
2000
,
0000
3010
0200
0000
0320
0000
0032
0000
,
0023
0000
0230
0000
0310
1000
0001
0020
,
0000
0000
0130
0010
0200
0000
0000
0000
0010
0000
0000
0000
2300
0000
0000
0000
,
3001
1000
0010
0200
0000
0310
0110
0000
,
0002
0100
0023
0100
,
0031
0100
0010
0100
0001
0010
0100
1000
,
0002
0000
1000
0000
0103
0010
0100
2000
,
0000
3100
0010
0000
0100
0001
1000
0001
,
0010
0000
0001
0001
0010
0100
0010
2000
,
0000
3010
0100
0000
0010
0001
1000
0001
,
0200
0000
0000
0320
0000
0000
0130
0000
0001
0000
0001
0000
1000
0000
0200
0000
,
0000
0320
0000
0130
1000
1000
0001
0000
,
2002
0000
3003
0000
0001
0100
0010
1010
,
0000
1100
0000
0001
1000
0010
0100
0001
,
2000
0000
0001
0000
3100
0010
0100
0002
,
0000
0103
0010
0000
0100
1000
0001
1000
,
0010
0000
1000
1000
0010
0100
0010
0002
,
0000
0013
0100
0010
1000
0001
1000
0100
,
0010
0001
0010
0012
0000
0103
0000
0100
,
0010
1000
0010
2010
0000
3100
0000
1000
,
1100
0000
0001
0101
0000
1000
0000
1001
,
0000
0110
0000
1001
1001
0000
0000
0000
,
1000
0100
0010
0021
0000
0031
0100
0201
,
0000
0301
1000
2001
0000
3100
0110
0000
,
1000
0010
0100
0010
0002
0000
2003
0000
,
3200
0000
0001
0302
0000
0013
0100
1000
,
0001
0100
0010
1020
0000
1030
0100
1200
,
0000
1300
0001
1002
0000
0103
0110
0000
,
0001
0010
0100
0010
2000
0000
3002
0000
,
0203
0000
1000
2300
0000
3100
0010
0001
,
1000
0010
0001
0010
2000
0000
3001
0000
,
2002
0000
3003
0000
0001
0010
1000
0010
,
0002
0000
1003
2100
0000
3001
0012
0000
,
0000
1000
1003
0100
0010
0001
0100
0010
,
2000
0000
3001
0102
0000
1003
2010
0000
,
0000
0001
3001
0100
0010
1000
0100
0010
,
0120
0000
0000
0000
0031
0000
2001
0000
0000
0000
3010
0100
0020
0000
0000
0000
,
0000
1000
1030
0100
0010
0001
1000
0010
,
0120
0000
0000
0000
1030
0000
1002
0000
0000
0000
0013
0100
0010
0000
0200
0000
,
0000
1300
0010
0100
0001
0010
0100
1000
,
0001
0001
0001
0002
0000
0000
0003
0000
,
1000
0010
1000
0020
0000
0130
0001
2000
,
0000
3001
0010
0200
0000
1300
0001
0000
,
1000
0010
0100
0001
0020
0000
0230
0000
,
2300
0000
3001
0200
0000
0310
1000
0000
,
0001
0010
0001
0020
0000
0130
1000
0002
,
0000
1003
0010
0200
0000
0301
1000
0000
,
0001
0010
0001
1000
0020
0000
1030
0000
,
1002
0000
0013
2001
0000
3010
0100
0001
,
1000
0100
0010
0100
0001
0100
0010
0100
,
1000
0100
0010
0100
0001
0100
0010
0100
,
1000
0010
1000
0010
0001
0010
0001
0010
,
1000
0001
0100
0020
0000
1030
1001
0000
,
0001
0020
0000
1030
0010
0001
1000
0001
,
0100
0001
0100
1000
0100
0001
1000
0000
,
0001
0010
0100
1000
0001
0010
0100
1000
,
0020
0000
1030
0010
0100
0001
0010
0100
,
1000
0010
0001
0010
1000
0100
0001
0100
,
1000
0010
0001
0010
0200
0000
0310
1000
,
2010
0000
0000
0000
3001
0000
0012
0000
0000
0000
1003
0001
1000
0000
0010
0000
,
0000
0100
0100
0100
0100
0000
0000
0000
;

//---------------dance-single - ----------------
#NOTEDATA:;
#CHARTNAME:;
#STEPSTYPE:dance-single;
#DESCRIPTION:;
#CHARTSTYLE:;
#DIFFICULTY:Challenge;
#METER:17;
#RADARVALUES:0.881374,1.077511,0.312826,0.625652,0.734272,710.000000,674.000000,36.000000,72.000000,0.000000,0.000000,0.000000,0.000000,0.000000,0.881374,1.077511,0.312826,0.625652,0.734272,710.000000,674.000000,36.000000,72.000000,0.000000,0.000000,0.000000,0.000000,0.000000;
#CREDIT:;
#DISPLAYBPM:182.000000;
#NOTES:
// measure 0
0000
0000
0000
0000
,  // measure 1
0000
0000
0000
0000
,  // measure 2
0000
0000
0000
0000
,  // measure 3
0001
0000
0010
0000
0011
0000
0000
0000
0001
0000
0001
0000
0010
0000
0100
1000
,  // measure 4
0001
1000
0010
0000
0110
0000
0000
0000
0001
0000
0001
0000
1000
0100
0010
0001
,  // measure 5
1000
0000
0010
0000
1010
0000
0000
0000
1000
0000
1000
0000
0010
0000
0100
0001
,  // measure 6
1000
0001
0010
0000
0110
0000
0000
0000
1000
0000
0001
0010
0100
1000
0010
0100
,  // measure 7
0001
0100
0010
0100
1000
0100
0010
0100
,  // measure 8
0001
0000
1000
0000
0010
0000
1000
0000
0100
0000
0010
0000
0001
0010
0002
0000
,  // measure 9
0000
0013
0100
0010
1000
0010
0100
0010
,  // measure 10
0001
0000
1000
0000
0100
0000
1000
0000
0010
0000
0100
0000
0001
1000
0002
0000
,  // measure 11
0000
0000
0013
0100
2000
0000
0100
0000
3002
0000
0010
0000
1003
0000
0100
1000
,  // measure 12
0001
1000
0010
0000
0100
0002
1000
0000
0000
0000
0013
0000
0001
0010
0100
1000
,  // measure 13
0001
0000
0200
0000
0010
0000
0302
0000
1000
0000
0013
0000
0100
0000
0010
0001
,  // measure 14
1000
0001
0100
0000
0100
0000
0010
1000
0001
0000
1000
0100
0010
0001
0100
0010
,  // measure 15
1000
0100
0010
0100
0001
0100
0010
0100
,  // measure 16
1000
0000
0001
0000
0010
0000
0001
0000
0100
0000
0010
0000
1000
0010
2000
0000
,  // measure 17
0000
3010
0100
0010
0001
0010
0100
0010
,  // measure 18
1000
0000
0001
0000
0100
0000
0001
0000
0010
0000
0100
0000
1000
0001
2000
0000
,  // measure 19
0000
0000
3010
0100
0002
0000
0100
0000
2003
0000
0010
0000
3001
0000
0100
0001
,  // measure 20
1000
0001
0010
0000
0100
2000
0001
0000
0000
0000
3010
0000
1000
0010
0100
0001
,  // measure 21
1000
0000
0200
0000
0010
0000
2300
0000
0001
0000
3010
0000
0100
0000
0010
1000
,  // measure 22
0001
1000
0100
0000
0100
0000
0010
0001
1000
0000
0001
0100
0010
1000
0100
0010
,  // measure 23
0002
0000
1000
0000
0103
0010
0100
2000
,  // measure 24
0000
0000
3100
0000
0010
0000
1000
0001
1000
0000
0100
0000
0010
0001
1000
0010
,  // measure 25
0100
0000
0001
0001
1000
0100
0010
2000
,  // measure 26
0000
0000
3001
0000
0100
0000
0010
0001
0010
0000
0001
0000
1000
0001
0100
0010
,  // measure 27
2000
0000
0000
0001
0000
0000
3100
0000
0010
0000
0001
0000
1000
0000
0020
0000
,  // measure 28
0000
0000
1000
0000
0000
0000
0130
0001
1000
0000
0100
0000
0010
0001
1000
0001
,  // measure 29
0200
0000
0000
0000
0310
0000
1000
0001
1000
0000
0100
0000
0010
0000
0011
0000
,  // measure 30
0000
0000
0101
0000
0000
0000
1000
0010
1000
0001
0010
0001
1000
0010
0100
0001
,  // measure 31
2000
0000
0001
0000
3100
0010
0100
0002
,  // measure 32
0000
0000
0103
0000
0010
0000
0001
1000
0001
0000
0100
0000
0010
1000
0001
0010
,  // measure 33
0100
0000
1000
1000
0001
0100
0010
0002
,  // measure 34
0000
0000
1003
0000
0100
0000
0010
0000
1000
0010
0100
0001
1000
0001
0010
0100
,  // measure 35
1000
0000
0010
0000
0100
0000
0102
0000
0000
0000
0013
0000
0000
0000
0001
0010
,  // measure 36
0001
0000
0010
0000
0100
0000
2100
0000
0000
0000
3010
1000
0010
0100
0001
1000
,  // measure 37
0100
0000
0011
0011
0000
1100
0000
1010
,  // measure 38
0000
0101
0000
1001
1001
0000
0000
0000
,  // measure 39
0001
0000
1000
0100
0010
0000
0012
0000
0000
0000
1003
0001
0100
0000
0102
0000
,  // measure 40
0000
0000
0013
0100
1000
0000
1002
0000
0000
0000
0103
0000
0010
0100
0001
1000
,  // measure 41
0100
0000
0010
0001
1000
0000
0001
0200
0010
0000
0000
0000
1300
0000
0100
0010
,  // measure 42
0100
0000
0001
0000
1000
0001
2000
0000
0000
0000
3100
0000
0010
0001
0010
0100
,  // measure 43
1000
0000
0001
0100
0010
0000
2010
0000
0000
0000
3001
1000
0100
0000
2100
0000
,  // measure 44
0000
0000
3010
0100
0001
0000
2001
0000
0000
0000
3100
0000
0010
0100
1000
0001
,  // measure 45
0100
0000
0010
1000
0001
0000
1000
0200
0010
0000
0000
0000
0301
0000
0100
0010
,  // measure 46
0100
0000
1000
0000
0001
1000
0002
0000
0000
0000
0103
0000
0010
1000
0010
0100
,  // measure 47
0001
0000
1000
0100
0010
0000
0001
0100
0010
0000
1000
0000
0001
0000
0000
0000
,  // measure 48
2002
0000
0000
0000
3003
0000
0000
0000
1001
0000
1000
0100
0010
0001
0100
0010
,  // measure 49
2000
0000
0000
0000
3010
0000
2010
0000
0000
0000
3001
2000
0100
0000
0000
0000
,  // measure 50
0000
0000
3001
0000
1001
0000
1000
0010
0100
0010
1000
0000
0001
1000
0100
0010
,  // measure 51
0002
0000
0000
0000
0013
0000
0012
0000
0000
0000
1003
0002
0100
0000
0000
0000
,  // measure 52
0000
0000
1003
0000
1001
0000
0001
0010
0100
0010
0001
0000
1000
0001
0100
0010
,  // measure 53
2000
0000
3000
0000
1010
0000
0202
0000
0303
0000
1000
0001
0020
0000
0000
0000
,  // measure 54
0000
0000
0130
0000
0110
0000
0010
0001
1000
0010
0100
0000
0001
1000
0100
0010
,  // measure 55
0002
0000
0003
0000
0011
0000
2200
0000
3300
0000
0001
1000
0010
0000
2020
0000
,  // measure 56
3030
0000
1000
0010
0100
0001
0010
0100
1000
0001
0100
0001
1000
0100
1000
0001
,  // measure 57
0100
0100
0100
0200
0000
0000
0300
0000
,  // measure 58
0001
0100
0010
2000
0000
3001
1000
0200
,  // measure 59
0000
0310
0001
2000
0000
3001
0200
0000
,  // measure 60
0310
1000
0100
2000
0010
0000
0001
0000
,  // measure 61
3200
0000
0000
0000
0310
0000
0020
0000
0000
0000
0031
1000
0001
1000
0010
0000
,  // measure 62
1000
0100
0010
0002
0000
1003
0001
0200
,  // measure 63
0000
0310
1000
0002
0000
1003
0200
0000
,  // measure 64
0310
0001
0100
0002
0010
0000
1000
0000
,  // measure 65
0103
0000
0010
0000
0010
0000
0110
0000
0000
0000
1001
0000
0001
0010
0100
1000
,  // measure 66
0001
0000
1000
0010
1000
0010
0100
0001
1000
0000
0001
0010
0001
0010
0100
1000
,  // measure 67
0001
0000
1000
0010
1000
0010
0100
0001
1000
0000
0001
0010
0100
1000
0001
1000
,  // measure 68
0010
0000
0100
0001
0010
0000
0100
1000
0010
0000
0100
0001
1000
0000
0001
0010
,  // measure 69
0001
1000
0010
1000
0001
0000
0020
0000
0000
0000
0130
0000
0010
0001
1000
0001
,  // measure 70
0200
0000
1000
0000
0000
0000
0310
0000
0100
0001
1000
0001
0010
0100
1000
0100
,  // measure 71
1000
0000
0010
0100
0001
0000
1000
0100
1000
0001
0100
0001
2000
0000
0000
0000
,  // measure 72
3001
0000
0010
0000
0100
0000
1000
0000
0001
1000
0010
1000
0001
1000
0010
1000
,  // measure 73
0200
0000
0000
0000
0310
0000
0100
0000
0001
0000
0100
0000
0010
0000
0001
1000
,  // measure 74
0001
0100
0001
0100
0010
1000
0010
1000
0001
0010
0001
0010
0100
1000
0100
1000
,  // measure 75
0010
0100
0010
0100
0001
1000
0001
1000
0200
0000
0310
0100
1000
0001
0100
0010
,  // measure 76
2000
0000
0000
0000
3001
0000
0012
0000
0000
0000
1003
0010
0100
0001
1000
0100
,  // measure 77
0010
0100
0100
0100
0100
0000
0000
0000
;
