#VERSION:0.83;
#TITLE:Little Flipper;
#SUBTITLE:;
#ARTIST:S-C-U;
#TITLETRANSLIT:;
#SUBTITLETRANSLIT:;
#ARTISTTRANSLIT:;
#GENRE:Techno Pop;
#ORIGIN:;
#CREDIT:;
#BANNER:Little Flipper.png;
#BACKGROUND:Little Flipper-bg.png;
#PREVIEWVID:;
#JACKET:Little Flipper-jacket.png;
#CDIMAGE:;
#DISCIMAGE:;
#LYRICSPATH:;
#CDTITLE:cdtitle.png;
#MUSIC:Little Flipper.ogg;
#OFFSET:-0.872000;
#SAMPLESTART:11.599000;
#SAMPLELENGTH:11.636000;
#SELECTABLE:YES;
#BPMS:0.000=165.000;
#STOPS:;
#DELAYS:;
#WARPS:;
#TIMESIGNATURES:0.000=4=4;
#TICKCOUNTS:0.000=4;
#COMBOS:0.000=1;
#SPEEDS:0.000=1.000=0.000=0;
#SCROLLS:0.000=1.000;
#FAKES:;
#LABELS:0.000=Song Start;
#BGCHANGES:;
#KEYSOUNDS:;
#ATTACKS:
;

//---------------dance-single - ----------------
#NOTEDATA:;
#CHARTNAME:;
#STEPSTYPE:dance-single;
#DESCRIPTION:;
#CHARTSTYLE:;
#DIFFICULTY:Beginner;
#METER:2;
#RADARVALUES:0.117577,0.157867,0.018920,0.085142,0.000000,87.000000,85.000000,2.000000,9.000000,0.000000,0.000000,0.000000,0.000000,0.000000,0.117577,0.157867,0.018920,0.085142,0.000000,87.000000,85.000000,2.000000,9.000000,0.000000,0.000000,0.000000,0.000000,0.000000;
#CREDIT:;
#NOTES:
0000
0000
0000
0000
,
0000
0000
0000
0000
,
0000
0000
0000
0000
,
0000
0000
0000
0000
,
1000
0000
0000
0000
,
0001
0000
0000
0000
,
2000
0000
0000
0000
,
3000
0000
0001
0000
,
0010
0000
0001
0000
,
0010
0000
0001
0000
,
0100
0000
0000
0000
,
0000
0000
0001
0000
,
0100
0000
0001
0000
,
0100
0000
0001
0000
,
0010
0000
0000
0000
,
0000
0000
1000
0000
,
0010
0000
1000
0000
,
0010
0000
1000
0000
,
0100
0000
0000
0000
,
0000
0000
1000
0000
,
0100
0000
1000
0000
,
0100
0000
1000
0000
,
0010
0000
0000
0000
,
0100
0000
0000
0000
,
0001
0000
0000
0000
,
0001
0000
0010
0000
,
0100
0000
0000
0000
,
0010
0000
0000
0000
,
0001
0000
0000
0000
,
1000
0000
0000
0000
,
0001
0000
0000
0000
,
1000
0000
0001
0000
,
1000
0000
0000
0000
,
1000
0000
0010
0000
,
0100
0000
0000
0000
,
0010
0000
0000
0000
,
2000
0000
3000
0000
,
0200
0000
0300
0000
,
0020
0000
0030
0000
,
0002
0000
0003
0000
,
1000
0000
0001
0000
,
1000
0000
0000
0000
,
0001
0000
0100
0000
,
0010
0000
0000
0000
,
0100
0000
0001
0000
,
0010
0000
0000
0000
,
0001
0000
0100
0000
,
0010
0000
1000
0000
,
0100
0000
0000
0000
,
2000
0000
3000
0000
,
1000
0000
0100
0000
,
0010
0000
0000
0000
,
0100
0000
1000
0000
,
0010
0000
0000
0000
,
1000
0000
0100
0000
,
0010
0000
0001
0000
,
0200
0000
0000
0000
,
0300
0000
0000
0000
,
0001
0000
1000
0000
,
0010
0000
0000
0000
,
1000
0000
0001
0000
,
0010
0000
0000
0000
,
0001
0000
0000
0000
,
1000
0000
0000
0000
,
0020
0000
0030
0000
,
0200
0000
0300
0000
,
1001
0000
0000
1001
;

//---------------dance-single - ----------------
#NOTEDATA:;
#CHARTNAME:;
#STEPSTYPE:dance-single;
#DESCRIPTION:;
#CHARTSTYLE:;
#DIFFICULTY:Easy;
#METER:5;
#RADARVALUES:0.241911,0.286289,0.160823,0.189204,0.000000,179.000000,162.000000,17.000000,20.000000,0.000000,0.000000,0.000000,0.000000,0.000000,0.241911,0.286289,0.160823,0.189204,0.000000,179.000000,162.000000,17.000000,20.000000,0.000000,0.000000,0.000000,0.000000,0.000000;
#CREDIT:;
#NOTES:
// measure 0
0000
0000
0000
0000
,  // measure 1
0000
0000
0000
0000
,  // measure 2
0000
0000
0000
0000
,  // measure 3
0000
0000
0000
0000
,  // measure 4
1000
0000
0100
0000
,  // measure 5
0010
0000
0001
0000
,  // measure 6
0200
0000
0000
0300
,  // measure 7
0110
0000
1000
0010
,  // measure 8
1000
0000
1000
0010
,  // measure 9
1000
0000
1000
0010
,  // measure 10
0100
0000
0001
0000
,  // measure 11
1000
0000
0001
0010
,  // measure 12
0001
0000
0001
0010
,  // measure 13
0001
0000
0001
0010
,  // measure 14
0100
0000
0110
0000
,  // measure 15
1000
0000
0001
0100
,  // measure 16
0001
0000
0001
0100
,  // measure 17
0001
0000
0001
0100
,  // measure 18
0010
0000
0100
0000
,  // measure 19
0001
0000
1000
0100
,  // measure 20
1000
0000
1000
0100
,  // measure 21
1000
0000
1000
0100
,  // measure 22
0010
0000
0110
0000
,  // measure 23
0001
0000
1001
0000
,  // measure 24
0001
0000
0100
0000
,  // measure 25
0010
0010
0010
0000
,  // measure 26
0100
0010
1000
0000
,  // measure 27
0001
0001
0001
0000
,  // measure 28
1000
0100
0010
0000
,  // measure 29
0100
0010
0001
0000
,  // measure 30
0011
0000
1100
0000
,  // measure 31
0001
0100
0010
0000
,  // measure 32
1000
0000
0100
0000
,  // measure 33
0010
0010
0010
0000
,  // measure 34
0100
0010
0001
0000
,  // measure 35
0100
0000
0010
0010
,  // measure 36
2000
0000
0010
0000
,  // measure 37
3002
0000
0010
0000
,  // measure 38
2003
0000
3020
0000
,  // measure 39
2030
0000
3200
0000
,  // measure 40
0310
0001
1000
0000
,  // measure 41
2002
0000
3003
0000
,  // measure 42
1000
0010
0100
0010
,  // measure 43
1000
0000
1010
0000
,  // measure 44
1000
0100
0010
0100
,  // measure 45
1000
0000
1100
0000
,  // measure 46
1000
0010
0100
0000
,  // measure 47
0010
1000
0100
0000
,  // measure 48
0110
0000
0001
0100
,  // measure 49
0020
2030
3002
0003
,  // measure 50
0001
0010
0100
0010
,  // measure 51
0001
0000
0011
0000
,  // measure 52
0001
0100
0010
0100
,  // measure 53
0001
0000
0101
0000
,  // measure 54
0001
0010
0100
0000
,  // measure 55
0010
0001
0100
0000
,  // measure 56
0110
0000
0110
0000
,  // measure 57
1001
0000
1000
0100
,  // measure 58
0020
0000
0100
0000
,  // measure 59
0031
0000
0001
0100
,  // measure 60
0020
0000
0100
0000
,  // measure 61
1030
0000
1000
0000
,  // measure 62
0001
0000
0010
0000
,  // measure 63
0100
0000
1000
0000
,  // measure 64
0020
0000
0030
0010
,  // measure 65
0200
0000
0300
0010
,  // measure 66
0220
0000
0330
2002
,  // measure 67
0000
3003
0000
0000
;

//---------------dance-single - ----------------
#NOTEDATA:;
#CHARTNAME:;
#STEPSTYPE:dance-single;
#DESCRIPTION:;
#CHARTSTYLE:;
#DIFFICULTY:Medium;
#METER:7;
#RADARVALUES:0.332458,0.381719,0.236505,0.170284,0.000000,246.000000,221.000000,25.000000,18.000000,0.000000,0.000000,0.000000,0.000000,0.000000,0.332458,0.381719,0.236505,0.170284,0.000000,246.000000,221.000000,25.000000,18.000000,0.000000,0.000000,0.000000,0.000000,0.000000;
#CREDIT:;
#NOTES:
// measure 0
0000
0000
0000
0000
,  // measure 1
0000
0000
0000
0000
,  // measure 2
0000
0000
0000
0000
,  // measure 3
0000
0000
0000
0000
,  // measure 4
1000
1000
0100
0100
,  // measure 5
0010
0010
0001
0001
,  // measure 6
1000
0000
0000
0001
0000
0000
1000
0000
,  // measure 7
1001
0000
0001
0100
,  // measure 8
0110
0000
0001
0100
,  // measure 9
0110
0000
0001
0100
,  // measure 10
0010
1000
0001
0000
,  // measure 11
0001
0000
1000
0100
,  // measure 12
0110
0000
1000
0100
,  // measure 13
0110
0000
1000
0100
,  // measure 14
0010
0001
1000
0010
,  // measure 15
0100
0000
0001
0010
,  // measure 16
1100
0000
0001
0100
,  // measure 17
1010
0000
0001
0010
,  // measure 18
0100
1000
0001
0000
,  // measure 19
0001
0000
1000
0010
,  // measure 20
0101
0000
1000
0100
,  // measure 21
0011
0000
1000
0010
,  // measure 22
0100
0001
1001
0000
,  // measure 23
0001
0010
0220
0330
,  // measure 24
1000
1000
0010
0100
,  // measure 25
0001
0100
0001
0100
0001
0000
0000
0000
,  // measure 26
1000
0100
0010
0100
,  // measure 27
1000
0010
0100
0000
,  // measure 28
0001
0000
0010
0000
0100
0000
1000
0001
,  // measure 29
1000
0000
0010
0000
0100
0000
0001
1000
,  // measure 30
0001
1000
0200
0300
,  // measure 31
1000
1000
0010
0100
,  // measure 32
0001
0001
0010
0100
,  // measure 33
1000
0100
1000
0100
1000
0000
0000
0000
,  // measure 34
0001
0100
0010
0100
,  // measure 35
0001
0000
0010
0100
,  // measure 36
2000
0000
3010
0100
,  // measure 37
0002
0000
0013
0100
,  // measure 38
2100
0000
3010
0100
,  // measure 39
0102
0000
0013
0100
,  // measure 40
0220
0000
0000
0330
,  // measure 41
2002
0000
0000
3003
,  // measure 42
1000
0010
1000
0000
0010
0000
0100
0000
,  // measure 43
0001
1000
1001
0000
,  // measure 44
1000
0100
1000
0000
0100
0000
0010
0000
,  // measure 45
0001
0001
1010
0000
,  // measure 46
1000
0010
1000
0000
0010
0000
0100
0000
,  // measure 47
0001
1000
0100
0000
0010
0000
0100
0000
,  // measure 48
0110
0000
0001
0010
,  // measure 49
0200
2300
3020
2030
,  // measure 50
3001
0010
0001
0000
0010
0000
0100
0000
,  // measure 51
1000
0001
1001
0000
,  // measure 52
0001
0100
0001
0000
0100
0000
0010
0000
,  // measure 53
1000
1000
0011
0000
,  // measure 54
0001
0010
0001
0000
0010
0000
0100
0000
,  // measure 55
1000
0001
0100
0000
0010
0000
0100
0000
,  // measure 56
0110
0000
0110
0000
,  // measure 57
1001
0000
0000
0000
0001
1000
0001
0000
,  // measure 58
0020
0000
0100
0000
,  // measure 59
0031
1000
0001
0100
,  // measure 60
0020
0000
0100
0000
,  // measure 61
1030
0001
1000
0100
,  // measure 62
0010
0010
0001
0001
,  // measure 63
1000
1000
0010
0010
,  // measure 64
0100
0000
0000
0100
0000
0000
0100
0000
,  // measure 65
0010
0000
0000
0010
0000
0000
0010
0000
,  // measure 66
1001
0000
0000
1001
0000
0000
0001
2000
,  // measure 67
0000
3000
0000
0000
;

//---------------dance-single - ----------------
#NOTEDATA:;
#CHARTNAME:;
#STEPSTYPE:dance-single;
#DESCRIPTION:;
#CHARTSTYLE:;
#DIFFICULTY:Hard;
#METER:10;
#RADARVALUES:0.468956,0.508959,0.331107,0.312187,0.113522,347.000000,312.000000,35.000000,33.000000,0.000000,0.000000,0.000000,0.000000,0.000000,0.468956,0.508959,0.331107,0.312187,0.113522,347.000000,312.000000,35.000000,33.000000,0.000000,0.000000,0.000000,0.000000,0.000000;
#CREDIT:;
#NOTES:
// measure 0
0000
0000
0000
0000
,  // measure 1
0000
0000
0000
0000
,  // measure 2
0000
0000
0000
0000
,  // measure 3
0000
0000
0000
0000
,  // measure 4
0001
0001
1000
1000
,  // measure 5
0010
0010
0100
0100
,  // measure 6
0001
0000
0000
1000
0000
0000
0001
0000
0000
1000
0000
0000
0001
0000
0000
0000
,  // measure 7
2002
0000
3003
0001
1000
0001
0010
0000
,  // measure 8
0012
0000
1003
0000
0001
1000
0010
0000
,  // measure 9
2010
0000
3001
0000
1000
0100
0010
0000
,  // measure 10
0210
1300
0001
0000
,  // measure 11
0001
0000
0010
0001
1000
0001
0100
0000
,  // measure 12
0102
0000
1003
0000
0001
1000
0100
0000
,  // measure 13
2100
0000
3001
0000
0100
0010
1000
0000
,  // measure 14
0001
0000
0000
0010
0000
0000
0100
0000
2000
0000
0000
0000
3001
0000
0000
0000
,  // measure 15
1001
0000
0000
1000
0001
0100
0010
0000
,  // measure 16
2010
0000
3100
0000
1000
0100
0010
0000
,  // measure 17
0012
0000
0103
0000
0001
0100
0010
0000
,  // measure 18
0210
0301
1000
0000
,  // measure 19
1000
0000
0010
1000
0001
0010
0100
0000
,  // measure 20
2100
0000
3010
0000
1000
0010
0100
0000
,  // measure 21
0102
0000
0013
0000
0100
1000
0001
0000
,  // measure 22
1000
0000
0000
0010
0000
0000
0100
0000
0002
0000
0000
0000
1003
0000
0000
0000
,  // measure 23
0100
0000
0000
0100
0000
0000
0010
0000
0220
0000
0000
0000
0330
0000
0000
0000
,  // measure 24
0001
0000
0001
0000
0010
0001
1000
0000
,  // measure 25
0001
0100
0001
0100
0010
0000
1000
0000
,  // measure 26
1010
0000
0001
0000
0101
0000
1000
0100
,  // measure 27
0010
0001
2002
3003
,  // measure 28
1000
0000
0000
0010
0000
0000
0100
0000
0000
0001
0000
0000
1000
0000
0000
0000
,  // measure 29
0001
0000
0000
0010
0000
0000
0100
0000
0000
1000
0000
0000
0001
0000
0000
0000
,  // measure 30
0100
0000
0000
0010
0000
0000
0100
0000
0002
0000
0000
0000
0003
0000
1000
0000
,  // measure 31
0100
0010
0100
0000
1000
0001
0100
0010
,  // measure 32
1000
0000
1000
0000
0010
1000
0001
0000
,  // measure 33
1000
0100
1000
0100
0010
0000
0001
0000
,  // measure 34
0011
0000
1000
0000
1100
0000
0001
0100
,  // measure 35
0020
0000
0030
1000
0100
0010
0001
0000
,  // measure 36
0012
0000
0103
0000
0010
0100
0010
0000
,  // measure 37
2010
0000
3100
0000
0010
0100
0010
0000
,  // measure 38
1002
0000
0103
0010
0100
0000
1010
0000
,  // measure 39
2001
0000
3100
0010
0100
0000
0011
0000
,  // measure 40
2002
0000
3003
0000
0001
0100
0010
1000
,  // measure 41
0002
0000
0000
0003
,  // measure 42
1000
0100
0001
0000
0100
0000
1000
0000
,  // measure 43
0001
0000
0010
0000
0100
0000
0000
1000
0000
0000
0001
0000
0001
0000
0000
0000
,  // measure 44
1000
0010
0001
0000
0010
0000
1000
0000
,  // measure 45
0001
0000
0100
0000
0010
0000
0000
1000
0000
0000
0001
0000
0001
0000
0000
0000
,  // measure 46
1000
0100
0001
0000
0100
0000
1100
0000
,  // measure 47
1000
0010
0001
0000
0010
0000
1010
0000
,  // measure 48
0001
0001
0000
1000
0100
0010
0001
0000
,  // measure 49
0101
1001
1100
1001
,  // measure 50
0001
0100
1000
0000
0100
0000
0001
0000
,  // measure 51
1000
0000
0010
0000
0100
0000
0000
0001
0000
0000
1000
0000
1000
0000
0000
0000
,  // measure 52
0001
0010
1000
0000
0010
0000
0001
0000
,  // measure 53
1000
0000
0100
0000
0010
0000
0000
0001
0000
0000
1000
0000
1000
0000
0000
0000
,  // measure 54
0001
0100
1000
0000
0100
0000
0101
0000
,  // measure 55
0001
0010
1000
0000
0010
0000
0011
0000
,  // measure 56
1000
0000
0000
1000
0000
0000
1000
0000
0001
0000
0000
0001
0000
0000
0001
0000
,  // measure 57
1001
0000
0000
1000
0010
1000
0010
0100
,  // measure 58
0002
0100
2003
0010
,  // measure 59
3001
0000
0000
0100
0000
0000
0010
0000
0000
0000
1000
0000
0000
0000
0001
0000
,  // measure 60
2000
0100
3002
0010
,  // measure 61
1003
0000
0000
0100
0000
0000
0010
0000
0000
0000
0001
0000
0100
0000
0010
0000
,  // measure 62
1000
1000
0001
0001
,  // measure 63
0010
0010
0100
0100
,  // measure 64
0010
0000
0000
0001
0000
0000
1000
0000
0000
0001
0000
0000
0100
0000
0000
0000
,  // measure 65
0010
0000
0000
1000
0000
0000
0001
0000
0000
1000
0000
0000
0100
0000
0000
0000
,  // measure 66
0010
0000
0000
0100
0000
0000
0010
0000
0000
0100
0000
0000
0010
0000
2002
0000
,  // measure 67
0000
3003
0000
0000
;

//---------------dance-single - ----------------
#NOTEDATA:;
#CHARTNAME:;
#STEPSTYPE:dance-single;
#DESCRIPTION:;
#CHARTSTYLE:;
#DIFFICULTY:Challenge;
#METER:14;
#RADARVALUES:0.702758,0.731628,0.340567,0.274346,0.648024,520.000000,484.000000,36.000000,29.000000,4.000000,0.000000,0.000000,0.000000,0.000000,0.702758,0.731628,0.340567,0.274346,0.648024,520.000000,484.000000,36.000000,29.000000,4.000000,0.000000,0.000000,0.000000,0.000000;
#CREDIT:;
#NOTES:
// measure 0
0000
0000
0000
0000
,  // measure 1
0000
0000
0000
0000
,  // measure 2
0000
0000
0000
0000
,  // measure 3
0000
0000
0000
0000
,  // measure 4
1000
0000
0000
1000
0010
0000
0100
0000
0001
0000
0000
0001
0010
0000
0100
0000
,  // measure 5
1000
0000
0001
0100
0000
0001
0100
0000
0010
1000
0000
0010
1000
0000
0001
0000
,  // measure 6
0011
0000
0000
1000
0000
0000
1010
0000
0000
0001
0000
0000
0011
0000
0000
0000
,  // measure 7
2002
0000
0000
0000
3003
0000
0001
0100
0001
0000
0100
0000
0010
0000
1000
0000
,  // measure 8
0001
0000
0000
0001
0000
0000
1000
0100
1000
0000
0100
0000
0010
0000
0001
0000
,  // measure 9
1000
0000
0000
1000
0000
0000
0001
0100
0001
0000
0100
0000
0010
0000
1000
0000
,  // measure 10
0100
0000
0010
0100
0010
0000
0000
0000
0100
0000
0000
0000
0010
0000
0100
0000
,  // measure 11
1000
0000
0000
0000
0001
0000
1000
0010
1000
0000
0010
0000
0100
0000
0001
0000
,  // measure 12
1000
0000
0000
1000
0000
0000
0001
0010
0001
0000
0010
0000
0100
0000
1000
0000
,  // measure 13
0001
0000
0000
0001
0000
0000
1000
0010
0100
0000
0001
0000
0010
0000
0100
0000
,  // measure 14
1000
0000
0000
0010
0000
0000
0100
0000
0002
0000
0000
0000
1003
0000
0000
0000
,  // measure 15
1001
0000
0000
0000
0000
0000
1000
0100
1000
0000
0100
0000
0001
0000
0100
0000
,  // measure 16
1000
0000
0000
1000
0000
0000
0001
0100
0001
0000
0100
0000
1000
0000
0100
0000
,  // measure 17
0001
0000
0000
0001
0000
0000
1000
0100
1000
0000
0100
0000
0010
0000
0001
0000
,  // measure 18
0100
0000
0010
0100
0010
0000
0000
0000
0100
0000
0000
0000
0010
0000
0100
0000
,  // measure 19
0001
0000
0000
0000
1000
0000
0001
0010
0001
0000
0010
0000
1000
0000
0010
0000
,  // measure 20
0001
0000
0000
0001
0000
0000
1000
0010
1000
0000
0010
0000
0001
0000
0010
0000
,  // measure 21
1000
0000
0000
1000
0000
0000
0001
0010
0100
0000
1000
0000
0010
0000
0100
0000
,  // measure 22
0001
0000
0000
0010
0000
0000
0100
0000
2000
0000
0000
0000
3001
0000
0000
0000
,  // measure 23
0101
0000
0000
0110
0000
0000
1010
0000
2010
0000
0000
0000
3001
0000
1000
0100
,  // measure 24
0020
0000
0000
0130
0000
0010
0100
0000
1000
0000
1000
0000
0010
0000
0010
0000
,  // measure 25
0100
0000
0001
0000
1000
0000
0100
0000
0020
0000
0000
0031
0000
1000
0010
0100
,  // measure 26
0001
0000
0000
0101
0000
0000
1000
0000
0000
1010
0000
0000
0001
0000
1000
0000
,  // measure 27
1100
0000
0000
0110
0000
0000
0012
0000
1003
0000
0010
0000
0100
0000
0001
1000
,  // measure 28
0001
0000
0010
0100
0000
0010
0001
0000
0010
0100
0000
1000
0001
0000
0001
0000
,  // measure 29
1000
0000
0010
0100
0000
0010
1000
0000
0010
0100
0000
0001
1000
0000
1000
0000
,  // measure 30
0200
0000
0000
0310
0000
0001
1000
0000
0002
0000
0000
0000
1003
0000
0010
0000
,  // measure 31
0001
0000
0010
0000
1000
0000
0100
0000
0001
0000
0100
0000
1000
0000
0001
0100
,  // measure 32
0020
0000
0000
0130
0000
0010
0100
0000
0001
0000
0001
0000
0010
0000
0010
0000
,  // measure 33
0100
0000
1000
0000
0001
0000
0100
0000
0020
0000
0000
1030
0000
0001
0010
0100
,  // measure 34
1000
0000
0000
1100
0000
0000
0001
0000
0000
0011
0000
0000
1000
0000
0001
0000
,  // measure 35
2002
0000
0000
0000
3003
0000
0001
0100
0010
0000
1000
0000
0100
0000
0010
0000
,  // measure 36
0002
0000
0000
0000
0010
0000
0000
0000
1003
0000
0000
0000
0001
0000
0100
0010
,  // measure 37
2000
0000
0000
0000
0010
0000
0000
0000
3001
0000
0000
0000
1000
0000
0100
0010
,  // measure 38
0002
0000
1003
0010
0100
0010
2010
0000
,  // measure 39
3001
0000
0001
0010
0100
0010
0012
0000
,  // measure 40
1003
0000
0010
0000
0100
0000
0001
0000
0010
0000
0100
0000
1000
0000
0001
2000
,  // measure 41
0002
0000
0000
0000
0000
0000
0000
0000
0000
0000
0000
0000
3003
0000
1000
0010
,  // measure 42
1000
0000
0010
0000
0100
0010
0000
1000
0001
0000
1000
0100
0000
0010
0001
0000
,  // measure 43
1000
0000
0010
0000
0100
0001
0000
0001
0000
0000
0100
00M0
0100
0000
1000
0100
,  // measure 44
1000
0000
0001
0000
1000
0010
0000
1000
0100
0000
1000
0010
0000
0100
0001
0000
,  // measure 45
1000
0000
0100
0000
0010
0001
0000
0001
0000
0000
0010
0M00
0010
0000
1000
0010
,  // measure 46
1000
0000
0010
0000
0100
0001
0000
1000
0100
0000
0010
0001
0000
1000
0010
0000
,  // measure 47
0100
0000
1000
0000
0100
0001
0000
1000
0100
0000
0010
1000
0000
0010
0001
0000
,  // measure 48
1000
1001
0000
1000
0010
0100
0001
1000
,  // measure 49
0100
0000
1000
0100
1000
0000
0001
0100
0001
0000
1000
0010
1000
0000
0001
0010
,  // measure 50
0001
0000
0010
0000
0100
0010
0000
0001
1000
0000
0001
0100
0000
0010
1000
0000
,  // measure 51
0001
0000
0010
0000
0100
1000
0000
1000
0000
0000
0100
00M0
0100
0000
0001
0100
,  // measure 52
0001
0000
1000
0000
0001
0010
0000
0001
0100
0000
0001
0010
0000
0100
1000
0000
,  // measure 53
0001
0000
0100
0000
0010
1000
0000
1000
0000
0000
0010
0M00
0010
0000
0001
0010
,  // measure 54
0001
0000
0010
0000
0100
1000
0000
0001
0100
0000
0010
1000
0000
0001
0010
0000
,  // measure 55
0100
0000
0001
0000
0100
1000
0000
0001
0100
0000
0010
0001
0000
0010
1000
0000
,  // measure 56
1000
0000
0000
1010
0000
0000
0001
0000
0001
0000
0000
0011
0000
0000
1000
0000
,  // measure 57
1001
0000
0000
0000
0000
0000
0001
0000
0100
0000
0010
0000
1000
0000
0100
0010
,  // measure 58
0002
1000
0203
0010
,  // measure 59
0302
0000
0000
1000
0000
0000
0013
0000
0000
0000
1001
0000
0000
0001
0100
0010
,  // measure 60
2000
0001
3200
0010
,  // measure 61
2300
0000
0000
0001
0000
0000
3010
0000
0000
0000
1000
0000
0010
0000
0100
0000
,  // measure 62
0001
0000
0000
0001
0010
0000
0100
0000
1000
0000
0000
1000
0010
0000
0100
0000
,  // measure 63
0001
0000
1000
0100
0000
1000
0100
0000
0010
0001
0000
0010
0001
0000
1000
0000
,  // measure 64
1010
0000
0000
0001
0000
0000
0011
0000
0000
1000
0000
0000
1010
0000
0000
0000
,  // measure 65
1100
0000
0000
0001
0000
0000
0101
0000
0000
1000
0000
0000
1100
0000
0000
0000
,  // measure 66
0011
0000
0000
1100
0000
0000
1010
0000
0000
0101
0000
0000
1001
0000
2002
0000
,  // measure 67
0000
3003
0000
0000
;
