#TITLE:Lawes's Parotia;
#SUBTITLE:;
#ARTIST:Yvya;
#TITLETRANSLIT:;
#SUBTITLETRANSLIT:;
#ARTISTTRANSLIT:;
#GENRE:Progressive Metal;
#CREDIT:;
#BANNER:Lawes's Parotia.png;
#BACKGROUND:Lawes's Parotia-bg.png;
#LYRICSPATH:;
#CDTITLE:cdtitle.png;
#MUSIC:Lawes's Parotia.ogg;
#OFFSET:-0.096000;
#SAMPLESTART:63.524574;
#SAMPLELENGTH:13.714285;
#SELECTABLE:YES;
#BPMS:0.000000=140.000000
;
#STOPS:
;
#BGCHANGES:;
#KEYSOUNDS:;
#ATTACKS:;

//---------------dance-single - ----------------
#NOTES:
     dance-single:
     :
     Challenge:
     17:
     0.897745,0.931641,0.327572,0.637904,1.452524,729.000000,691.000000,38.000000,74.000000,0.000000,0.000000,0.897745,0.931641,0.327572,0.637904,1.452524,729.000000,691.000000,38.000000,74.000000,0.000000,0.000000:
0000
0000
0000
0000
,
1000
0000
0010
0000
0100
0001
0000
1000
0001
0000
0010
0100
0000
0010
0100
0010
,
1000
0000
0010
0000
0100
0000
0010
0001
0000
1000
0010
0000
0100
0000
0001
0000
,
1000
0000
0100
0000
0010
0001
0000
1000
0001
0000
0100
0010
0000
1000
0001
0010
,
0100
1000
0001
1000
0010
1000
0001
0010
0001
0010
0001
1000
0010
0100
0001
1000
,
0001
0000
0010
0000
0100
1000
0000
0001
1000
0000
0010
0100
0000
0010
0100
0010
,
0001
0000
0010
0000
0100
0000
0010
1000
0000
1000
0100
0010
0100
0010
0100
0010
,
0001
0000
0100
0000
0010
1000
0000
0001
1000
0000
0100
0010
0000
0001
1000
0010
,
0100
0001
1000
0001
0100
0010
1000
0001
1000
0200
0000
0001
0000
0310
0100
1000
,
0002
0000
0000
0000
,
0000
0000
0000
0000
0000
0000
0000
0000
1003
0010
2000
0100
0000
3001
0100
0010
,
1000
0000
0000
0000
0000
0000
0000
0000
0000
0000
0000
0000
0000
0000
0000
0000
0000
0000
0000
0000
0000
1000
0001
1000
,
0001
0010
0100
1000
0001
0010
0100
1000
0001
0000
0000
1010
0000
0000
0101
0000
,
1002
0000
0013
0001
1000
0010
0100
0010
1000
0100
0010
0100
1000
0010
0100
0001
,
2000
0000
3001
0020
0000
0130
0010
0100
0001
0100
0001
0100
1000
0001
0010
0100
,
2000
0000
3001
0100
0010
1000
0001
1000
0100
1000
0001
1000
0010
0100
0001
1000
,
0100
0000
0000
0011
0000
0000
1001
0000
0000
0101
0000
0000
1001
0000
1100
0000
,
2001
0000
3010
1000
0001
0010
0100
0010
0001
0100
0010
0100
0001
0010
0100
1000
,
0002
0000
1003
0020
0000
0130
0010
0100
1000
0100
1000
0100
0001
1000
0010
0100
,
0002
0000
1003
0200
0000
0310
0100
0010
0001
1000
0010
0100
0001
1000
0100
0010
,
0001
2000
0010
0000
3002
0010
0000
2003
0010
0000
3002
0010
0000
2003
0010
0000
,
3001
0000
0000
0011
0000
0000
1100
0000
1000
0000
0000
0101
0000
0000
1010
0000
,
0000
1001
0000
0000
0000
0000
1100
0000
0000
0011
0000
0000
0010
0001
1000
0001
,
0100
0000
0000
1010
0000
0000
0101
0000
0001
0000
0000
1100
0000
0000
0011
0000
,
0000
1001
0000
0000
0000
0000
0101
0000
0000
1010
0000
0010
0100
0001
1000
0100
,
0010
0000
0002
0010
0000
2003
0100
0000
3001
1000
0002
0100
0000
2003
0010
0000
,
3002
1000
0000
0013
0100
0010
1000
0000
0010
0100
0000
0010
0001
0000
0011
0000
,
1001
0000
2000
0010
0000
3002
0100
0000
1003
0001
2000
0100
0000
3002
0010
0000
,
2003
0001
0000
3010
0100
0010
0002
0000
0013
2000
0000
3100
0010
0100
0001
0100
,
1000
0000
0000
0000
0001
0100
0010
1000
0001
0000
1000
0100
0000
0000
0010
0001
,
0100
0000
0001
0100
0000
0000
0010
0000
0000
0000
1000
0010
1000
0010
0100
0001
,
0010
0000
0100
1000
0000
0001
0100
0000
0010
1000
0000
0000
0001
0000
1000
0000
,
0100
0000
0000
0010
0000
0001
0000
0000
1000
0000
0001
0100
0010
1000
0100
0010
,
0002
0000
0000
0000
0003
0000
0001
0010
0000
0001
0010
0100
1000
0001
1000
0010
,
0200
0000
0000
0302
0000
0000
2003
0000
0000
3200
0000
0000
0310
0001
0010
0100
,
2000
0000
0000
0000
3100
1000
0010
0100
0002
0000
0000
0000
0003
0000
0000
0000
,
1000
0100
0010
0001
1000
0001
0010
0100
1000
0001
0100
0010
1000
0010
0100
0010
,
0002
0000
0000
0023
0000
0000
0230
0000
0301
1000
0000
0001
0010
0000
0100
0010
,
2000
0000
0000
3020
0000
0000
0230
0000
1300
0001
0000
1000
0001
0100
0010
0100
,
2000
0000
0000
3200
0000
0000
0320
0000
1030
0010
0000
1000
0100
0000
0010
0100
,
0002
0000
0000
0203
0000
0000
0320
0000
0031
0010
0000
0001
0100
0001
0100
0010
,
1000
0001
0010
0100
0010
0001
1000
0001
0100
0010
0100
0001
1000
0100
0010
0100
,
0002
0000
0000
2003
0000
0000
3020
0000
0031
1000
0000
0001
1000
0010
0100
0010
,
0002
0000
0000
2003
0000
0000
3200
0000
0301
0000
2000
0010
0000
3001
0100
0010
,
1000
0000
0002
0010
0000
1003
0100
0010
0001
0000
0000
0110
0000
0000
1001
0000
,
1000
0010
1000
0001
0010
0001
1000
0010
0100
0001
0010
0100
1000
0001
0100
0010
,
0001
0010
1000
0010
1000
0001
0010
0100
0001
0100
1000
0100
1000
0001
0100
0010
,
2000
0000
3000
0001
0100
0000
0010
1000
0100
0010
0001
0010
0100
1000
0001
1000
,
0020
0000
0130
2000
0000
3100
0010
0100
0002
0000
1003
0200
0000
0310
0100
0010
,
2000
0000
0000
3020
0000
0000
0032
0000
1003
0010
0000
1000
0010
0100
0001
1000
,
0001
0010
0001
1000
0010
1000
0100
0010
0200
0000
0000
0000
0310
0000
0110
0000
,
2002
0000
0000
3003
,
1000
0010
0100
0001
0010
0100
1000
0001
1000
0001
0000
0000
,
1001
0000
0000
0000
0000
0000
1000
0010
1000
0000
0010
0000
0100
0000
1000
0000
0100
0000
0010
0000
1000
0000
0001
0000
,
2001
0000
3100
0010
0010
0001
1000
0010
0100
0001
0000
0000
,
1001
0000
0000
0000
0000
0000
0001
1000
0001
1000
0001
1000
0001
0000
0010
0000
0100
0000
1000
0000
0010
0000
0100
0000
,
0001
0000
1000
0010
1000
0000
0001
0000
1000
0100
1000
0000
0001
0000
0100
0010
0100
0000
0010
0000
1000
0000
0001
0000
,
1001
0000
0000
0000
0000
0000
0001
0010
0001
0000
0010
0000
0100
0000
0001
0000
0100
0000
0010
0000
0001
0000
1000
0000
,
1002
0000
0103
0010
0010
1000
0001
0010
0001
0100
0000
0000
,
1001
0000
0000
0000
0000
0000
1000
0001
1000
0001
1000
0001
1000
0000
0100
0000
0010
0000
0001
0000
0100
0000
0010
0000
,
1000
0000
0001
0010
0001
0000
1000
0000
0001
0100
0001
0000
1000
0000
0100
0000
0010
0000
0001
0000
0001
0000
1000
0000
,
0001
0000
1000
0010
1000
0000
0001
0000
1000
0100
1000
0000
0001
0000
1000
0010
0100
0001
1000
0000
0100
0000
0010
0000
,
2002
0000
0000
0000
0000
0000
0000
0000
0000
0000
0000
0000
3003
0000
0000
0001
1000
0001
0100
0000
0000
0000
0000
0000
,
0110
0000
1002
0000
0013
0100
0000
1000
0001
0000
0100
0010
0000
1000
0001
0010
,
0100
1000
0001
1000
0100
0010
0001
1000
0001
0200
0000
1000
0000
0310
0100
0001
,
2000
0000
0000
0000
0000
0000
0000
0000
0000
3001
0010
0100
1000
0000
0000
0000
0000
0000
0000
0000
0000
0000
0000
0000
;

//---------------dance-single - ----------------
#NOTES:
     dance-single:
     :
     Hard:
     14:
     0.660070,0.677557,0.275850,0.543080,0.814620,536.000000,504.000000,32.000000,63.000000,0.000000,0.000000,0.660070,0.677557,0.275850,0.543080,0.814620,536.000000,504.000000,32.000000,63.000000,0.000000,0.000000:
// measure 0
0000
0000
0000
0000
,  // measure 1
1000
0000
0100
0000
0010
0001
0000
1000
0001
0000
0100
0020
0000
0000
1030
0010
,  // measure 2
1000
0000
0001
0000
0010
0000
0100
1000
0000
0010
0100
0000
0001
0000
1000
0000
,  // measure 3
0001
0000
0010
0000
0100
1000
0000
0001
1000
0000
0010
0200
0000
0000
0301
1000
,  // measure 4
0001
0000
0010
0000
0100
0000
1000
0010
0000
0010
0000
1000
0100
0000
1000
0000
,  // measure 5
0001
0000
0100
0000
0010
1000
0000
0001
1000
0000
0100
0020
0000
0000
0031
0010
,  // measure 6
0001
0000
1000
0000
0010
0000
0100
0001
0000
0010
0100
0000
1000
0001
1000
0001
,  // measure 7
1000
0000
0010
0000
0100
0001
0000
1000
0001
0000
0010
0200
0000
0000
1300
0001
,  // measure 8
0100
0000
0010
0000
0001
0000
0010
0000
2000
0001
0000
0100
0000
0000
3100
0010
,  // measure 9
0002
0000
0000
0000
,  // measure 10
0000
0000
0000
0000
0003
0000
0000
0000
0001
0100
0010
2000
0000
0000
3010
0000
,  // measure 11
1001
0000
0000
0000
0000
0000
0000
0000
0000
0000
0000
0000
0000
0000
0001
0010
,  // measure 12
0001
0000
0010
0000
0100
0000
1000
0000
1100
0000
0000
0101
0000
0000
1100
0000
,  // measure 13
2002
0000
3003
0000
0001
0100
0001
0000
0100
0010
0100
0000
0010
1000
0001
0000
,  // measure 14
2000
0000
3100
0020
0000
0130
0020
0000
1030
0000
0010
0000
0001
1000
0001
0000
,  // measure 15
2002
0000
3003
0000
1000
0010
1000
0000
0001
0010
0001
0000
1000
0010
0100
0001
,  // measure 16
1000
0000
0000
1100
0000
0000
0001
0000
0000
0101
0000
0000
1000
0000
0001
0000
,  // measure 17
2002
0000
3003
0000
1000
0100
1000
0000
0100
0010
0100
0000
0010
0001
1000
0000
,  // measure 18
0002
0000
0103
0020
0000
0130
0020
0000
0031
0000
0010
0000
1000
0001
1000
0000
,  // measure 19
0200
0000
0310
0002
0000
1003
0020
0000
0130
0000
1000
0000
0100
0010
0100
0000
,  // measure 20
0001
0000
1000
0000
0100
0010
0000
0001
1000
0000
0010
0100
0000
0001
1000
0000
,  // measure 21
0001
0000
0000
0011
0000
0000
1001
0000
0000
0000
0000
0011
0000
0000
1001
0000
,  // measure 22
0000
0101
0000
0000
0000
0000
0001
0000
0000
0100
0000
0000
0010
0000
1000
0000
,  // measure 23
0010
0000
0000
1010
0000
0000
1001
0000
0000
0000
0000
1010
0000
0000
1001
0000
,  // measure 24
0000
1100
0000
0000
0000
0000
1000
0000
0000
0100
0000
0000
0010
0001
0010
0001
,  // measure 25
1000
0000
0002
0100
0000
0000
1003
0000
0001
1000
0002
0010
0000
0000
1000
0000
,  // measure 26
0000
0103
0000
0000
0001
0100
0001
0000
0000
1001
0000
1000
0100
0000
0010
0000
,  // measure 27
0001
0000
2000
0100
0000
0000
3001
0000
1000
0001
2000
0010
0000
0000
0001
0000
,  // measure 28
0000
3100
0000
0000
0010
0100
0010
0000
0000
1001
0000
0000
0001
0100
0010
1000
,  // measure 29
0002
0000
0000
0000
0100
0000
0000
0000
1003
0000
0000
0001
0000
0000
1000
0000
,  // measure 30
2000
0000
0000
0100
0000
0000
3001
0000
0000
0000
1000
0000
0010
0000
0100
0000
,  // measure 31
0002
0000
0000
0010
0000
0000
1003
0000
0000
0001
0000
0000
0100
0000
0010
0000
,  // measure 32
2000
0000
0000
0010
0000
3001
0000
0000
1000
0000
0100
0000
0010
0000
0100
0000
,  // measure 33
0002
0000
0003
0000
0000
0000
0100
0010
0000
0100
1000
0000
0001
0000
0100
0000
,  // measure 34
2000
0000
3000
0100
0000
0000
0010
0000
0000
0100
0000
0000
0001
0000
1000
0000
,  // measure 35
0200
0000
0000
0000
0310
0001
0010
0001
0100
0000
0000
0000
0000
0000
0000
0000
,  // measure 36
0001
0100
0010
1000
0001
1000
0100
0010
,  // measure 37
0002
0000
0000
0010
0000
0000
0103
0000
0010
1000
0000
0001
0100
0000
0010
0000
,  // measure 38
2000
0000
0000
0100
0000
0000
3002
0000
0000
0010
0000
0000
0103
0010
0100
0010
,  // measure 39
2000
0000
0000
0010
0000
0000
3100
0000
0010
0001
0000
1000
0100
0000
0010
0000
,  // measure 40
0002
0000
0000
0100
0000
0000
2003
0000
0010
0000
0000
0000
3100
0010
0100
0010
,  // measure 41
0001
0000
1000
0001
0100
0000
0010
0000
1000
0000
0001
1000
0100
0000
0010
0000
,  // measure 42
0200
0000
0000
0001
0000
0000
0010
0000
1300
0000
0000
0000
1000
0001
0010
0001
,  // measure 43
0200
0000
0000
1000
0000
0000
0010
0000
0301
0000
0000
1002
0000
0000
0013
0100
,  // measure 44
1000
0000
0000
2001
0000
0000
3010
0100
0001
0000
0000
0110
0000
0000
1001
0000
,  // measure 45
0001
0000
1000
0100
0000
0010
0001
0000
1000
0010
0000
0100
0001
0000
1000
0000
,  // measure 46
0001
0010
0001
0000
1000
0010
1000
0000
0001
0100
0001
0000
1000
0100
1000
0000
,  // measure 47
0002
0000
0003
1000
0010
0000
0100
0000
0001
0000
1000
0000
0100
0010
0100
0010
,  // measure 48
0001
0000
0000
1002
0000
0000
0103
0010
1000
0000
0000
1002
0000
0000
0010
0000
,  // measure 49
0023
0000
0000
1000
0000
0000
0100
0000
0031
0000
0000
0000
0001
1000
0100
1000
,  // measure 50
0020
0000
0000
0001
0000
0000
0100
0000
1030
0000
0000
0000
1000
0000
1010
0000
,  // measure 51
2002
0000
0000
3003
,  // measure 52
1000
0001
1000
0001
1000
0001
1000
0001
1000
0100
0000
0000
,  // measure 53
0210
0000
0000
0001
0000
0000
0310
0100
1000
0001
1000
0010
,  // measure 54
0200
0000
0010
0000
0301
1000
0001
0010
0100
1000
0000
0000
,  // measure 55
1002
0000
0000
0103
0010
0100
0010
1000
0001
0010
0100
0020
,  // measure 56
1000
0000
0000
0100
0000
0000
0031
0000
0000
0001
1000
0001
,  // measure 57
0200
0000
0000
1000
0000
0000
0310
0100
0001
1000
0001
0010
,  // measure 58
0200
0000
0010
0000
1300
0001
1000
0100
1000
0010
0000
0000
,  // measure 59
2001
0000
0000
3100
0010
0100
0010
0001
1000
0010
0100
0020
,  // measure 60
0001
0000
0000
0100
0000
0000
1030
0001
1000
0100
0000
0020
,  // measure 61
1000
0000
0000
0100
0000
0000
0031
0010
0100
1000
0010
0100
,  // measure 62
0002
0000
0000
0000
0000
0000
0000
0000
0003
0000
1000
0001
1000
0000
0000
0000
,  // measure 63
0001
0000
0010
0000
0100
1000
0000
0001
1000
0000
0010
0200
0000
0000
0301
1000
,  // measure 64
0100
0000
0010
0000
1000
0000
0010
0000
0002
1000
0000
0100
0000
0000
0103
0010
,  // measure 65
2000
0000
3000
0000
;

//---------------dance-single - ----------------
#NOTES:
     dance-single:
     :
     Medium:
     11:
     0.445794,0.479936,0.172406,0.293091,0.318952,362.000000,342.000000,20.000000,34.000000,0.000000,0.000000,0.445794,0.479936,0.172406,0.293091,0.318952,362.000000,342.000000,20.000000,34.000000,0.000000,0.000000:
0000
0000
0000
0000
,
1000
0000
0100
0000
1000
0000
0000
0000
0001
0000
0000
0100
0000
0000
0001
0000
,
0010
0000
0001
0000
0100
0000
0000
0001
0000
0000
1000
0000
0001
0000
0000
0000
,
0001
0000
0010
0000
0001
0000
0000
0000
1000
0000
0000
0010
0000
0000
1000
0000
,
0200
0000
0000
0000
0010
0000
0000
1000
0000
1300
0000
0000
1001
0000
0000
0000
,
0001
0000
0100
0000
0001
0000
0000
0000
1000
0000
0000
0100
0000
0000
1000
0000
,
0010
0000
1000
0000
0100
0000
0000
1000
0000
0000
0001
0000
0001
0000
0000
0000
,
1000
0000
0010
0000
1000
0000
0000
0000
0001
0000
0000
0010
0000
0000
0001
0000
,
1000
0000
0010
0000
0100
0000
0000
0000
0002
0000
0000
0100
0000
0000
1000
0000
,
2000
0000
0000
0000
,
0000
0000
0000
0000
3003
0000
0000
0000
0100
0000
0000
0010
0000
0000
0100
0000
,
0110
0000
0000
0000
,
0001
0000
0010
0000
0100
0000
1000
0000
0001
0000
0000
0100
0000
0000
0010
0000
,
0110
0000
1000
0010
1000
0010
0100
0001
,
1000
0000
0000
0001
0000
0000
1000
0000
0100
0000
0010
0000
0100
0000
0010
0000
,
0001
0000
1000
0001
0100
0001
1000
0000
,
0001
0000
0000
0011
0000
0000
1000
0000
0000
1010
0000
0000
0001
0000
0010
0000
,
0110
0000
0001
0010
0001
0010
0100
1000
,
0001
0000
0000
1000
0000
0000
0001
0000
0100
0000
0010
0000
0100
0000
0010
0000
,
1000
0000
0000
0001
0000
0000
1000
0000
0100
0000
0010
0000
0001
0000
0000
0000
,
2000
3020
0230
0301
,
1000
0000
0000
0100
0000
0000
0110
0000
0000
0000
0000
0001
0000
0000
0010
0000
,
0000
0011
0000
0000
0000
0000
1000
0000
0000
1000
0000
0000
0010
0000
0100
0000
,
0001
0000
0000
0100
0000
0000
0110
0000
0000
0000
0000
1000
0000
0000
0010
0000
,
0000
1001
0000
0000
0000
0000
0001
0000
0000
0001
0000
0000
0010
0000
0100
0000
,
1000
0000
0000
0010
0000
0000
1000
0000
0001
0000
0000
0010
0000
0000
0001
0000
,
0000
1000
0000
0000
0010
0000
0010
0000
0000
0100
0000
0000
0001
0000
1000
0000
,
0001
0000
0000
0010
0000
0000
0001
0000
1000
0000
0000
0010
0000
0000
1000
0000
,
0000
0100
0000
0000
0010
0000
0010
0000
0000
0001
0000
0000
0100
0000
0010
0000
,
2000
0001
3100
0010
,
0002
0000
0000
1000
0000
0000
0103
0000
0000
0000
0000
0000
0010
0000
0000
0000
,
2000
0000
0000
0010
0000
0000
3001
0000
0000
0001
0000
0000
1000
0000
0000
0000
,
0002
0000
0000
0010
0000
1003
0000
0000
0001
0000
0000
0000
0100
0000
0000
0000
,
0110
0000
0000
1000
0000
0001
1000
0100
,
0110
0000
0000
0001
0000
0000
1000
0000
0000
0001
0000
0000
0100
0000
0000
0000
,
0110
0000
0100
0001
0020
0000
0030
0000
,
0002
0203
0320
2030
,
3001
0000
0000
0010
0000
0000
0100
0000
0001
0000
0000
0100
0000
0000
0010
0000
,
0001
0000
0000
1000
0000
0000
0100
0000
0000
0010
0000
0000
0001
0000
0001
0000
,
1000
0000
0000
0010
0000
0000
0100
0000
1000
0000
0000
0100
0000
0000
0010
0000
,
1000
0000
0000
0001
0000
0000
0100
0000
0010
0000
0000
0000
1000
0000
0001
0000
,
0010
0100
1000
0000
0010
0100
0001
0000
,
1000
0000
0000
0100
0000
0000
0001
0000
0100
0000
0000
0000
1000
0000
0001
0000
,
1000
0000
0000
0010
0000
0000
0001
0000
0010
0000
0000
2000
0000
0000
0010
0000
,
0010
0000
0000
3002
0000
0000
0010
0000
0010
0000
0000
1003
0000
0000
0001
0000
,
1000
0000
0000
0010
0000
0000
0100
0000
0000
0001
0000
0000
1000
0000
0100
0000
,
0010
0001
0010
0001
1000
0010
1000
0010
,
0200
0000
0300
0001
0010
0001
0010
0100
,
2000
0000
0000
0100
0000
0000
0001
0000
3002
0000
0000
0100
0000
0000
1000
0000
,
1003
0000
0000
0010
0000
0000
0100
0000
0001
0000
0000
0000
0001
0000
0010
0000
,
1000
0000
0000
0010
0000
0000
0001
0000
0100
0000
0000
0000
1000
0000
0100
0000
,
0002
0000
0000
0000
,
2000
0000
0000
3003
,
1002
0000
0000
0013
0000
0000
0100
0010
0100
0010
0000
0000
,
0210
0000
0000
1300
0000
0000
0001
1000
0001
0100
0000
0000
,
2010
0000
0000
0001
0000
0000
3100
0010
0100
0010
0000
0000
,
0012
0010
1000
0103
,
2001
0000
0000
3010
0000
0000
0100
0010
0100
0010
0000
0000
,
0210
0000
0000
0301
0000
0000
1000
0100
0010
0001
0000
0000
,
0012
0000
0000
1000
0000
0000
0103
0010
0100
0010
0000
0010
,
2000
0000
0000
0010
0000
0000
0001
0000
0000
3100
0000
0010
,
0002
0000
0000
0010
0000
0000
1000
0000
0000
0103
0000
0010
,
2000
0000
0000
0000
,
3001
0000
0100
0000
0001
0000
0000
0000
1000
0000
0000
0100
0000
0000
1000
0000
,
0010
0000
0100
0000
0001
0000
0000
0000
2000
0000
0000
0100
0000
0000
0001
0000
,
0002
0000
3003
0000
;

//---------------dance-single - ----------------
#NOTES:
     dance-single:
     :
     Easy:
     9:
     0.342350,0.367010,0.181027,0.413775,0.146545,278.000000,257.000000,21.000000,48.000000,0.000000,0.000000,0.342350,0.367010,0.181027,0.413775,0.146545,278.000000,257.000000,21.000000,48.000000,0.000000,0.000000:
0000
0000
0000
0000
,
1000
0001
1000
0000
0010
0000
0100
0000
,
0001
1000
0100
0000
0010
0000
0010
0000
,
0001
1000
0001
0000
0100
0000
0010
0000
,
2000
3002
1000
1003
,
0001
1000
0001
0000
0010
0000
0100
0000
,
1000
0001
0100
0000
0010
0000
0010
0000
,
1000
0001
1000
0000
0100
0000
0010
0000
,
0001
0000
0000
0000
0100
0000
0000
0000
0010
0000
0000
1000
0000
0000
0010
0000
,
2000
0000
0000
0000
,
0000
0000
0000
0000
3000
0000
0000
0000
1000
0000
0000
0001
0000
0000
1000
0000
,
0100
0000
0000
0000
,
2000
0000
0000
0000
3020
0000
0000
0000
0130
0000
0000
0100
0000
0000
0001
0000
,
1000
0100
0010
0100
,
1000
0000
0000
1000
0000
0000
0010
0000
0100
0000
0000
0000
0010
0000
0000
0000
,
1000
0100
0010
0001
,
2002
0000
0000
3003
0000
0000
0220
0000
0000
0330
0000
0000
1001
0000
0000
0000
,
0001
0100
0010
0100
,
0001
0000
0000
0001
0000
0000
0010
0000
0100
0000
0000
0000
0010
0000
0000
0000
,
0001
0000
0000
0001
0000
0000
0100
0000
0010
0000
0000
0000
1000
0000
0000
0000
,
0001
0001
1000
1000
,
0001
0000
0000
0010
0000
0000
0001
0000
0000
0000
0000
0010
0000
0000
0001
0000
,
0000
0010
0000
0000
0000
0000
0001
0000
0000
0000
0000
0000
1001
0000
0000
0000
,
1000
0000
0000
0010
0000
0000
1000
0000
0000
0000
0000
0010
0000
0000
1000
0000
,
0000
0010
0000
0000
0000
0000
1000
0000
0000
0000
0000
0000
1001
0000
0000
0000
,
0001
0000
0000
0011
0000
0000
0000
0000
1000
0000
0000
1010
0000
0000
0000
0000
,
0001
0000
0010
0000
0100
1000
0001
0000
,
1000
0000
0000
1100
0000
0000
0000
0000
0001
0000
0000
0101
0000
0000
0000
0000
,
1000
0000
0010
0000
0100
0000
0001
1000
,
0200
0000
0300
0000
,
0020
0000
0031
1000
,
0020
0000
0130
0001
,
2000
0000
3001
0000
,
2000
0100
3100
0010
,
0002
0100
0103
0010
,
1000
0100
0010
0000
,
0002
0203
0320
2030
,
3001
0000
0000
0010
0000
0000
0001
0000
0020
0000
0000
0000
0130
0000
0000
0000
,
0010
0000
0000
0100
0000
0000
1000
0000
0002
0000
0000
0000
1003
0000
0001
0000
,
1000
0000
0000
0010
0000
0000
1000
0000
0020
0000
0000
0000
0130
0000
0000
0000
,
0010
0000
0000
0100
0000
0000
0001
0000
2000
0000
0000
0000
3001
0000
1000
0000
,
0001
0010
0100
1000
,
0001
0000
0000
0100
0000
0000
0010
0000
2000
0000
0000
0000
3001
0000
0000
0000
,
1000
0000
0000
0100
0000
0000
0010
0000
0002
0000
0000
1003
0000
0000
0000
0000
,
2000
0000
0000
3001
0000
0000
0000
0000
1001
0000
0000
1001
0000
0000
0000
0000
,
0001
0000
0000
0100
0000
0000
0010
0000
0000
1000
0000
0000
0001
0000
0000
0000
,
1000
0100
0010
0000
0001
0100
0010
0000
,
2000
0000
3000
0000
0100
0010
0100
0000
,
0010
0000
0000
1001
0000
0000
0000
0000
0100
0000
0000
1001
0000
0000
0000
0000
,
1000
0000
0000
0001
0000
0000
1000
0000
0020
0000
0000
0000
0130
0000
0000
0000
,
0001
0000
0000
1000
0000
0000
0001
0000
0020
0000
0000
0000
0130
0000
0010
0000
,
0200
0000
0000
0300
,
2002
0000
0000
3003
,
2002
3003
1000
0010
,
0100
0000
0100
0000
0000
0000
0010
0000
0000
1000
0000
0000
,
2002
3003
1000
0100
,
0020
0032
0203
0310
,
2002
3003
0001
0010
,
0100
0000
0100
0000
0000
0000
0010
0000
0000
0001
0000
0000
,
2002
3003
0001
0100
,
2010
0001
3100
0010
,
0012
1000
0103
0010
,
0220
0000
0000
0330
,
0001
1000
0001
0000
0100
0000
0010
0000
,
1000
0000
0000
0000
0100
0000
0000
0000
0010
0000
0000
0001
0000
0000
0010
0000
,
0002
0000
0003
0000
;

//---------------dance-single - ----------------
#NOTES:
     dance-single:
     :
     Beginner:
     5:
     0.242600,0.282315,0.094824,0.275850,0.000000,197.000000,186.000000,11.000000,32.000000,0.000000,0.000000,0.242600,0.282315,0.094824,0.275850,0.000000,197.000000,186.000000,11.000000,32.000000,0.000000,0.000000:
0000
0000
0000
0000
,
1000
1000
0010
0000
,
0100
0010
0100
0000
,
0001
0001
1000
0000
,
0200
0000
0310
0000
,
0001
0001
0010
0000
,
0100
0010
0100
0000
,
1000
1000
0001
0000
,
0100
0010
0110
0000
,
2002
0000
0000
0000
,
3003
0000
0100
0010
,
1001
0000
0000
0000
,
1000
0100
0020
0030
,
0001
0100
0001
0100
,
0010
0010
1000
0001
,
0010
0100
0010
0100
,
2000
3000
0002
0003
,
1000
0100
1000
0100
,
0010
0010
0001
1000
,
0010
0010
1000
0001
,
0020
0030
0200
0300
,
1000
0000
1000
0000
,
1000
0000
0010
0100
,
0001
0000
0001
0000
,
0001
0000
0010
0100
,
1000
1000
0001
0001
,
0100
0010
1000
0001
,
0010
0010
0100
0100
,
1000
0001
0100
0010
,
2000
0000
3000
0000
,
0200
0000
0300
0000
,
0020
0000
0030
0000
,
0002
0000
0003
0000
,
2000
3000
0010
0100
,
0002
0003
0010
0100
,
1000
0001
0100
0000
,
0020
0000
0000
0030
,
1000
0010
1000
0100
,
0001
0100
2000
3000
,
0001
0010
0001
0100
,
1000
0100
0002
0003
,
1000
0100
0010
0001
,
0100
0010
2000
3000
,
0100
0010
0002
0003
,
0220
0330
2002
3003
,
1000
0010
0001
0010
,
1000
0100
0001
0100
,
2000
3000
0001
0100
,
0010
1000
2002
3003
,
0001
0010
1000
0010
,
0001
0100
1000
0100
,
0002
0000
0000
0003
,
2000
0000
0000
3000
,
1001
0000
0001
0010
,
0100
0000
0010
0001
,
1000
0000
0001
0100
,
0010
0010
0100
0001
,
1001
0000
1000
0010
,
0100
0000
0010
1000
,
0001
0000
1000
0100
,
0010
0010
0001
0100
,
0010
0010
1000
0100
,
0220
0000
0000
0330
,
1000
0010
0100
0000
,
0001
0010
0110
0000
,
2002
0000
3003
0000
;
