#TITLE:Lapis Philosophorum;
#SUBTITLE:;
#ARTIST:Akhuta;
#TITLETRANSLIT:;
#SUBTITLETRANSLIT:;
#ARTISTTRANSLIT:;
#GENRE:Arcane Rock;
#CREDIT:;
#BANNER:Lapis Philosophorum.png;
#BACKGROUND:Lapis Philosophorum-bg.png;
#LYRICSPATH:;
#CDTITLE:cdtitle.png;
#MUSIC:Lapis Philosophorum.ogg;
#OFFSET:-0.500380;
#SAMPLESTART:28.786095;
#SAMPLELENGTH:13.714287;
#SELECTABLE:YES;
#BPMS:0.000000=140.000000
;
#STOPS:
;
#BGCHANGES:;
#KEYSOUNDS:;
#ATTACKS:;

//---------------dance-single - ----------------
#NOTES:
     dance-single:
     :
     Challenge:
     16:
     0.825308,0.842697,0.514981,0.383895,1.109550,617.000000,562.000000,55.000000,41.000000,0.000000,0.000000,0.825308,0.842697,0.514981,0.383895,1.109550,617.000000,562.000000,55.000000,41.000000,0.000000,0.000000:
0000
0000
0000
0000
,
0000
0000
0000
0000
,
0000
0000
0000
0000
,
0000
0000
0000
0000
,
1000
0000
1000
0100
0010
0200
0000
0310
0001
0000
1000
0000
0001
0100
0010
1000
,
0001
0000
0001
0100
0010
0200
0000
0310
1000
0000
0001
0000
1000
0100
0010
0001
,
1000
0000
1000
0010
0100
0001
0000
0010
0100
0000
1000
0000
0001
0100
0010
1000
,
0200
0000
0300
0020
0000
0030
0002
0000
0003
2002
0000
0000
0000
0000
3003
0000
,
1010
0000
0000
0110
0000
0000
1010
0000
2001
0000
3100
0010
0100
0000
0010
0000
,
0011
0000
0000
0110
0000
0000
0011
0000
2001
0000
3010
0100
0010
0000
0100
0000
,
0101
0000
0000
0110
0000
0000
0101
0000
1002
0000
0013
0100
0010
0000
0100
0000
,
1100
0000
0000
0110
0000
0000
1100
0000
2001
0000
3010
0000
0100
0001
1000
0001
,
0010
0000
0000
0110
0000
0000
1100
0000
1002
0000
0103
0010
1000
0000
0010
0000
,
1010
0000
0000
0110
0000
0000
0101
0000
2001
0000
3100
0010
0001
0000
0010
0000
,
0011
0000
0000
0101
0000
0000
1100
0000
2001
0000
3001
0100
0010
0000
1000
0000
,
1010
0000
0000
1100
0000
0000
0101
0000
1002
0000
0013
0000
0220
0000
0000
0000
,
0000
0000
0000
0000
0330
0000
0000
0000
0001
0000
0100
0010
0100
0000
0001
0000
,
0010
0000
0100
0010
0000
0010
0001
0000
1000
0000
0010
1000
0100
0000
0100
1000
,
0010
0000
0100
0010
0000
0010
1000
0000
0001
0000
0010
0100
0000
0010
1000
0000
,
0010
0100
0000
0010
0000
0001
1000
0001
0100
0010
1000
0000
0001
0010
0100
1000
,
0100
0010
0001
1000
0001
0100
0010
0000
1000
0000
0100
0010
0100
0000
1000
0000
,
0010
0000
0100
0010
0000
0010
1000
0000
0001
0000
0010
0001
0100
0000
0100
0001
,
0010
0000
0100
0010
0000
0010
0001
0000
1000
0000
0010
0001
0000
0010
1000
0000
,
0100
0001
0000
0100
0000
1000
0001
0100
0010
1000
0010
1000
0001
0100
0001
0010
,
0100
1000
0100
1000
0001
0100
0010
1000
0002
0000
0000
0103
0001
0000
1001
0000
,
1000
0001
0010
0000
0021
0000
0100
0000
0230
0000
0000
0310
0001
0000
0011
0000
,
1000
0010
0100
0000
0010
0100
0001
1000
0200
0000
0000
1300
0001
0000
1001
0000
,
0001
1000
0010
0000
1020
0000
0100
0000
0230
0000
0000
0310
1000
0000
1010
0000
,
0001
0010
0100
0000
0010
0100
1000
0001
0100
0000
0000
1010
0000
0000
0100
0000
,
0000
0000
0000
0011
0000
0000
0000
0000
0000
0000
0000
0000
0001
0000
0000
0000
0010
0000
0000
0000
0100
0000
0000
0000
1000
0000
0000
0000
0010
0000
0000
0000
0100
0000
0000
0000
0002
0000
0000
0000
0000
0000
0000
0000
0000
0000
0000
0000
,
1003
0000
0100
1000
0100
0000
0010
0100
0010
0000
0001
0000
0010
0100
1000
0001
,
1000
0000
0010
1000
0100
0000
0010
0001
0100
0000
0010
0000
0100
0010
1000
0100
,
0010
0000
0001
1000
0000
0001
0010
0000
0001
1000
0000
0000
1001
0000
1000
0000
,
0010
0000
1000
0001
0000
1000
0010
0000
1000
0001
0000
0000
1001
0000
0001
0010
,
0001
0000
0100
0001
0100
0000
0010
0100
0010
0000
1000
0000
0010
0100
0001
1000
,
0001
0000
1000
0100
0010
0000
0001
0100
0010
0000
1000
0000
0001
0010
0100
1000
,
0001
0000
0100
0010
0100
0000
1000
0100
1000
0000
0100
0000
0010
0100
0001
1000
,
0001
0000
0010
0100
0010
0000
1000
0010
1000
0000
0010
0000
0100
0010
0001
0100
,
0010
1000
0010
1000
0100
1000
0100
0001
1000
0010
0001
2000
,
0000
0000
0000
0000
,
3010
0000
1000
0010
0000
1000
0010
0100
0000
1000
0000
0100
0010
1000
0010
1000
,
0100
0000
1000
0100
0000
0010
0000
0021
0000
0130
1000
0001
1000
0010
1000
0001
,
0010
0000
0001
0010
0000
0001
0010
0100
0000
0001
0000
0100
0010
0001
0010
0001
,
0100
0000
0001
0100
0000
0010
0000
2010
0000
3001
0010
0100
1000
0100
0010
0001
,
1000
0000
0001
0100
0000
0001
1000
0100
0000
0001
0000
0100
1000
0001
1000
0001
,
0100
0000
0010
1000
0000
0001
0000
2001
0000
3100
0010
0100
0010
0001
0100
0010
,
1000
0001
0100
0001
1000
0001
0010
0001
1000
0001
0100
0001
0020
0000
0000
0000
,
0030
0000
0100
1000
0010
0100
0010
0100
0001
1000
0100
0010
0002
0000
0000
0000
,
0103
0000
0001
0100
0000
0001
0100
0010
0000
0001
0000
0010
0100
0001
0100
0001
,
0010
0000
0001
0010
0000
0100
0000
1200
0000
0310
0001
1000
0001
0100
0001
1000
,
0100
0000
1000
0100
0000
1000
0100
0010
0000
1000
0000
0010
0100
1000
0100
1000
,
0010
0000
1000
0010
0000
0100
0000
0102
0000
1003
0100
0010
0001
0010
0100
1000
,
0001
0000
1000
0010
0000
1000
0001
0010
0000
1000
0000
0010
0001
1000
0001
1000
,
0010
0000
0100
0001
0000
1000
0000
1002
0000
0013
0100
1000
0001
0100
0010
1000
,
0002
0000
0000
0000
,
2000
0000
0000
3003
,
2000
0000
0000
3100
0010
0000
0110
0000
0100
1000
0010
0000
1020
0000
0100
0000
,
0230
0000
0000
0310
1000
0000
1010
0000
0001
0010
1000
0000
0010
0001
1000
0001
,
0200
0000
0000
0310
0100
0000
0110
0000
0100
0001
0010
0000
0021
0000
0100
0000
,
0230
0000
0000
0310
0001
0000
0011
0000
1000
0010
0001
0000
1000
0100
1000
0100
,
0001
0000
0000
0000
;

//---------------dance-single - ----------------
#NOTES:
     dance-single:
     :
     Hard:
     12:
     0.583200,0.589888,0.234082,0.421348,0.477528,436.000000,411.000000,25.000000,45.000000,0.000000,0.000000,0.583200,0.589888,0.234082,0.421348,0.477528,436.000000,411.000000,25.000000,45.000000,0.000000,0.000000:
0000
0000
0000
0000
,
0000
0000
0000
0000
,
0000
0000
0000
0000
,
0000
0000
0000
0000
,
1000
0000
0100
0000
0010
0100
0000
0010
0100
0000
1000
0000
0001
0000
0000
0000
,
0001
0000
0100
0000
0010
0100
0000
0010
0100
0000
0001
0000
1000
0000
0000
0000
,
0001
0000
0010
0000
0100
1000
0000
0001
0100
0000
0010
0000
1000
0000
0001
0000
,
0020
0000
0030
0200
0000
0300
2000
0000
3000
2002
0000
0000
0000
0000
3003
0000
,
2010
0000
0000
0010
0000
0000
3001
0000
1000
0000
0100
0000
0010
0000
0001
0000
,
0012
0000
0000
0010
0000
0000
1003
0000
0001
0000
0100
0000
0010
0000
0100
0000
,
0102
0000
0000
0100
0000
0000
1003
0000
0100
0000
0010
0000
0100
0000
1000
0000
,
2100
0000
0000
0100
0000
0000
3001
0000
0100
0000
0010
0000
1000
0000
0001
0000
,
1002
0000
0000
1000
0000
0000
0013
0000
1000
0000
0010
0000
0001
0000
1000
0000
,
2001
0000
0000
0001
0000
0000
3010
0000
0001
0000
0010
0000
1000
0000
0001
0000
,
2001
0000
0000
0001
0000
0000
3100
0000
0001
0000
0100
0000
1000
0000
0001
0000
,
1002
0000
0000
1000
0000
0000
0103
0000
0010
0000
1000
0000
2002
0000
0000
0000
,
0000
0000
3003
0000
1000
0100
0010
0100
,
1000
0000
0010
1000
0000
0010
1000
0000
0001
0000
0010
0000
0001
0000
0100
0000
,
0001
0000
0100
0001
0000
0010
0001
0000
1000
0000
0001
0100
0000
0010
1000
0000
,
0001
0010
0000
0100
0000
1000
0001
0000
1000
0000
0010
0000
1010
0000
0000
0000
,
0001
0010
0011
0000
0001
0100
0010
0100
,
0001
0000
0010
0001
0000
0010
0001
0000
1000
0000
0010
0000
1000
0000
0100
0000
,
1000
0000
0100
1000
0000
0010
1000
0000
0001
0000
0010
0100
0000
1000
0010
0000
,
0100
0001
0000
0010
0000
0100
1000
0000
0001
0000
0100
0000
0010
1000
0010
0000
,
1000
0000
0100
0000
0010
0001
0010
0000
0002
0000
0000
0013
0001
0000
1000
0000
,
0001
0000
0100
0000
0001
0000
0100
0000
0020
0000
0000
0130
0010
0000
1000
0000
,
0001
0000
0010
0000
0100
0010
0100
0000
2000
0000
0000
3010
1000
0000
0001
0000
,
1000
0000
0100
0000
1000
0000
0100
0000
0020
0000
0000
0130
0010
0000
0001
0000
,
1000
0000
0010
0000
0100
0010
0100
0000
0002
0000
0000
1003
0000
0000
2000
0000
,
0000
3001
0000
0000
2002
0000
0000
0000
0000
0000
0000
0000
3003
0000
0000
0000
,
1000
0000
0100
0000
0001
0000
0100
0000
1000
0000
0001
0000
1000
0001
1000
0000
,
0010
0000
0001
0000
0010
0000
1000
0000
0001
0000
0010
0000
0100
0010
0100
0000
,
1000
0000
0000
1010
0000
0000
0001
0000
0000
0011
0000
0000
1001
0000
0000
0000
,
0001
0000
0000
0101
0000
0000
1000
0000
0000
1100
0000
0000
1001
0000
0000
0000
,
0001
0000
0100
0000
1000
0000
0100
0000
0001
0000
1000
0000
0001
1000
0001
0000
,
1000
0000
0100
0000
0010
0000
0001
0000
0100
0000
0010
0000
1000
0001
1000
0000
,
0001
0000
0010
0000
1000
0000
0001
0000
0100
0000
1000
0000
0001
1000
0001
0000
,
1000
0000
0001
0000
0100
0000
1000
0000
0001
0000
0010
0000
1000
0001
1000
0000
,
2002
0000
0000
0000
0000
0000
0000
0000
0000
0000
0000
3003
,
0000
0000
0000
0000
,
0001
0000
0010
0001
0000
0010
0001
0020
0000
0100
0000
0000
0031
0000
1000
0000
,
0001
0000
0100
0010
0000
1000
0000
2010
0000
0000
3001
0000
0010
0000
0100
0000
,
1000
0000
0010
1000
0000
0010
1000
0020
0000
0100
0000
0000
1030
0000
0001
0000
,
1000
0000
0100
0010
0000
0001
0000
0012
0000
0000
0103
0000
0010
0000
1000
0000
,
0001
0000
1000
0100
0000
1000
0100
2000
0000
0001
0000
0000
3010
0000
0100
0000
,
1000
0000
0100
0010
0000
0100
0000
0002
0000
0000
1003
0000
0001
0000
1000
0000
,
0001
0010
1000
0010
0001
0100
2000
0000
,
3000
0100
0001
1000
0100
0010
0011
0000
,
1000
0000
0010
1000
0000
0100
1000
0200
0000
0010
0000
0000
1300
0000
0001
0000
,
1000
0000
0010
0100
0000
0001
0000
0102
0000
0000
1003
0000
0100
0000
0010
0000
,
0001
0000
0010
0001
0000
0100
0001
0200
0000
0010
0000
0000
0301
0000
1000
0000
,
0001
0000
0010
0100
0000
1000
0000
2100
0000
0000
3010
0000
0100
0000
0001
0000
,
1000
0000
0100
1000
0000
0001
0100
0002
0000
1000
0000
0000
0013
0000
0100
0000
,
0001
0000
0100
0010
0000
0100
0000
2000
0000
0000
3001
0000
0100
0000
0010
0100
,
0020
0000
0000
0000
,
0200
0000
0000
0330
,
2000
0000
0000
3010
1000
0000
0010
0000
0100
0000
1000
0000
0100
0000
0010
0000
,
2000
0000
0000
3100
0010
0000
0001
0000
0100
0000
0010
0000
1000
0001
1000
0000
,
0002
0000
0000
0013
0001
0000
0010
0000
0100
0000
0001
0000
0100
0000
0010
0000
,
0002
0000
0000
0103
0010
0000
1000
0000
0100
0000
0010
0000
0002
0000
0000
0000
,
1003
0000
0000
0000
;

//---------------dance-single - ----------------
#NOTES:
     dance-single:
     :
     Medium:
     10:
     0.434724,0.449438,0.290262,0.252809,0.159176,325.000000,294.000000,31.000000,27.000000,0.000000,0.000000,0.434724,0.449438,0.290262,0.252809,0.159176,325.000000,294.000000,31.000000,27.000000,0.000000,0.000000:
0000
0000
0000
0000
,
0000
0000
0000
0000
,
0000
0000
0000
0000
,
0000
0000
0000
0000
,
1000
0100
0010
0000
0100
0000
1000
0000
,
0001
0100
0010
0000
0100
0000
0001
0000
,
0010
0100
1000
0000
0010
0100
0001
1000
,
0200
0000
0000
0300
,
1000
0000
0000
1000
0000
0000
1000
0000
0010
0000
0000
0000
1010
0000
0000
0000
,
0001
0000
0000
0001
0000
0000
0001
0000
0010
0000
0000
0000
0011
0000
0000
0000
,
1000
0000
0000
1000
0000
0000
1000
0000
0100
0000
0000
0000
1100
0000
0000
0000
,
0001
0000
0000
0001
0000
0000
0001
0000
0100
0000
0000
0000
0101
0000
0000
0000
,
1000
0000
0000
0010
0000
0000
1000
0000
0010
0000
0000
0000
0110
0000
0000
0000
,
0001
0000
0000
0010
0000
0000
0001
0000
0010
0000
0000
0000
0110
0000
0000
0000
,
1000
0000
0000
0010
0000
0000
0100
0000
0001
0000
0000
0000
1001
0000
0000
0000
,
0001
0000
0000
0010
0000
0000
0100
0000
1000
0000
0001
0000
2000
0000
0000
0000
,
0000
0000
3000
0000
0001
0100
0010
0000
,
0101
0000
1010
0000
0001
0010
0100
0000
,
0011
0000
0000
0000
1100
0000
0000
0000
0001
0000
0000
0100
0000
0000
0010
0000
,
0000
1000
0000
0000
0001
0000
0000
0000
0012
0000
0000
0000
1003
0000
0000
0000
,
2010
0000
3001
0000
1000
0100
0010
0000
,
1100
0000
0011
0000
1000
0010
0100
0000
,
1010
0000
0000
0000
0101
0000
0000
0000
0001
0000
0000
0010
0000
0000
1000
0000
,
0000
0010
0000
0000
0001
0000
0000
0000
1000
0000
0010
0000
1000
0000
0001
0000
,
0010
0001
1000
0000
1002
0000
0100
0000
,
0013
0001
0100
0001
0020
0000
0001
0000
,
0130
0010
0110
0000
2000
0000
0100
0000
,
3010
1000
0100
1000
0020
0000
1000
0000
,
0130
0010
0110
0000
0001
0000
0000
0000
,
0000
0002
2003
3001
,
1000
0100
1000
0100
0010
0001
1000
0000
,
0001
0100
0010
1000
0100
0010
0001
0000
,
1000
0000
0000
0010
0000
0000
1000
0000
0000
0010
0000
0000
1001
0000
0000
0000
,
0001
0000
0000
0010
0000
0000
0001
0000
0000
0010
0000
0000
1001
0000
0000
0000
,
0001
0100
0001
0100
0010
1000
0001
0000
,
1000
0100
1000
0001
0100
0001
1000
0000
,
0100
1000
0100
1000
0100
0001
0100
0000
,
1000
0010
1000
0010
0001
0010
1000
0001
,
0020
0000
0000
0000
0000
0000
0000
0000
0000
0000
0000
0030
,
0000
0000
0000
0000
,
0001
0000
0010
0000
0001
0000
0000
1000
0000
1000
0000
0000
1001
0000
0000
0000
,
0001
0000
0100
0000
0010
0000
0000
2000
0000
0000
3100
0000
0010
0000
0001
0000
,
1000
0000
0010
0000
1000
0000
0000
0001
0000
0001
0000
0000
1001
0000
0000
0000
,
1000
0000
0100
0000
0010
0000
0000
0002
0000
0000
0103
0000
0010
0000
1000
0000
,
0001
0000
1000
0000
0100
0000
0000
0010
0000
0010
0000
0000
0110
0000
0000
0000
,
1000
0000
0001
0000
0100
0000
0000
0020
0000
0000
0130
0000
0010
0000
1000
0000
,
0002
0023
0230
2300
,
3000
1000
0010
1000
0001
0010
0001
0000
,
1000
0000
0010
0000
0100
0000
0000
0010
0000
0010
0000
0000
1010
0000
0000
0000
,
1000
0000
0100
0000
0001
0000
0000
0200
0000
0000
0301
0000
0100
0000
1000
0000
,
0001
0000
0010
0000
0100
0000
0000
0010
0000
0010
0000
0000
0011
0000
0000
0000
,
0001
0000
0100
0000
1000
0000
0000
0200
0000
0000
1300
0000
0100
0000
0001
0000
,
1000
0000
0001
0000
0010
0000
0000
0100
0000
0100
0000
0000
0110
0000
0000
0000
,
0001
0000
1000
0000
0010
0000
0000
0200
0000
0000
0310
0000
0100
0000
0001
0000
,
0020
0000
0000
0000
,
0200
0000
0000
0330
,
0012
0000
1000
0000
0103
0001
0010
0001
,
0200
0000
1000
0000
0310
0100
0101
0000
,
2010
0000
0001
0000
3100
1000
0010
1000
,
0200
0000
0001
0000
0310
0100
1000
0001
,
0100
0000
0000
0000
;

//---------------dance-single - ----------------
#NOTES:
     dance-single:
     :
     Easy:
     6:
     0.299625,0.365169,0.318352,0.355805,0.000000,224.000000,190.000000,34.000000,38.000000,0.000000,0.000000,0.299625,0.365169,0.318352,0.355805,0.000000,224.000000,190.000000,34.000000,38.000000,0.000000,0.000000:
0000
0000
0000
0000
,
0000
0000
0000
0000
,
0000
0000
0000
0000
,
0000
0000
0000
0000
,
1000
0100
0010
0010
,
0001
0100
0010
0010
,
1000
1010
0001
0011
,
2000
0000
0000
3000
,
2001
0001
3010
0000
,
2010
0010
3001
0000
,
1002
1000
0013
0000
,
0012
0010
1003
0000
,
1002
1000
0103
0000
,
0210
0010
0301
0000
,
2001
0001
3100
0000
,
0210
0010
1300
2002
,
0000
3003
1000
1000
,
0010
0100
0001
0001
,
0100
0010
1000
0100
,
0010
0001
2002
3003
,
0220
0330
0001
0001
,
0010
0100
1000
1000
,
0100
0010
0001
0100
,
0010
1000
2010
3100
,
0012
0103
1001
1000
,
0010
0001
0100
0100
,
1000
1001
0001
0001
,
0010
1000
0100
0100
,
0001
1001
0010
0000
,
0000
0002
2003
3001
,
1000
0100
1000
0100
,
0001
0010
0001
0010
,
2000
0000
3000
1001
,
0002
0000
0003
1001
,
0001
0100
0001
0100
,
1000
0010
1000
0010
,
0001
0100
1000
0100
,
0001
0010
1000
0010
,
2002
0000
0000
0000
0000
0000
0000
0000
0000
0000
0000
3003
,
0000
0000
0000
0000
,
0001
0010
0001
0011
,
1000
0100
0020
0032
,
1003
0010
1000
1010
,
0001
0100
0020
2030
,
3100
0010
0100
0110
,
1000
0001
0200
0310
,
2000
3200
0320
0032
,
0003
1001
0110
1001
,
0001
0100
0001
0101
,
1000
0010
0002
0023
,
1030
0100
1000
1100
,
0001
0010
2000
3020
,
0031
0100
0010
0110
,
1000
0100
0010
0001
,
2002
0000
0000
0000
,
3003
0000
0000
0000
,
1001
0001
0010
1000
,
0100
0100
0001
1001
,
1000
1000
0010
0001
,
0100
0100
1000
1001
,
0100
0000
0000
0000
;

//---------------dance-single - ----------------
#NOTES:
     dance-single:
     :
     Beginner:
     3:
     0.159176,0.224719,0.093633,0.065543,0.000000,119.000000,109.000000,10.000000,7.000000,0.000000,0.000000,0.159176,0.224719,0.093633,0.065543,0.000000,119.000000,109.000000,10.000000,7.000000,0.000000,0.000000:
0000
0000
0000
0000
,
0000
0000
0000
0000
,
0000
0000
0000
0000
,
0000
0000
0000
0000
,
1000
0000
0000
0000
,
0001
0000
0000
0000
,
1000
0000
0001
0000
,
1001
0000
0000
0000
,
1000
0000
1000
0000
,
0100
0000
0100
0000
,
0010
0000
0010
0000
,
0001
0000
1000
0000
,
0001
0000
0001
0000
,
0100
0000
0100
0000
,
0010
0000
0010
0000
,
1000
0000
1001
0000
,
0000
0000
1000
0000
,
0100
0000
0010
0000
,
0100
0000
1000
0000
,
0010
0000
1001
0000
,
1001
0000
0001
0000
,
0100
0000
0010
0000
,
0100
0000
0001
0000
,
0010
0000
1001
0000
,
1001
0000
0001
0000
,
0100
0100
0100
0000
,
0001
0000
1000
0000
,
0100
0100
0100
0000
,
1000
0000
1001
0000
,
0000
0000
0000
0000
,
1000
0000
0010
0000
,
0100
0000
0001
0000
,
0020
0000
0000
0030
0000
0000
1001
0000
,
0020
0000
0000
0030
0000
0000
1001
0000
,
0001
0000
0100
0000
,
0010
0000
1000
0000
,
0200
0000
0300
0000
,
0100
0000
0010
0000
,
2002
0000
0000
0000
0000
0000
0000
0000
0000
0000
0000
3003
,
0000
0000
0000
0000
,
1000
1000
1000
0000
,
0010
0000
0100
0000
,
0001
0001
0001
0000
,
0010
0000
0100
0000
,
1000
0001
1000
0000
,
0010
0000
0100
0000
,
0002
0000
0000
0003
,
0000
1000
1000
0000
,
0001
0001
0001
0000
,
0010
0000
0100
0000
,
1000
1000
1000
0000
,
0010
0000
0100
0000
,
0001
1000
0001
0000
,
1000
0000
0100
0000
,
0020
0000
0000
0000
,
0030
0000
0000
0000
,
0001
0000
0010
0010
,
0010
0000
0001
0000
,
1000
0000
0010
0010
,
0010
0000
1000
0000
,
0100
0000
0000
0000
;
