#TITLE:LASER CRUSTER;
#SUBTITLE:;
#ARTIST:L.E.D.;
#TITLETRANSLIT:;
#SUBTITLETRANSLIT:;
#ARTISTTRANSLIT:;
#GENRE:Nu-Skool Breaks;
#CREDIT:;
#BANNER:LASER CRUSTER.png;
#BACKGROUND:LASER CRUSTER-bg.png;
#LYRICSPATH:;
#CDTITLE:cdtitle.png;
#MUSIC:LASER CRUSTER.ogg;
#OFFSET:-0.369480;
#SAMPLESTART:13.001060;
#SAMPLELENGTH:12.631579;
#LASTBEATHINT:287.995087;
#SELECTABLE:YES;
#BPMS:0.000000=152.000000
;
#STOPS:
;
#BGCHANGES:-4.250=LASER CRUSTER.mp4=1.000=1=0=1===CrossFade==,
99999=-nosongbg-=1.000=0=0=0 // don't automatically add -songbackground-
;
#KEYSOUNDS:;
#ATTACKS:;

//---------------dance-single - ----------------
#NOTES:
     dance-single:
     :
     Challenge:
     17:
     0.870338,0.956033,0.221541,0.170416,1.175869,715.000000,689.000000,26.000000,20.000000,0.000000,0.000000,0.870338,0.956033,0.221541,0.170416,1.175869,715.000000,689.000000,26.000000,20.000000,0.000000,0.000000:
// measure 0
0000
0000
0000
0000
,  // measure 1
0000
0000
0000
0000
,  // measure 2
0000
0000
0000
0000
,  // measure 3
0000
0000
0000
0000
,  // measure 4
1001
0000
0000
0000
,  // measure 5
0000
0000
0000
0000
,  // measure 6
1001
0000
1000
0001
1000
0001
1000
0001
1000
0001
1000
0001
1000
0001
1000
0001
,  // measure 7
0020
0000
0030
0100
1000
0000
0020
0000
0030
0100
0001
0000
1000
0000
0001
1000
,  // measure 8
0100
0010
0100
0010
0001
0000
1000
0100
1000
0100
0010
0000
0001
1000
0001
0000
,  // measure 9
0100
0010
0100
0010
1000
0000
0001
0100
0001
0100
0010
0000
1000
0001
1000
0000
,  // measure 10
0001
0010
0001
0010
0100
0000
1000
0010
1000
0010
0100
0000
0001
1000
0001
0000
,  // measure 11
1000
0100
1000
0100
0010
0000
0001
0100
0010
0000
1000
0010
0100
0001
1000
0000
,  // measure 12
0001
0010
0100
0010
0001
0000
1000
0010
0100
0010
1000
0000
0001
1000
0100
0000
,  // measure 13
0010
0001
1000
0010
0100
0000
0010
1000
0001
0010
0100
0000
1000
0001
0100
0000
,  // measure 14
0010
1000
0100
0010
0001
0000
0010
0001
0100
0010
1000
0000
0001
1000
0100
0000
,  // measure 15
0010
0001
1000
0001
0100
0000
0010
1000
0001
1000
0100
0010
0001
0000
0001
1000
,  // measure 16
0001
0100
0010
0100
2000
0000
0000
0000
3100
0010
0200
0000
0000
0000
0310
0100
,  // measure 17
0002
0000
0000
0000
0013
0100
1000
0000
0000
0000
0001
0100
0010
1000
0010
1000
,  // measure 18
0001
0010
0100
0010
2000
0000
0000
0000
3010
0100
0020
0000
0000
0000
0130
0010
,  // measure 19
0002
0000
0000
0000
1003
0000
1001
0000
0001
0100
0010
1000
0001
0010
0100
1000
,  // measure 20
0001
0100
0001
0100
0010
0000
0100
1000
0100
0010
0100
0000
0010
1000
0001
0000
,  // measure 21
1000
0000
0000
0100
0000
0000
1000
0000
0000
0100
0000
0000
0010
0000
0000
0000
0000
0000
0100
0000
0000
0001
0000
0000
0100
0000
0000
0010
0000
0000
0100
0000
0000
0000
0000
0000
0010
0000
0000
0000
0000
0000
0001
0000
1000
0000
0001
0000
,  // measure 22
1000
0010
0100
0001
1000
0000
0001
0010
0100
1000
0001
0000
1000
0010
0001
0010
,  // measure 23
2000
0000
3000
0100
0010
0000
0002
0000
0003
0100
0010
0000
1000
0000
0001
1000
,  // measure 24
0100
0110
0000
0000
0000
0000
0000
0000
,  // measure 25
0000
0000
0000
0000
,  // measure 26
1001
0000
0000
1001
0000
0000
0000
0000
0000
0000
0000
0000
0000
0000
0000
0000
0000
0000
0000
0000
0000
1000
0010
0100
,  // measure 27
0002
0000
0003
0010
0100
0000
2000
0000
3000
0010
0100
0000
0001
0000
1000
0001
,  // measure 28
1000
0000
0100
0000
1100
0000
0100
1000
0001
1000
0010
0000
1010
0000
0001
0100
,  // measure 29
0001
0000
0100
0000
0101
0000
0100
0001
1000
0001
0010
0000
0011
0000
4000
3000
,  // measure 30
0001
0000
0000
0000
0000
0000
0100
0000
0000
0000
0000
0000
0110
0000
0000
0000
0000
0000
0010
0000
0000
1000
0000
0000
0001
0000
0000
1000
0000
0000
0100
0000
0000
0000
0000
0000
0440
0000
0000
0330
0000
0000
0001
0000
1000
0000
0001
0000
,  // measure 31
1000
0000
0001
0000
0101
0000
0101
0000
1000
0010
1000
0100
0010
0100
0010
0001
,  // measure 32
1000
0000
0010
0000
1010
0000
0010
1000
0001
1000
0100
0000
1100
0000
0001
0010
,  // measure 33
0001
0000
0010
0000
0011
0000
0010
0001
1000
0001
0100
0000
0101
0000
4000
3000
,  // measure 34
0001
0000
0000
0000
0000
0000
0001
0000
0000
0000
0000
0000
1000
0000
0001
0000
1000
0000
0001
0000
1000
0000
0001
0000
1000
0000
0000
0000
0000
0000
0001
0000
0000
1000
0000
0000
0100
0000
0000
0000
0000
0000
0010
0000
0000
0001
0000
0000
,  // measure 35
1000
0001
0100
0000
1001
0000
1001
0000
0001
0010
0001
0100
0010
0100
0010
1000
,  // measure 36
0001
0010
0001
0010
0100
0000
0100
0010
0001
0010
0100
0000
0100
0010
0001
0000
,  // measure 37
0001
0100
0001
0100
0010
0000
0100
0010
0001
0010
0100
0000
0001
0010
0100
0000
,  // measure 38
1000
0000
0001
0000
1000
0000
0001
0000
1000
0000
0001
0000
0100
0000
0000
0000
0000
0000
0001
0000
0000
0100
0000
0000
0001
0000
0000
1000
0000
0000
0100
0000
0000
0000
0000
0000
0100
0000
0000
1000
0000
0000
0001
0000
0000
0000
0000
0000
,  // measure 39
1000
0000
0000
0010
0000
0000
0100
0000
0000
0001
0000
0000
4000
0000
0000
3000
0000
0000
0001
0000
0010
0000
0100
0000
1000
0000
0000
0001
0000
0000
1000
0000
0000
0010
0000
0000
1000
0000
0000
0001
0000
0000
0010
0000
0000
0001
0000
0000
,  // measure 40
1000
0010
1000
0010
0100
0000
0100
0010
1000
0010
0100
0000
0100
0010
1000
0000
,  // measure 41
1000
0100
1000
0100
0010
0000
0100
0010
1000
0010
0100
0000
1000
0010
0100
0000
,  // measure 42
0010
1000
0001
0010
0100
0000
0100
1000
0001
0100
0010
0000
0010
1000
0001
0000
,  // measure 43
1000
0100
0010
0100
1000
0000
1001
0000
0001
0100
0010
0100
1000
0100
0010
0100
,  // measure 44
0001
0000
0000
0000
,  // measure 45
0000
0000
0000
0000
,  // measure 46
0000
0000
0000
0000
,  // measure 47
0000
0000
0000
0000
0000
0000
0000
0000
0000
0000
0000
0000
1000
0100
0010
0001
,  // measure 48
1000
0000
0000
0000
,  // measure 49
0000
0000
0000
0000
,  // measure 50
1001
0000
0001
0100
0010
1000
0001
1000
0100
0010
0001
1000
0010
0100
0001
1000
,  // measure 51
0200
0000
0300
0010
0001
0000
0200
0000
0300
0010
1000
0000
0001
0000
1000
0001
,  // measure 52
0010
0100
0010
0100
0001
0000
0100
0001
0100
0010
0001
0010
0100
1000
0001
1000
,  // measure 53
0010
0100
0010
0100
1000
0000
0100
1000
0100
0010
1000
0010
0100
0001
4000
3000
,  // measure 54
0001
0000
0000
0010
0000
0000
0100
0000
0000
0010
0000
0000
1000
0000
0000
0000
0000
0000
0010
0000
0000
1000
0000
0000
0010
0000
0000
0001
0000
0000
1000
0000
0000
0100
0000
0000
0040
0000
0000
0030
0000
0000
0001
0000
1000
0000
0001
0000
,  // measure 55
1000
0010
0100
0010
0001
0000
0010
0001
0010
1000
0001
1000
0100
0010
0001
1000
,  // measure 56
0001
0100
0010
0100
1000
0000
0100
0010
0100
0010
0001
0010
0100
0010
1000
0001
,  // measure 57
1000
0100
0010
0100
0001
0000
0100
0010
0100
0010
1000
0010
0100
0010
0004
0003
,  // measure 58
1000
0000
0000
0000
0000
0000
1001
0000
0000
0000
0000
0000
0001
0000
0100
0000
0001
0000
1000
0000
0100
0000
1000
0000
0001
0000
0000
0000
0000
0000
1000
0000
0000
0000
0000
0000
1010
0000
0000
0000
0000
0000
0010
0000
0000
0100
0000
0000
,  // measure 59
0010
1000
0100
0000
0011
0000
0010
0100
0010
0001
0100
0010
1000
0000
1000
0001
,  // measure 60
1000
0100
0010
0100
0002
0000
0000
0000
1003
0010
0200
0000
0000
0000
0310
0001
,  // measure 61
2000
0000
0000
0000
3010
0100
0001
0000
0000
0000
1000
0100
0010
0001
0010
0001
,  // measure 62
1000
0010
0100
0010
0002
0000
0000
0000
1003
0100
0020
0000
0000
0000
0130
0001
,  // measure 63
2000
0000
0000
0000
3004
0003
1001
0000
1000
0100
0010
0001
1000
0010
0100
0001
,  // measure 64
1000
0001
0010
0100
0010
0100
0001
1000
0010
0100
0010
0100
1000
0100
0010
0001
,  // measure 65
1000
0001
0100
0010
0100
0010
0001
1000
0100
0010
0100
0010
1000
0001
0100
0010
,  // measure 66
1000
0001
0010
0100
0010
0100
0001
1000
0010
0100
0010
0001
1000
0001
1000
0010
,  // measure 67
0001
0010
1000
0100
0001
0000
1000
0010
0001
0100
1000
0100
1000
0100
0010
0100
,  // measure 68
0001
0000
0000
0000
;

//---------------dance-single - ----------------
#NOTES:
     dance-single:
     :
     Hard:
     15:
     0.674360,0.782209,0.230061,0.247103,0.519768,554.000000,527.000000,27.000000,29.000000,0.000000,0.000000,0.674360,0.782209,0.230061,0.247103,0.519768,554.000000,527.000000,27.000000,29.000000,0.000000,0.000000:
// measure 0
0000
0000
0000
0000
,  // measure 1
0000
0000
0000
0000
,  // measure 2
0000
0000
0000
0000
,  // measure 3
0000
0000
0000
0000
,  // measure 4
1001
0000
0000
0000
,  // measure 5
0000
0000
0000
0000
,  // measure 6
1001
0000
1000
0001
1000
0000
0010
0000
1000
0000
0001
0000
0010
0000
0001
0000
,  // measure 7
1002
0000
0003
0100
0001
0000
2001
0000
3000
0100
1000
0000
0001
0000
1000
0000
,  // measure 8
0001
0100
0001
0000
0100
0000
0010
1000
0010
0000
1000
0000
0001
0000
0001
0000
,  // measure 9
1000
0100
1000
0000
0100
0000
0010
0001
0010
0000
0001
0000
1000
0000
1000
0000
,  // measure 10
0001
0100
0001
0000
1000
0000
0001
0010
0001
0000
1000
0000
0001
0000
0001
0000
,  // measure 11
1000
0010
1000
0000
0001
0000
1000
0000
0200
0000
0300
1000
0010
0100
0001
0000
,  // measure 12
1000
0100
0010
0000
0100
0000
0010
0001
1000
0000
0001
0000
0100
0000
0100
0000
,  // measure 13
0001
0100
0010
0000
0100
0000
0010
1000
0001
0000
1000
0000
0100
0000
0100
0000
,  // measure 14
0010
0001
1000
0000
0001
0000
0100
0010
1000
0000
0001
0000
1000
0000
1000
0000
,  // measure 15
0001
0010
0001
0000
1000
0000
0001
0000
0200
0000
0300
0001
0010
0100
1000
0000
,  // measure 16
0001
0100
0001
0100
0020
0000
0000
0000
0130
0000
2000
0000
0000
0000
3100
0000
,  // measure 17
0020
0000
0000
0000
0130
0000
0002
0000
0000
0000
1003
0010
0100
0001
1000
0000
,  // measure 18
0001
0010
0001
0010
0200
0000
0000
0000
0310
0000
2000
0000
0000
0000
3010
0000
,  // measure 19
0200
0000
0000
0000
0310
0000
0001
0000
1000
0010
0100
0001
1000
0000
1000
0000
,  // measure 20
0100
0010
0100
0000
0001
0000
0100
0010
0100
0000
1000
0000
0001
0000
0001
0000
,  // measure 21
0100
0010
0100
0000
1000
0000
0100
0010
0100
0000
0001
0000
1000
0000
0001
0000
,  // measure 22
0010
0100
0010
0000
1000
0000
0010
0100
0010
0000
0001
0000
1000
0010
0100
0000
,  // measure 23
0102
0000
0003
0010
0100
0000
2100
0000
3000
0010
0100
0000
0100
0000
0001
1000
,  // measure 24
0100
0110
0000
0000
0000
0000
0000
0000
,  // measure 25
0000
0000
0000
0000
,  // measure 26
1001
1001
0000
0000
0000
0000
0000
0110
,  // measure 27
2001
0000
3000
0001
0010
0000
1002
0000
0003
1000
0010
0000
1000
0000
0001
1000
,  // measure 28
0001
0000
0010
0000
0100
0000
0001
0000
0100
0000
0010
0000
0001
0000
1000
0001
,  // measure 29
1000
0000
0010
0000
0100
0000
1000
0000
0100
0000
0010
0000
1000
0000
4004
3003
,  // measure 30
0001
0000
0010
0000
1000
0000
0001
0000
0100
0000
1000
0000
0004
0003
1000
0010
,  // measure 31
1000
0000
0100
0000
0110
0000
0110
0000
1001
0000
0000
1000
0010
0100
0001
0000
,  // measure 32
1000
0000
0100
0000
0010
0000
1000
0000
0010
0000
0001
0000
1000
0000
0001
1000
,  // measure 33
0001
0000
0100
0000
0010
0000
0001
0000
0010
0000
1000
0000
0001
0000
4004
3003
,  // measure 34
1000
0100
0002
2003
3010
0001
0011
0000
,  // measure 35
1000
0000
0010
0000
0100
0000
0001
1000
0001
0000
0000
0001
0010
0100
1000
0000
,  // measure 36
0001
0000
0100
0000
0010
0000
0001
0010
0001
0000
0010
0000
0100
0000
0001
0000
,  // measure 37
0010
0000
0100
0000
0001
0000
0100
0001
0100
0000
0010
0000
0001
0000
1000
0000
,  // measure 38
0002
0000
0203
0000
0301
0000
1000
0100
1000
0000
0001
0000
0100
0000
0001
1000
,  // measure 39
0001
0000
0010
0000
0044
0033
0000
0000
1100
0000
0000
1000
0010
0100
0001
0000
,  // measure 40
1000
0000
0100
0000
0010
0000
1000
0010
1000
0000
0010
0000
0100
0000
1000
0000
,  // measure 41
0010
0000
0100
0000
1000
0000
0100
1000
0100
0000
0010
0000
1000
0000
0001
0000
,  // measure 42
1000
0100
1000
0000
0001
0000
1000
0010
1000
0000
0001
0000
1000
0100
1000
0000
,  // measure 43
0001
0100
0001
0000
1000
0000
0001
0010
0200
0000
0300
1000
0010
1000
0010
0100
,  // measure 44
0001
0000
0000
0000
,  // measure 45
0000
0000
0000
0000
,  // measure 46
0000
0000
0000
0000
,  // measure 47
0000
0000
0000
0000
0000
0000
0000
0000
0000
0000
0000
0000
1000
0100
0010
0001
,  // measure 48
1000
0000
0000
0000
,  // measure 49
0000
0000
0000
0000
,  // measure 50
1001
0000
0001
1000
0001
0000
0010
0000
0001
0000
1000
0000
0010
0000
1000
0000
,  // measure 51
1002
0000
0003
0010
0100
0000
2001
0000
3000
0010
0100
0000
0001
0000
1000
0000
,  // measure 52
0001
0010
0100
0000
0001
0000
0100
0010
0001
0000
1000
0001
1000
0001
1000
0000
,  // measure 53
0001
0100
0010
0000
0001
0000
0010
0100
0001
0000
1000
0001
1000
0000
4004
3003
,  // measure 54
1000
0100
0010
0000
1000
0000
0010
0100
1000
0000
0001
1000
0004
0003
4000
3001
,  // measure 55
1000
0010
0100
0000
1000
0000
0100
0010
1000
0000
0001
0100
0001
1000
0100
0000
,  // measure 56
0010
0100
0001
0000
0100
0000
0001
0100
0010
0000
0100
0010
0001
0000
1000
0000
,  // measure 57
0010
0100
1000
0000
0100
0000
1000
0100
0010
0000
1000
0001
1000
0000
4004
3003
,  // measure 58
0001
0000
1001
0000
1000
0100
1000
0100
0010
0000
0001
0000
1001
0000
1000
0000
,  // measure 59
0001
0100
0001
0100
0010
0000
1000
0100
0010
0000
0001
0100
0010
1000
0001
0000
,  // measure 60
1000
0100
1000
0100
0020
0000
0000
0000
0130
0000
0002
0000
0000
0000
1003
0000
,  // measure 61
0020
0000
0000
0000
0130
0000
2000
0000
0000
0000
3001
0010
0100
1000
0001
0000
,  // measure 62
1000
0010
1000
0010
0200
0000
0000
0000
0310
0000
0002
0000
0000
0000
1003
0000
,  // measure 63
0200
0000
0000
0000
0340
0030
1000
0000
0001
0010
0100
1000
0001
0000
0001
0000
,  // measure 64
1000
0010
0100
0000
0010
0000
0100
0010
0001
0000
1000
0000
0100
0000
0001
1000
,  // measure 65
0001
0010
0100
0000
0010
0000
0100
0010
1000
0000
0001
0000
0100
0000
1000
0001
,  // measure 66
1000
0010
0100
0000
0010
0000
0100
0010
0001
0000
1000
0000
0100
0000
0001
0000
,  // measure 67
1000
0001
0010
0001
0100
0000
0001
1000
0010
1000
0100
0010
0100
0010
0001
1000
,  // measure 68
0010
0000
0000
0000
;

//---------------dance-single - ----------------
#NOTES:
     dance-single:
     :
     Medium:
     11:
     0.439429,0.492502,0.187457,0.119291,0.042604,361.000000,339.000000,22.000000,14.000000,0.000000,0.000000,0.439429,0.492502,0.187457,0.119291,0.042604,361.000000,339.000000,22.000000,14.000000,0.000000,0.000000:
0000
0000
0000
0000
,
0000
0000
0000
0000
,
0000
0000
0000
0000
,
0000
0000
0000
0000
,
1001
0000
0000
0000
,
0000
0000
0000
0000
,
1000
0010
1000
0001
0010
0001
1000
0000
,
1010
0000
0000
0011
0000
0000
1010
0000
,
0001
0010
0000
0001
0010
0000
0100
1000
,
0001
0100
0000
0001
0100
0000
0010
1000
,
0001
0010
0000
0001
0010
0000
0100
1000
,
0001
0000
0100
0000
0000
0000
0010
0000
1010
0000
0000
0001
0010
0000
0001
0000
,
1000
0010
0000
1000
0010
0000
0100
0001
,
1000
0100
0000
1000
0100
0000
0010
0001
,
1000
0010
0000
1000
0010
0000
0100
0001
,
1000
0000
0100
0000
0000
0000
0010
0000
0011
0000
0000
1000
0010
0000
1000
0000
,
0001
0010
0200
0000
0001
0302
0000
0100
,
0203
0000
0010
0310
0000
0010
0001
1000
,
0001
0100
0020
0000
0001
0032
0000
0010
,
0023
0000
0000
0000
0130
0000
0010
0000
1000
0000
0001
1000
0001
0000
0000
0000
,
1000
0100
0010
0100
1000
0001
1000
0000
,
0001
0100
0010
0100
0001
1000
0001
0000
,
1000
0100
0010
0001
0100
0010
1000
0000
,
1001
0000
0000
0110
0000
0000
1001
0000
,
0001
0001
0000
0000
0000
0000
0000
0000
,
0000
0000
0000
0000
,
1000
1000
0000
0000
0000
0000
0000
0001
,
0011
0000
0000
1010
0000
0000
0011
0000
,
1000
0010
0100
0000
0010
0100
0001
0000
,
0100
0001
0010
0001
0100
0000
1001
0000
,
1000
0100
0001
0000
0100
1000
0010
0000
,
1000
0000
0010
0000
0001
0000
0010
0000
1000
0000
0000
1000
0001
0000
1000
0000
,
0001
0010
0100
0000
0010
0100
1000
0000
,
0100
1000
0010
1000
0100
0000
1001
0000
,
0001
0100
1000
0000
0100
0001
0010
0000
,
0001
0000
0010
0000
1000
0000
0010
0000
0001
0000
0000
0001
1000
0000
0001
0000
,
0200
0001
0010
1000
,
0010
0000
0301
0010
1000
0010
0001
0000
,
1000
0010
0100
0000
0001
0010
0100
0000
,
1000
0000
0001
0000
0100
0000
0010
0000
1001
0000
0000
1000
0010
0000
1000
0000
,
0200
1000
0010
0001
,
0010
0000
1300
0010
0001
0010
1000
0000
,
0001
0010
0100
0000
1000
0010
0100
0000
,
0001
0000
0010
0000
0100
0000
1000
0000
0001
0000
0100
0001
0100
0000
0010
0000
,
1010
0000
0000
0000
,
0000
0000
0000
0000
,
0000
0000
0000
0000
,
0000
0000
0000
0001
,
0011
0000
0000
0000
,
0000
0000
0000
0000
,
0001
0010
0001
1000
0010
1000
0001
0000
,
0011
0000
0000
1010
0000
0000
0011
0000
,
1000
0010
0000
0001
0010
0000
1000
0001
,
1000
0100
0000
0001
0100
0000
1000
0001
,
1000
0010
0000
0001
0010
0000
1000
0010
,
1000
0000
0100
0000
0001
0000
0100
0000
1000
0000
0000
1000
0010
0000
0100
0000
,
0001
0010
0000
1000
0010
0000
0001
1000
,
0001
0100
0000
1000
0100
0000
0001
1000
,
0001
0010
1000
0010
0001
0000
0011
0000
,
0001
0000
0100
0000
1000
0000
0100
0000
0001
0000
0000
0001
0010
0000
0100
0000
,
1000
0010
0200
0000
1000
2300
0000
0100
,
3200
0000
0310
0100
0000
0010
1000
0001
,
1000
0100
0020
0000
1000
2030
0000
0010
,
3020
0000
0000
0000
0130
0000
0010
0000
0100
0000
1000
0001
1000
0000
0001
0000
,
1000
0010
0100
1000
0100
0001
1000
0000
,
0001
0010
0100
0001
0100
1000
0001
0000
,
1000
0010
0100
1000
0100
0001
1000
0000
,
0001
0010
1000
0001
0100
1000
0001
0000
,
1001
0000
0000
0000
;

//---------------dance-single - ----------------
#NOTES:
     dance-single:
     :
     Easy:
     7:
     0.278752,0.376619,0.170416,0.102249,0.000000,229.000000,209.000000,20.000000,12.000000,0.000000,0.000000,0.278752,0.376619,0.170416,0.102249,0.000000,229.000000,209.000000,20.000000,12.000000,0.000000,0.000000:
0000
0000
0000
0000
,
0000
0000
0000
0000
,
0000
0000
0000
0000
,
0000
0000
0000
0000
,
1001
0000
0000
0000
,
0000
0000
0000
0000
,
0100
0010
0100
0010
,
1001
0000
0000
1001
0000
0000
1001
0000
,
0001
0000
0000
0010
0000
0000
0001
0000
,
1000
0000
0000
0010
0000
0000
1000
0000
,
0001
0000
0000
0010
0000
0000
0001
0000
,
0100
0010
1000
0001
,
1000
0000
0000
0100
0000
0000
1000
0000
,
0001
0000
0000
0100
0000
0000
0001
0000
,
1000
0000
0000
0100
0000
0000
1000
0000
,
0010
0100
0001
1000
,
0100
0000
0020
0000
0000
0032
0000
0000
,
2003
0000
0000
3100
0000
0000
0010
0000
,
0001
0000
0200
0000
0000
0320
0000
0000
,
2030
0000
0000
3001
0100
0000
0010
0000
,
1000
0000
0000
0001
0000
0000
0010
0000
,
0100
0000
0000
1000
0000
0000
0001
0000
,
0100
0000
0000
0010
0000
0000
1000
0000
,
1001
0000
0000
1001
0000
0000
1001
0000
,
0100
0000
0000
0000
,
0000
0000
0000
0000
,
0010
0000
0000
0000
,
1001
0000
0000
1001
0000
0000
1001
0000
,
0001
0010
0100
0000
,
0010
0001
0100
0000
,
0010
1000
0100
0010
,
0001
0000
1000
0001
1000
0000
0000
0000
,
1000
0010
0100
0000
,
0010
1000
0100
0000
,
0010
0001
0100
0010
,
1000
0000
0001
1000
0001
0000
1000
0000
,
0001
0001
0010
0010
,
1000
1000
0100
0100
,
0001
0100
1000
0100
,
0001
0000
1001
0000
0001
1000
0001
0000
,
1000
1000
0010
0010
,
0001
0001
0100
0100
,
1000
0010
0001
0100
,
1000
0000
0001
0000
0100
0010
0100
0000
,
1001
0000
0000
0000
,
0000
0000
0000
0000
,
0000
0000
0000
0000
,
0000
0000
0000
0010
,
1001
0000
0000
0000
,
0000
0000
0000
0000
,
0100
0010
0100
0010
,
1001
0000
0000
1001
0000
0000
1001
0000
,
1000
0010
0000
1000
0010
0000
1000
0000
,
0001
0010
0000
0001
0010
0000
0001
0000
,
1000
0010
0000
1000
0010
0000
1000
0000
,
0100
0000
0100
0000
0010
0001
0010
0000
,
0001
0100
0000
0010
0100
0000
0001
0000
,
1000
0100
0000
0010
0100
0000
1000
0000
,
0001
0100
0000
0010
0100
0000
0001
0000
,
0010
0000
0010
0000
0100
1000
0001
0000
,
0100
0000
0020
0000
0000
2030
0000
0000
,
3002
0000
0000
0103
0000
0000
0010
0000
,
1000
0000
0200
0000
0000
0320
0000
0000
,
0032
0000
0000
1003
0100
0000
0010
0000
,
0001
1000
0000
0010
0100
0000
0001
0000
,
1000
0100
0000
0010
0001
0000
1000
0000
,
0010
0100
0000
0001
1000
0000
0100
0000
,
0011
0000
0000
1100
0000
0000
0101
0000
,
1010
0000
0000
0000
;

//---------------dance-single - ----------------
#NOTES:
     dance-single:
     :
     Beginner:
     3:
     0.157026,0.231766,0.076687,0.085208,0.000000,129.000000,120.000000,9.000000,10.000000,0.000000,0.000000,0.157026,0.231766,0.076687,0.085208,0.000000,129.000000,120.000000,9.000000,10.000000,0.000000,0.000000:
0000
0000
0000
0000
,
0000
0000
0000
0000
,
0000
0000
0000
0000
,
0000
0000
0000
0000
,
1001
0000
0000
0000
,
0000
0000
0000
0000
,
0100
0100
0100
0000
,
2002
0000
0000
3003
0000
0000
0000
0000
,
0001
0000
0001
0000
,
0010
0000
0010
0000
,
1000
0000
1000
0000
,
0100
0000
0001
0000
,
1000
0000
1000
0000
,
0010
0000
0010
0000
,
0001
0000
0001
0000
,
0100
0000
1000
0000
,
0000
0020
0000
0000
,
0030
0000
1000
1000
,
0000
0200
0000
0000
,
0300
0000
0010
0010
,
0010
0000
0010
0000
,
0001
0000
0001
0000
,
1000
0000
1000
0000
,
0010
0000
0100
0000
,
0001
0000
0000
0000
,
0000
0000
0000
0000
,
1000
0000
0000
0000
,
2002
0000
0000
3003
0000
0000
0000
0000
,
0001
0000
0010
0000
,
0001
0000
0010
0000
,
1000
0000
0010
0000
,
1000
0000
0010
0000
,
0001
0000
0100
0000
,
0001
0000
0100
0000
,
1000
0000
0100
0000
,
1000
0000
0100
0000
,
0001
0000
0010
0000
,
0100
0000
1000
1000
,
1000
0000
0010
0000
,
0100
0100
0100
0000
,
0001
0000
1000
0000
,
0100
0000
0010
0010
,
0010
0000
0100
0000
,
0010
0010
0010
0000
,
1001
0000
0000
0000
,
0000
0000
0000
0000
,
0000
0000
0000
0000
,
0000
0000
0000
0000
,
1001
0000
0000
0000
,
0000
0000
0000
0000
,
0100
0100
0100
0000
,
2002
0000
0000
3003
0000
0000
0000
0000
,
1000
1000
1000
0000
,
0010
0010
0010
0000
,
0001
0001
0001
0000
,
0100
0000
1001
0000
,
0001
0001
0001
0000
,
0010
0010
0010
0000
,
1000
1000
1000
0000
,
0100
0000
1001
0000
,
0000
0020
0000
0000
,
0030
0000
0001
0001
,
0000
0200
0000
0000
,
0300
0000
0010
0000
,
1000
1000
1000
0000
,
0001
0001
0001
0000
,
1000
1000
1000
0000
,
0001
1000
0001
0000
,
1001
0000
0000
0000
;
