#VERSION:0.83;
#TITLE:キラースパイダー;
#SUBTITLE:;
#ARTIST:ピノキオピー feat. 初音ミク;
#TITLETRANSLIT:Killer Spider;
#SUBTITLETRANSLIT:;
#ARTISTTRANSLIT:PinocchioP feat. Hatsune Miku;
#GENRE:Vocaloid Pop;
#ORIGIN:;
#CREDIT:;
#BANNER:Killer Spider.png;
#BACKGROUND:Killer Spider-bg.png;
#PREVIEWVID:;
#JACKET:Killer Spider-jacket.png;
#CDIMAGE:;
#DISCIMAGE:;
#LYRICSPATH:;
#CDTITLE:cdtitle.png;
#MUSIC:Killer Spider.ogg;
#OFFSET:0.980277;
#SAMPLESTART:64.313843;
#SAMPLELENGTH:12.549019;
#SELECTABLE:YES;
#BPMS:0.000=153.000,
230.000=76.500,
246.000=153.000;
#STOPS:;
#DELAYS:;
#WARPS:;
#TIMESIGNATURES:0.000=4=4;
#TICKCOUNTS:0.000=4;
#COMBOS:0.000=1;
#SPEEDS:0.000=1.000=0.000=0;
#SCROLLS:0.000=1.000,
229.000=0.500,
230.000=1.000;
#FAKES:;
#LABELS:0.000=Song Start;
#BGCHANGES:2.500=Killer Spider.mp4=1.000=1=0=1===CrossFade==,
320.000=Killer Spider-bg.png=1.000=1=0=1===CrossFade==,
99999=-nosongbg-=1.000=0=0=0 // don't automatically add -songbackground-
;
#KEYSOUNDS:;
#ATTACKS:
;

//---------------dance-single - ----------------
#NOTEDATA:;
#CHARTNAME:;
#STEPSTYPE:dance-single;
#DESCRIPTION:;
#CHARTSTYLE:;
#DIFFICULTY:Challenge;
#METER:16;
#RADARVALUES:0.802957,0.805123,0.235385,0.620560,1.251819,788.000000,755.000000,33.000000,87.000000,27.000000,0.000000,0.000000,0.000000,0.000000,0.802957,0.805123,0.235385,0.620560,1.251819,788.000000,755.000000,33.000000,87.000000,27.000000,0.000000,0.000000,0.000000,0.000000;
#CREDIT:;
#NOTES:
// measure 0
0000
0000
0000
0000
,  // measure 1
0000
0000
0000
0000
,  // measure 2
0000
0000
0000
0000
0000
0000
0000
0001
,  // measure 3
1000
0000
0200
0010
0000
1300
0000
1000
0001
0000
0200
0010
0000
0301
0000
0002
,  // measure 4
0000
0013
0200
0000
1300
0002
0000
1003
0010
0100
0000
0100
0001
0000
1000
0000
,  // measure 5
0001
0000
0020
0100
0000
0031
0000
0001
1000
0000
0020
0100
0000
1030
0000
1000
,  // measure 6
0200
0000
0310
0002
0000
2003
0000
3001
0100
0000
0000
0000
1001
0000
0000
0000
,  // measure 7
1000
0000
0001
1000
0100
0010
0100
0000
0002
0000
0000
0103
0010
0000
0100
0000
,  // measure 8
1000
0000
0001
0100
0010
0100
0000
0100
2000
0000
0000
3100
0010
0000
0100
0000
,  // measure 9
0001
1000
0001
1000
0100
0010
0000
0010
0001
1000
0001
0100
0001
1000
0100
2000
,  // measure 10
0002
3003
0000
0000
,  // measure 11
0000
0000
0000
0000
,  // measure 12
1000
0010
1000
0010
0000
0010
0000
1000
0001
0010
0001
0010
0200
0000
0000
0000
,  // measure 13
1300
0001
1000
0010
0000
0010
000M
0010
0001
1000
0001
0010
M000
0010
0000
2000
,  // measure 14
0000
0000
0001
0000
0001
0001
0000
0001
0000
0001
0000
3100
0000
0100
0010
0000
,  // measure 15
0001
1000
0001
0100
0000
0100
M000
0100
1000
0001
1000
0100
000M
0100
0000
0002
,  // measure 16
0000
0000
2003
0000
3010
0100
0010
0000
0002
0000
0013
0100
0010
0000
1000
0000
,  // measure 17
0001
1000
0001
0010
0000
0010
M000
0010
1000
0001
1000
0010
000M
0010
0000
0002
,  // measure 18
0000
0000
1000
0000
1000
1000
0000
1000
0000
1000
0000
0103
0000
0100
0010
0000
,  // measure 19
1000
0100
1000
0100
0010
0001
0000
0001
0100
0001
0100
0010
1000
0000
0100
0000
,  // measure 20
0020
0100
0000
0100
0000
0130
0000
0010
0000
0001
0000
1000
0010
0000
0100
0000
,  // measure 21
0001
0000
0010
0001
0010
0000
0001
0020
0100
0000
0000
0031
0011
0000
1001
0000
,  // measure 22
1000
0010
1000
0010
0100
0010
1000
0020
0100
0000
0000
1030
1010
0000
1001
0000
,  // measure 23
0001
0010
0000
0010
0100
0000
1000
0010
0000
0010
0100
0000
0001
1000
0000
1000
,  // measure 24
0100
0000
0010
0001
0100
0010
0100
0010
2000
0001
0000
0001
0000
0001
0000
3001
,  // measure 25
1000
0000
0100
1000
0100
1000
0200
0000
0010
0000
0000
1300
1100
0000
1001
0000
,  // measure 26
0001
0100
0010
0100
0001
0000
0200
0000
0010
0000
0000
0301
0101
0000
1001
0000
,  // measure 27
1000
0100
0001
0100
1000
0010
0001
0010
,  // measure 28
2000
0000
0000
0000
0000
0000
3001
2000
0100
0000
0000
0000
0000
0000
0000
0000
,  // measure 29
3002
0000
0000
0000
0000
0000
1003
0002
0100
0000
0000
0000
0000
0000
0000
0000
,  // measure 30
1003
1000
0100
0010
0001
0001
0100
0010
,  // measure 31
1000
0100
0010
0001
1000
0001
0100
0010
1000
0001
0010
0001
1000
0010
1000
0001
,  // measure 32
0020
0000
0000
0000
,  // measure 33
0200
0000
0000
0000
0000
0000
0330
0000
0000
0000
0000
0000
1001
0000
0000
1000
0001
1000
0001
0000
0000
1000
0000
0000
,  // measure 34
0001
0100
0010
0000
1000
0100
0010
0000
0001
0100
0010
0000
1000
0100
0010
0100
,  // measure 35
0002
0000
0000
0000
0103
0000
0001
0100
0020
0000
0032
0000
2003
0000
3020
0000
,  // measure 36
0130
0000
0001
1000
0100
0000
0010
0001
1000
0000
0010
0100
0001
0000
0010
0100
,  // measure 37
1000
0001
0100
0010
1000
0001
0100
0010
0000
1010
0000
1001
0000
1000
0001
0000
,  // measure 38
1000
0100
0010
0000
0001
0100
0010
0000
1000
0100
0010
0000
0001
0100
0010
0100
,  // measure 39
2000
0000
0000
0000
3100
0000
1000
0100
0020
0000
2030
0000
3002
0000
0023
0000
,  // measure 40
0130
0000
1000
0001
0100
0000
0010
1000
0001
0000
0000
0000
1001
0000
0000
0000
,  // measure 41
0001
0010
0100
1000
0001
0010
0100
1000
0010
0100
0001
1000
0100
0010
0100
0010
,  // measure 42
2000
0000
3010
0100
0010
0000
0001
0010
0000
0011
0M00
0010
1000
0000
0010
0000
,  // measure 43
0002
0000
0013
0100
0010
0000
1000
0010
0000
1010
0M00
0010
0001
0000
0010
0000
,  // measure 44
2000
0000
3010
0100
0010
0000
0001
0010
0000
1010
0M00
0010
0100
0000
0001
0000
,  // measure 45
2002
0000
3003
0000
1000
0100
0010
0001
0010
0100
1000
0001
1000
0010
0000
0010
,  // measure 46
0100
0001
0010
000M
0010
1000
0100
M000
0100
0001
0010
0001
0000
0001
0000
1000
,  // measure 47
0100
1000
0010
M000
0010
0001
0100
000M
0100
1000
0010
1000
0000
1000
0000
0001
,  // measure 48
1000
0100
0010
0000
0100
0000
0010
0000
0001
0000
0100
0000
1000
0000
0100
0000
,  // measure 49
0101
1010
1200
0320
,  // measure 50
0031
0000
0010
0000
0100
1000
0000
0010
0000
0010
0000
1000
0010
0100
0001
0000
,  // measure 51
0000
0000
1002
0000
0010
0010
0000
0010
0000
0013
0000
0001
0000
0001
0100
0000
,  // measure 52
2001
0000
0010
0000
0010
0010
0000
0010
0000
3010
0000
1000
0000
1000
0100
0010
,  // measure 53
0002
0000
1000
0000
1000
1003
0000
2001
0000
0000
3010
1000
0100
0000
0010
0001
,  // measure 54
0200
0000
0010
0000
0010
0310
0000
2000
0000
0001
0000
3001
0001
0000
1000
0000
,  // measure 55
0100
0010
0200
0000
0010
0310
0000
0002
0000
1003
0001
1000
0010
0000
0010
0000
,  // measure 56
2002
0000
3003
0000
0010
0010
0000
1001
0000
1001
0000
0001
0100
0010
1000
0001
,  // measure 57
0010
0000
0000
0000
0220
0000
0000
0000
0330
0001
1000
0000
0002
0000
0000
0023
,  // measure 58
0000
0000
0030
0001
2000
0000
0000
3020
0000
1030
0001
1000
0100
0100
0010
0010
,  // measure 59
0001
0001
1000
1000
0020
0000
0000
0000
0030
0000
0000
0100
0100
0010
0010
1000
,  // measure 60
1000
0000
0000
0001
0010
0000
0100
0000
0020
0000
0000
0000
0030
0000
0100
0000
0010
0000
0001
0000
1000
0000
0010
0000
0100
0000
0100
0000
0001
0000
0001
0000
,  // measure 61
1000
0000
0100
0000
0010
0000
0000
0100
0020
0000
0000
0000
0000
0000
0000
0000
0M00
0000
0000
0000
0130
0000
0000
0000
0020
0000
0000
0000
0000
0000
0000
0000
,  // measure 62
2030
0000
3010
0001
1000
0000
0001
0100
0000
0101
00M0
0100
1000
0000
1000
0010
,  // measure 63
0002
0000
0013
1000
0001
0000
1000
0100
0000
1100
00M0
0100
0001
0000
0001
0010
,  // measure 64
2000
0000
3010
0001
1000
0000
0001
0100
0000
0101
00M0
0100
1000
0000
0010
0000
,  // measure 65
0220
0000
0330
0000
0001
0100
0010
1000
0001
1000
0100
0010
0001
1000
0000
1000
,  // measure 66
0001
0100
0010
0M00
0010
0001
0100
000M
0100
0010
0001
0100
0000
0100
0000
0001
,  // measure 67
1000
0100
0010
0M00
0010
1000
0100
M000
0100
0010
1000
0100
0000
0100
0000
0010
,  // measure 68
0001
0100
1000
0100
0001
0010
1000
0010
,  // measure 69
0002
0000
0013
0000
2200
3300
0101
0000
,  // measure 70
0001
0100
0001
0010
0000
0010
M000
0010
1000
0100
1000
0010
000M
0010
0000
0002
,  // measure 71
0000
0000
0100
0000
0100
0100
0000
1000
0000
1000
0000
0010
0000
0013
0001
0000
,  // measure 72
1000
0010
1000
0100
0000
0100
000M
0100
0001
0010
0001
0100
M000
0100
0000
2000
,  // measure 73
0000
0000
3002
0000
0013
0100
0010
0000
2000
0000
3010
0100
0010
0000
0001
0000
,  // measure 74
1000
0100
1000
0010
0000
0010
000M
0010
0001
0100
0001
0010
M000
0010
0000
2000
,  // measure 75
0000
0000
0100
0000
0100
0100
0000
0001
0000
0001
0000
0010
0000
3010
1000
0000
,  // measure 76
0001
0010
0100
1000
0001
0010
0000
0020
1000
0000
0000
0130
0010
0001
0000
0001
,  // measure 77
1000
0010
0100
0001
1000
0010
0000
0020
0001
0000
0000
0130
0010
1000
0000
1000
,  // measure 78
0001
0010
0100
1000
0001
0100
0000
0010
1000
0001
0010
0100
1000
0000
0001
0000
,  // measure 79
2000
0010
0000
0010
0000
0010
0000
3010
0100
0000
0010
1000
0001
0010
0200
0000
,  // measure 80
0020
0000
0000
0000
0000
0330
0000
0000
;

//---------------dance-single - ----------------
#NOTEDATA:;
#CHARTNAME:;
#STEPSTYPE:dance-single;
#DESCRIPTION:;
#CHARTSTYLE:;
#DIFFICULTY:Hard;
#METER:13;
#RADARVALUES:0.588971,0.690105,0.185455,0.641958,0.595595,578.000000,552.000000,26.000000,90.000000,0.000000,0.000000,0.000000,0.000000,0.000000,0.588971,0.690105,0.185455,0.641958,0.595595,578.000000,552.000000,26.000000,90.000000,0.000000,0.000000,0.000000,0.000000,0.000000;
#CREDIT:;
#NOTES:
// measure 0
0000
0000
0000
0000
,  // measure 1
0000
0000
0000
0000
,  // measure 2
0000
0000
0000
0000
,  // measure 3
1002
0000
0000
0013
0000
0001
0000
0000
2001
0000
0000
3010
0000
1000
0000
0000
,  // measure 4
0001
0010
0100
1000
0010
0100
0001
0000
,  // measure 5
2001
0000
0000
3100
0000
1000
0000
0000
1002
0000
0000
0103
0000
0001
0000
0000
,  // measure 6
1000
0010
0001
0010
1000
0000
1001
0000
,  // measure 7
0001
0000
0010
0000
0001
0000
0020
0000
0100
0000
0000
0031
0010
0000
0001
0000
,  // measure 8
1000
0000
0010
0000
1000
0000
0020
0000
0100
0000
0000
1030
0010
0000
1000
0000
,  // measure 9
0001
0000
0010
0000
0100
0000
0000
0100
1000
0000
0010
0000
0100
0000
0002
0000
,  // measure 10
2000
3003
0000
0000
,  // measure 11
0000
0000
0000
0000
,  // measure 12
0000
0000
0000
1001
,  // measure 13
0001
0000
0010
0001
0000
0010
0000
0001
1000
0000
0010
2000
0000
0010
0000
3001
,  // measure 14
0000
0000
0010
0000
0010
0000
0000
0100
0000
0010
0000
0100
0000
1000
0001
0000
,  // measure 15
1000
0000
0010
0100
0000
0010
0000
0100
0001
0000
1000
0200
0000
0010
0000
1300
,  // measure 16
0000
0000
1001
0000
0000
0010
0000
0000
1001
0000
0000
0000
0001
0000
0001
0000
,  // measure 17
1000
0000
0010
1000
0000
0010
0000
1000
0001
0000
0010
0002
0000
0010
0000
1003
,  // measure 18
0000
0000
0010
0000
0010
0000
0000
0100
0000
0010
0000
0100
0000
0001
1000
0000
,  // measure 19
0001
0000
0010
0000
0100
1000
0000
0002
0000
0000
0103
0010
0100
0000
0010
0000
,  // measure 20
2000
3000
0000
0000
,  // measure 21
1000
0000
0010
0000
1000
0000
0020
0000
0001
0000
0000
1030
0010
0000
1000
0000
,  // measure 22
0001
0000
0010
0000
0001
0000
0020
0000
1000
0000
0000
0031
0010
0000
0001
0000
,  // measure 23
1000
0000
0000
0000
1010
0000
0000
0000
0001
0000
0000
0000
0011
0000
0000
1000
,  // measure 24
0010
0100
0001
1000
0200
0000
0000
0000
,  // measure 25
1300
0000
0100
0000
1000
0000
0200
0000
0001
0000
0000
0310
0100
0000
1000
0000
,  // measure 26
0001
0000
0100
0000
0001
0000
0200
0000
1000
0000
0000
0310
0100
0000
0001
0000
,  // measure 27
1000
0100
1000
0100
0010
0001
0100
0010
,  // measure 28
2000
0000
0000
0010
0020
0000
3030
0000
,  // measure 29
0002
0000
0000
0010
0020
0000
0033
0000
,  // measure 30
1000
0010
0100
0010
0001
0010
0100
0010
,  // measure 31
1000
0100
0001
0100
1000
0010
0001
0010
,  // measure 32
2000
0000
0000
0000
,  // measure 33
0002
0000
0000
0000
3003
0000
0000
0000
1001
0000
0001
1000
0001
0000
1000
0000
,  // measure 34
0002
0000
0100
0000
2003
0000
0100
0000
3002
0000
0010
0000
1003
0000
0010
1000
,  // measure 35
0020
0000
0031
0010
1000
0100
0001
0100
,  // measure 36
2000
0010
3020
0100
0230
0001
0302
1000
,  // measure 37
2003
0000
0000
0000
0100
0000
0000
3001
0000
0001
0000
1000
0000
1000
0001
0000
,  // measure 38
2000
0000
0100
0000
3002
0000
0100
0000
2003
0000
0010
0000
3001
0000
0010
0001
,  // measure 39
0020
0000
1030
0010
0001
0100
1000
0100
,  // measure 40
0002
0010
0023
0100
0230
1000
2300
0001
,  // measure 41
3002
0000
2003
0000
3001
0100
1000
0000
,  // measure 42
2100
0000
0000
0000
3100
0000
0010
1000
0000
1000
0000
0001
0010
0000
0100
0000
,  // measure 43
0002
0000
0000
0000
0103
0000
0010
0001
0000
0001
0000
1000
0010
0000
0100
0000
,  // measure 44
2000
0000
0000
0000
3100
0000
0010
1000
0000
1000
0000
0001
0010
0000
0100
0000
,  // measure 45
2000
0000
3001
0100
0010
1000
0001
0000
,  // measure 46
2000
0000
0100
0000
3002
0000
0010
0000
1003
0000
0001
0100
0000
0100
0000
0000
,  // measure 47
0002
0000
0100
0000
2003
0000
0010
0000
3001
0000
1000
0100
0000
0100
0000
0000
,  // measure 48
1000
0001
1000
0000
0001
0000
0100
0000
0010
0000
1000
0000
0100
0000
0010
0000
,  // measure 49
0011
1100
1020
0230
,  // measure 50
0301
0000
1000
0000
0100
0000
0000
0010
0000
0001
0000
0000
1000
0000
0020
0000
,  // measure 51
0030
0000
0100
0000
0010
1000
0000
0010
0000
1000
0000
0010
0000
0000
1002
0000
,  // measure 52
0013
0000
0100
0000
0010
0001
0000
0010
0000
0001
0000
0010
0000
0000
2001
0000
,  // measure 53
3010
0000
0100
0000
0010
1000
0000
0002
0000
0000
1003
0100
1000
0000
0001
0100
,  // measure 54
0001
0000
1000
0000
0100
0010
0000
0001
0000
0001
0000
0100
0010
0000
1000
0000
,  // measure 55
2020
0000
3030
0000
0010
0100
0000
0001
0000
1000
0100
0000
0010
0000
0001
0000
,  // measure 56
2002
0000
3003
0000
0001
0100
0000
0010
0000
1000
0000
0100
0010
0000
0100
0010
,  // measure 57
0100
0000
0000
0000
2002
0000
0000
0000
3003
0000
0000
0000
0002
0000
0000
0203
,  // measure 58
0000
0000
0000
0310
2000
0000
0000
3200
0000
0310
0001
1000
0010
0100
0010
0100
,  // measure 59
0001
1000
0001
1000
0200
0000
0000
0000
0300
0000
0000
0010
0100
0010
0100
1000
,  // measure 60
0001
0000
0100
0010
0200
0000
0000
0301
0100
0010
1000
0001
1000
0100
1000
0100
,  // measure 61
0010
0001
1000
0100
0020
0000
0000
0000
0000
0000
0100
0000
1030
0000
0000
0000
,  // measure 62
2010
0000
0000
0000
3010
0000
0100
1000
0000
0001
0000
0001
1000
0000
0010
0000
,  // measure 63
0002
0000
0000
0000
0013
0000
0100
0001
0000
1000
0000
1000
0001
0000
0010
0000
,  // measure 64
2000
0000
0000
0000
3010
0000
0100
1000
0000
0001
0000
0001
1000
0000
0010
0000
,  // measure 65
0200
0000
0301
1000
0100
0010
0001
0000
,  // measure 66
2000
0000
0010
0000
3200
0000
0010
0000
1300
0000
0001
1000
0000
1000
0000
0000
,  // measure 67
0002
0000
0010
0000
0203
0000
0010
0000
0301
0000
1000
0001
0000
0001
0000
0000
,  // measure 68
0001
0100
1000
0100
0001
0010
1000
0010
,  // measure 69
0002
0000
0013
0000
2200
3300
0101
0000
,  // measure 70
1000
0000
0010
0100
0000
0010
0000
0100
0001
0000
0010
0200
0000
0010
0000
0301
,  // measure 71
0000
0000
0100
0000
0100
0000
0000
0010
0000
0100
0000
1000
0000
0001
1000
0000
,  // measure 72
0001
0000
0100
0010
0000
1000
0000
0001
0010
0000
0100
2000
0000
0001
0000
3010
,  // measure 73
0000
0000
1001
0000
0000
0010
0000
0000
1001
0000
0000
0000
1000
0000
1000
0000
,  // measure 74
0001
0000
0010
0100
0000
0010
0000
0100
1000
0000
0010
0200
0000
0010
0000
1300
,  // measure 75
0000
0000
0100
0000
0100
0000
0000
0010
0000
0100
0000
0001
0000
1000
0001
0000
,  // measure 76
1000
0000
0100
0000
1000
0100
0000
0200
0010
0000
0000
0301
0000
0100
0000
1000
,  // measure 77
0001
0000
0100
0000
0001
0100
0000
0200
0010
0000
0000
1300
0000
0100
0000
0001
,  // measure 78
1000
0000
0100
0000
0010
0001
0000
1000
0010
0000
0100
0010
0100
0000
0010
0000
,  // measure 79
0220
0000
0000
0000
0330
0000
0000
0000
0001
0000
1000
0000
0001
1000
0200
0000
,  // measure 80
0020
0000
0000
0000
0000
0330
0000
0000
;

//---------------dance-single - ----------------
#NOTEDATA:;
#CHARTNAME:;
#STEPSTYPE:dance-single;
#DESCRIPTION:;
#CHARTSTYLE:;
#DIFFICULTY:Medium;
#METER:10;
#RADARVALUES:0.456504,0.460070,0.392308,0.499301,0.060629,448.000000,393.000000,55.000000,70.000000,0.000000,0.000000,0.000000,0.000000,0.000000,0.456504,0.460070,0.392308,0.499301,0.060629,448.000000,393.000000,55.000000,70.000000,0.000000,0.000000,0.000000,0.000000,0.000000;
#CREDIT:;
#NOTES:
// measure 0
0000
0000
0000
0000
,  // measure 1
0000
0000
0000
0000
,  // measure 2
0000
0000
0000
0000
,  // measure 3
1002
0013
1002
0013
,  // measure 4
0001
0010
0100
0000
0010
0100
1000
0000
,  // measure 5
2001
3010
2001
3010
,  // measure 6
1000
0010
0100
0001
1000
0000
1001
0000
,  // measure 7
0001
0010
0001
0010
0100
0000
0011
0000
,  // measure 8
1000
0010
1000
0010
0100
0000
1010
0000
,  // measure 9
0001
1000
0100
0000
1000
0001
0100
0000
,  // measure 10
0220
0330
0000
0000
,  // measure 11
0000
0000
0000
0000
,  // measure 12
2000
0000
0000
3001
,  // measure 13
0021
0130
0021
0130
,  // measure 14
0010
0001
0001
0000
0010
0001
0100
0000
,  // measure 15
1002
0103
2001
3100
,  // measure 16
1000
0000
0002
0000
0000
2003
0000
0000
3001
0000
0100
0000
0010
0000
0000
0000
,  // measure 17
1020
0130
1020
0130
,  // measure 18
0010
1000
1000
0000
0010
1000
0100
0000
,  // measure 19
0010
0001
1000
0000
0001
1000
0010
0000
,  // measure 20
2002
3003
0000
0000
,  // measure 21
1000
0100
1000
0100
0001
0000
1100
0000
,  // measure 22
0001
0100
0001
0100
1000
0000
0101
0000
,  // measure 23
1000
0100
0010
0001
,  // measure 24
1000
0010
0100
0001
0020
0000
0030
0000
,  // measure 25
0001
0010
0001
0010
1000
0000
0011
0000
,  // measure 26
1000
0010
1000
0010
0001
0000
1010
0000
,  // measure 27
0001
0010
0100
1000
0100
0010
0001
1000
,  // measure 28
0002
0000
0000
0100
0200
0000
0303
0000
,  // measure 29
2000
0000
0000
0100
0200
0000
3300
0000
,  // measure 30
0011
1000
1010
0001
,  // measure 31
0010
0100
1000
0001
0100
0010
1000
0001
,  // measure 32
0020
0000
0000
0000
,  // measure 33
0200
0330
0110
1001
,  // measure 34
0001
0100
0001
0100
0010
0100
0010
0100
,  // measure 35
2000
0000
0000
3100
0010
0100
0001
0000
,  // measure 36
1000
0010
0100
0000
0001
0010
0100
0000
,  // measure 37
2200
0000
3300
0000
0001
0100
0010
0000
,  // measure 38
1000
0100
1000
0100
0010
0100
0010
0100
,  // measure 39
0002
0000
0000
0103
0010
0100
1000
0000
,  // measure 40
0001
0100
0010
0000
1000
0100
0010
0000
,  // measure 41
0011
0000
1100
0000
0001
1000
0020
0000
,  // measure 42
0032
0000
0013
1000
0001
0000
0001
0010
,  // measure 43
2000
0000
3010
0001
1000
0000
1000
0010
,  // measure 44
0002
0000
0013
1000
0001
0000
0001
1000
,  // measure 45
0200
0000
0310
0001
1000
0001
0100
0000
,  // measure 46
0101
0000
0101
0000
1002
0013
0000
0000
,  // measure 47
1100
0000
1100
0000
2001
3010
0000
0000
,  // measure 48
0100
0010
0100
0010
1000
0001
0010
0100
,  // measure 49
0010
1001
2000
3002
,  // measure 50
0103
0010
1000
0000
0100
0010
0001
2000
,  // measure 51
3000
0000
0001
0000
0001
0000
0000
0001
0000
0100
0000
0001
0000
0000
0000
0000
,  // measure 52
0001
0000
1000
0000
1000
0000
0000
1000
0000
0100
0000
1000
0000
0000
0000
0000
,  // measure 53
0001
0000
1000
0000
0001
0000
0000
2002
0000
0000
3003
0000
1001
0000
0000
0000
,  // measure 54
1000
0000
1000
0000
0010
0000
0000
1000
0000
0010
0000
1000
0000
0000
0000
0000
,  // measure 55
0110
0000
1001
0000
1000
0001
1000
0000
,  // measure 56
0001
0000
0001
0000
0010
0000
0000
0001
0000
0010
0000
0001
0000
0000
0000
0000
,  // measure 57
0110
0000
0000
0000
2002
0000
0000
0000
3003
0000
0000
0000
0002
0000
0000
0020
,  // measure 58
0000
0000
0033
0000
2000
0000
0000
0020
0000
0000
3030
0000
0001
0000
0010
0000
,  // measure 59
0100
1000
0002
0000
0003
0000
1000
0010
,  // measure 60
0100
0001
2000
0000
3100
0010
0001
0100
,  // measure 61
0010
1000
0200
0000
0000
0000
0320
0000
,  // measure 62
2030
0000
3001
0100
1000
0000
1000
0010
,  // measure 63
0002
0000
1003
0100
0001
0000
0001
0010
,  // measure 64
2000
0000
3001
0100
1000
0000
1000
0001
,  // measure 65
0200
0000
0310
1000
0001
1000
0100
0000
,  // measure 66
1100
0000
0110
0000
0012
1003
0000
0000
,  // measure 67
0101
0000
0110
0000
2010
3001
0000
0000
,  // measure 68
1000
0010
0100
0001
1000
0100
0010
0001
,  // measure 69
2000
3001
0110
1001
,  // measure 70
1020
0130
2010
3100
,  // measure 71
1000
0010
0010
0000
0100
0001
0010
0000
,  // measure 72
2001
3100
1002
0103
,  // measure 73
0001
0000
2000
0000
0000
3002
0000
0000
1003
0000
0100
0000
0010
0000
0000
0000
,  // measure 74
0021
0130
0012
0103
,  // measure 75
0001
0010
0010
0000
0100
1000
0010
0000
,  // measure 76
1000
0010
0001
0000
2010
0000
3001
0000
,  // measure 77
0001
0010
1000
0000
0012
0000
1003
0000
,  // measure 78
0001
0100
0010
0000
1000
0100
0010
0001
,  // measure 79
2000
0000
3000
0000
0001
0100
1000
0200
,  // measure 80
0002
0000
0000
0000
0000
0303
0000
0000
;

//---------------dance-single - ----------------
#NOTEDATA:;
#CHARTNAME:;
#STEPSTYPE:dance-single;
#DESCRIPTION:;
#CHARTSTYLE:;
#DIFFICULTY:Easy;
#METER:8;
#RADARVALUES:0.313846,0.373807,0.178322,0.634826,0.000000,308.000000,283.000000,25.000000,89.000000,0.000000,0.000000,0.000000,0.000000,0.000000,0.313846,0.373807,0.178322,0.634826,0.000000,308.000000,283.000000,25.000000,89.000000,0.000000,0.000000,0.000000,0.000000,0.000000;
#CREDIT:;
#NOTES:
// measure 0
0000
0000
0000
0000
,  // measure 1
0000
0000
0000
0000
,  // measure 2
0000
0000
0000
0000
,  // measure 3
0002
0013
0002
0013
,  // measure 4
0100
0000
0010
0000
0100
0010
0100
0000
,  // measure 5
2000
3010
2000
3010
,  // measure 6
0100
0010
0100
0000
2002
0000
3003
0000
,  // measure 7
1000
0100
0010
0000
0002
0000
1003
0000
,  // measure 8
0001
0100
0010
0000
2000
0000
3001
0000
,  // measure 9
1000
1000
0001
0001
,  // measure 10
0020
0030
0000
0000
,  // measure 11
0000
0000
0000
0000
,  // measure 12
0002
0000
0003
1001
,  // measure 13
0002
0010
2003
0010
,  // measure 14
3000
0001
0001
0000
0001
1000
0001
0000
,  // measure 15
2000
0100
3002
0100
,  // measure 16
0003
2000
0000
3000
0002
0000
1003
0001
,  // measure 17
2000
0010
3002
0010
,  // measure 18
0003
1000
1000
0000
1000
0001
1000
0000
,  // measure 19
0001
0100
0010
0000
1000
0000
1000
0100
,  // measure 20
0020
0030
0000
0000
,  // measure 21
0001
0010
0100
0000
1000
0000
0011
0000
,  // measure 22
1000
0010
0100
0000
0001
0000
1010
0000
,  // measure 23
0001
0001
1000
1000
,  // measure 24
0001
0010
0200
0300
,  // measure 25
1000
0100
0010
0000
0001
0000
1100
0000
,  // measure 26
0001
0100
0010
0000
1000
0000
0101
0000
,  // measure 27
1000
0100
0010
0001
,  // measure 28
2000
0000
0020
3030
,  // measure 29
0002
0000
0020
0033
,  // measure 30
2000
0010
3002
0010
,  // measure 31
1003
0010
0001
0100
,  // measure 32
2000
0000
0000
0000
,  // measure 33
0002
0000
0000
3003
,  // measure 34
0002
0203
2300
3200
,  // measure 35
0302
0000
0000
0103
0010
0000
1010
0000
,  // measure 36
1000
0001
0020
0000
0230
0000
2300
0000
,  // measure 37
3002
0003
1000
0001
,  // measure 38
2000
3200
0302
0203
,  // measure 39
2300
0000
0000
3100
0010
0000
0011
0000
,  // measure 40
0001
1000
0020
0000
0230
0000
0302
0000
,  // measure 41
2003
0000
3000
0000
0001
1000
0001
0000
,  // measure 42
0012
0000
0000
0200
0000
0003
0000
0310
,  // measure 43
2000
0000
0000
0200
0000
3000
0000
0310
,  // measure 44
0002
0000
0000
0200
0000
0003
0000
0010
,  // measure 45
0310
1000
0001
0010
,  // measure 46
1100
0000
1100
0000
0001
1000
0000
0000
,  // measure 47
0101
0000
0101
0000
1000
0001
0000
0000
,  // measure 48
1000
0100
0010
0001
,  // measure 49
0110
1001
2000
3002
,  // measure 50
0103
0000
0010
0000
0100
0000
0010
0200
,  // measure 51
0300
0001
0002
0000
0000
0000
0003
0000
,  // measure 52
1000
1000
2000
0000
0000
0000
3000
0000
,  // measure 53
0001
0001
0002
0000
0000
0000
0003
0000
,  // measure 54
0001
0010
0200
0000
0000
0000
0300
0000
,  // measure 55
1000
0010
0200
0000
0000
0000
0300
0000
,  // measure 56
0010
0010
0020
0000
0000
0000
0000
0000
,  // measure 57
0130
2002
3003
0002
,  // measure 58
0003
2000
3000
0100
,  // measure 59
0010
0200
0300
1000
,  // measure 60
0001
0200
0300
0010
,  // measure 61
1000
0002
0003
0000
,  // measure 62
1002
0000
0000
0020
0000
0003
0000
0130
,  // measure 63
2000
0000
0000
0020
0000
3000
0000
0130
,  // measure 64
0002
0000
0000
0020
0000
0003
0000
0100
,  // measure 65
0130
1000
0001
0100
,  // measure 66
1010
0000
0101
0000
0001
0010
0000
0000
,  // measure 67
0011
0000
1100
0000
1000
0010
0000
0000
,  // measure 68
1000
0001
0010
0100
,  // measure 69
2000
3001
0110
1001
,  // measure 70
2000
0010
3002
0100
,  // measure 71
0003
1000
1000
0000
1000
0100
0010
0000
,  // measure 72
0002
0100
2003
0100
,  // measure 73
3000
0002
0000
0003
2000
0000
3001
1000
,  // measure 74
0002
0010
2003
0100
,  // measure 75
3000
0001
0001
0000
0001
0100
0010
0000
,  // measure 76
1000
0100
0010
0000
0022
0000
0033
0000
,  // measure 77
0001
0100
0010
0000
2020
0000
3030
0000
,  // measure 78
1000
0100
0010
0000
0001
0000
0001
0100
,  // measure 79
0020
0000
0030
0000
1000
0100
0010
0002
,  // measure 80
0000
0000
0000
0000
0000
0003
0000
0000
;

//---------------dance-single - ----------------
#NOTEDATA:;
#CHARTNAME:;
#STEPSTYPE:dance-single;
#DESCRIPTION:;
#CHARTSTYLE:;
#DIFFICULTY:Beginner;
#METER:4;
#RADARVALUES:0.201758,0.301810,0.192588,0.128392,0.000000,198.000000,171.000000,27.000000,18.000000,0.000000,0.000000,0.000000,0.000000,0.000000,0.201758,0.301810,0.192588,0.128392,0.000000,198.000000,171.000000,27.000000,18.000000,0.000000,0.000000,0.000000,0.000000,0.000000;
#CREDIT:;
#OFFSET:0.980277;
#BPMS:0.000000=153.000000
;
#STOPS:;
#DELAYS:;
#WARPS:;
#TIMESIGNATURES:0.000000=4=4
;
#TICKCOUNTS:0.000000=4
;
#COMBOS:0.000000=1
;
#SPEEDS:0.000000=1.000000=0.000000=0
;
#SCROLLS:0.000000=1.000000
;
#FAKES:;
#LABELS:0.000000=Song Start
;
#NOTES:
// measure 0
0000
0000
0000
0000
,  // measure 1
0000
0000
0000
0000
,  // measure 2
0000
0000
0000
0000
,  // measure 3
0001
0000
0001
0000
,  // measure 4
0001
0001
0001
0000
,  // measure 5
1000
0000
1000
0000
,  // measure 6
1000
1000
1000
0000
,  // measure 7
0010
0010
0010
0000
,  // measure 8
0100
0100
0100
0000
,  // measure 9
0001
0000
1000
0000
,  // measure 10
0001
0000
0000
0000
,  // measure 11
0000
0000
0000
0000
,  // measure 12
0000
0000
0000
0000
,  // measure 13
1001
0000
1001
0000
,  // measure 14
0000
0001
0001
0001
,  // measure 15
1001
0000
1001
0000
,  // measure 16
0000
1000
0001
1000
,  // measure 17
1001
0000
1001
0000
,  // measure 18
0000
1000
1000
1000
,  // measure 19
0001
0000
1000
0000
,  // measure 20
0100
0000
0000
0000
,  // measure 21
1000
0100
1000
0000
,  // measure 22
0001
0100
0001
0000
,  // measure 23
1000
0000
0001
0000
,  // measure 24
1000
1000
1000
0000
,  // measure 25
0001
0010
0001
0000
,  // measure 26
1000
0010
1000
0000
,  // measure 27
0001
0000
1000
0000
,  // measure 28
0200
0000
0300
0000
,  // measure 29
0020
0000
0030
0000
,  // measure 30
0001
0000
1000
0000
,  // measure 31
0001
1000
0001
1000
,  // measure 32
0000
0000
0000
0000
,  // measure 33
0020
0000
0000
0030
,  // measure 34
1000
0010
1000
0000
,  // measure 35
0020
0000
0130
0000
,  // measure 36
0001
0001
0001
0000
,  // measure 37
2000
0000
3000
0000
,  // measure 38
0001
0010
0001
0000
,  // measure 39
0020
0000
0130
0000
,  // measure 40
1000
1000
1000
0000
,  // measure 41
0002
0000
0003
0000
,  // measure 42
1001
0000
0010
0010
,  // measure 43
1001
0000
0010
0010
,  // measure 44
1001
0000
0010
0010
,  // measure 45
1001
0000
0110
0000
,  // measure 46
0001
0001
1000
0000
,  // measure 47
1000
1000
0001
0000
,  // measure 48
0010
0000
0100
0000
,  // measure 49
1001
1001
0000
0000
,  // measure 50
1000
0000
0001
0000
,  // measure 51
0000
2000
0000
3000
,  // measure 52
0001
0002
0000
0003
,  // measure 53
0100
0200
0000
0300
,  // measure 54
0010
2000
0000
3000
,  // measure 55
1000
0002
0000
0003
,  // measure 56
0001
0020
0000
0030
,  // measure 57
0000
0110
0000
0000
,  // measure 58
0001
0000
0000
0000
,  // measure 59
0010
0000
0000
0000
,  // measure 60
0100
0000
0000
0000
,  // measure 61
1000
0000
0000
0000
,  // measure 62
0001
0000
0000
0000
,  // measure 63
0100
0000
0000
0000
,  // measure 64
0010
0000
0000
0000
,  // measure 65
1000
0000
0000
0000
,  // measure 66
1001
0000
0100
0010
,  // measure 67
1001
0000
0100
0010
,  // measure 68
1001
0000
0100
0010
,  // measure 69
1001
0000
0110
0000
,  // measure 70
1000
1000
0010
0000
,  // measure 71
0001
0001
0010
0000
,  // measure 72
1000
0000
0001
0000
,  // measure 73
0100
0000
0000
0000
,  // measure 74
1001
0000
1001
0000
,  // measure 75
0000
1000
0010
1000
,  // measure 76
1001
0000
1001
0000
,  // measure 77
0000
1000
0001
1000
,  // measure 78
1001
0000
1001
0000
,  // measure 79
0000
0001
0010
0001
,  // measure 80
1000
0000
2002
3003
,  // measure 81
0001
0000
2002
3003
,  // measure 82
1000
0000
0001
0000
,  // measure 83
0010
0000
0100
1000
,  // measure 84
0002
0000
0000
0000
0000
0003
0000
0000
;
