#TITLE:KAISER PHOENIX;
#SUBTITLE:;
#ARTIST:96;
#TITLETRANSLIT:;
#SUBTITLETRANSLIT:;
#ARTISTTRANSLIT:;
#GENRE:Heavy Metal;
#CREDIT:;
#BANNER:KAISER PHOENIX.png;
#BACKGROUND:KAISER PHOENIX-bg.png;
#LYRICSPATH:;
#CDTITLE:cdtitle.png;
#MUSIC:KAISER PHOENIX.ogg;
#OFFSET:-0.159260;
#SAMPLESTART:45.335732;
#SAMPLELENGTH:11.294117;
#SELECTABLE:YES;
#BPMS:0.000000=170.000000
;
#STOPS:
;
#BGCHANGES:-7.500=KAISER PHOENIX.mp4=1.000=1=0=1===CrossFade==,
99999=-nosongbg-=1.000=0=0=0 // don't automatically add -songbackground-
;
#KEYSOUNDS:;
#ATTACKS:;

//---------------dance-single - ----------------
#NOTES:
     dance-single:
     :
     Challenge:
     17:
     1.003241,1.091682,0.378072,0.708885,1.091682,743.000000,703.000000,40.000000,75.000000,0.000000,0.000000,1.003241,1.091682,0.378072,0.708885,1.091682,743.000000,703.000000,40.000000,75.000000,0.000000,0.000000:
0000
0000
0000
0000
,
0000
0000
0000
0000
,
0000
0000
0000
0000
,
0000
0000
0000
0000
,
2002
0000
0000
0000
0000
0000
0003
3000
,
0000
0001
0010
0001
0010
0100
1000
0001
,
2002
0000
0000
0000
0000
0000
3000
0003
,
1000
0010
1000
0010
0100
0001
0100
0001
1000
0100
1000
0100
0010
0001
0010
0100
,
2000
0010
3002
0100
2003
0010
3001
0101
,
1000
0000
0001
0010
0001
0000
1000
0010
1000
0000
0001
0010
0100
0000
0100
0010
,
0002
0010
2003
0100
3002
0010
1003
1100
,
0001
0000
1000
0010
1000
0000
0001
0010
0001
0000
1000
0010
0100
0000
0100
0010
,
2000
0001
3200
0010
2300
0001
3010
0110
,
1000
0000
0001
0010
0100
0000
1000
0010
0100
0000
0001
1000
0100
0000
0100
0010
,
0002
1000
0203
0010
0302
1000
0013
0110
,
0000
0000
1000
0001
0100
0000
0001
1000
0100
0000
1000
0001
0100
0000
0010
0000
,
1000
0010
1000
0000
0010
0000
0100
0000
2000
0000
0000
3002
0000
0000
0023
0000
,
2030
0000
0000
3200
0000
0000
0320
0000
0032
0000
0013
0001
1000
0000
0001
0100
,
0010
1000
0001
1000
0100
0000
0000
0000
0100
1000
0001
1000
0010
0000
0000
0000
,
0010
1000
0010
1000
0100
0000
0000
0000
0011
0000
1000
0010
0100
0010
1000
0000
,
0001
0010
0001
0000
0010
0000
0100
0000
0002
0000
0000
2003
0000
0000
3020
0000
,
0032
0000
0000
0203
0000
0000
0320
0000
2030
0000
3010
1000
0010
0000
1000
0100
,
0010
0001
1000
0001
0100
0000
0000
0000
0100
0001
1000
0001
0010
0000
0000
0000
,
0010
0000
0001
1000
0010
0000
1000
0010
0100
0001
1000
0001
0020
0000
0230
0000
,
0301
0000
0100
0000
0001
0000
0100
0000
1000
0000
0001
0100
0010
0100
0010
0100
,
1000
0000
0100
0000
1000
0000
0100
0000
0001
0000
1000
0100
0010
0100
0010
0100
,
0001
0000
0100
0000
0001
0000
0100
0000
1000
0000
0001
0100
0010
1000
0100
0010
,
0001
0000
1000
0010
0100
0001
1000
0000
0001
1000
0100
0000
0010
0100
0010
0000
,
1000
0000
0010
0000
1000
0000
0010
0000
0001
0000
1000
0010
0100
0010
0100
0010
,
0001
0000
0010
0000
0001
0000
0010
0000
1000
0000
0001
0010
0100
0010
0100
0010
,
1000
0000
0010
0000
1000
0000
0010
0000
0001
0000
1000
0010
0100
0001
1000
0000
,
0001
0010
0100
1000
0001
1000
0100
0010
0001
0010
0100
1000
0001
0100
0010
0000
,
1000
0010
1000
0000
0010
0000
1002
0000
0000
0000
1003
0100
1000
0000
0100
0000
,
1001
0000
1000
0010
0100
0001
1000
0000
0001
0010
0001
0010
0100
0000
0001
0000
,
0201
0000
0000
0000
0310
0000
0000
0000
0011
0000
0000
1100
0000
0000
1001
0000
,
1002
0000
0000
0000
0103
0000
0010
1000
0010
0100
0001
1000
0100
0000
0010
0000
,
0001
0010
0001
0000
0010
0000
2001
0000
0000
0000
3001
0100
0001
0000
0100
0000
,
1001
0000
0001
0010
0100
1000
0001
0000
1000
0010
1000
0010
0100
0000
1000
0000
,
1200
0000
0000
0000
0310
0000
0000
0000
1010
0000
0000
0101
0000
0000
1001
0000
,
2001
0000
0000
0000
3100
0000
0010
0000
0001
0010
0100
1000
0001
1000
0010
0000
,
2010
0000
0010
0000
3001
0000
2002
0000
3003
0000
1000
0100
0010
0100
0010
0100
,
0001
0000
0100
0010
0100
1000
0002
0000
0000
0000
1003
0000
0001
0100
0010
0000
,
0220
0000
0330
0000
0010
0100
0010
0000
0001
0010
0100
0010
1000
0001
1000
0100
,
0010
0000
0001
1000
0001
0000
0202
0000
0303
0000
1000
0000
1000
0000
0100
0000
,
0012
0000
0010
0000
1003
0000
2002
0000
3003
0000
0001
0100
0010
0100
0010
0100
,
1000
0000
0100
0010
0100
0001
2000
0000
0000
0000
3001
0000
1000
0010
0100
0001
,
0020
0000
0000
0000
0031
0010
0100
1000
0010
0000
0100
0001
1000
0001
0010
0000
,
0220
0330
2200
3300
2002
3003
2020
3030
,
1000
0010
1000
0010
0100
0000
0001
0010
0001
0010
0100
1000
0001
0000
1000
0010
,
0100
0010
1000
0001
0010
0000
0001
0010
0100
0010
0001
1000
0010
0000
0100
0001
,
0010
0001
0010
0100
1000
0000
0100
1000
0010
1000
0010
0100
0001
0000
1000
0100
,
0010
0001
0100
0010
1000
0000
0001
0100
0010
1000
0010
1000
0001
0010
0001
0010
,
0100
1000
0001
1000
0010
0000
1000
0010
0100
1000
0100
0010
1000
0000
0001
1000
,
0010
1000
0001
1000
0100
0000
1000
0100
0010
1000
0010
0100
1000
0000
0001
1000
,
0010
0100
0010
0100
0001
1000
0001
1000
0100
0010
0100
0010
0001
1000
0001
1000
,
0010
0100
0001
1000
0100
0010
0001
1000
0010
0100
0001
1000
0100
0010
0001
1000
,
0002
1000
0203
0010
0302
1000
0013
0110
,
0001
0000
1000
0010
0100
0000
0001
0010
0100
0000
1000
0001
0100
0000
0100
0010
,
2000
0001
3200
0010
2300
0001
3010
0110
,
0001
0100
0001
0100
0001
1000
0001
1000
0001
0010
0001
0010
0100
1000
0001
1000
,
0020
0000
0230
0000
0310
1000
0001
0000
0001
1000
0100
0000
0100
1000
0001
0000
,
0001
1000
0010
0000
0010
1000
0001
1000
0100
0010
0100
0010
1000
0010
0100
0010
,
0002
0000
2003
0000
3001
0100
0010
0000
0010
1000
0100
0000
0100
0010
0001
0000
,
1000
0010
0100
0001
0100
0001
1000
0010
0100
0001
0100
0001
1000
0010
1000
0100
,
0020
0000
0230
0000
0310
0001
1000
0000
1000
0001
0100
0000
0100
0001
1000
0000
,
1000
0001
0010
0000
0010
0001
1000
0001
0100
0010
0100
0010
0001
0010
0100
0010
,
2000
0000
3002
0000
1003
0100
0010
0000
0010
0001
0100
0000
0100
0010
1000
0000
,
0001
0010
0100
1000
0001
1000
0100
0010
0001
0010
0100
1000
0010
0100
0001
0000
,
1000
0010
1010
0000
0000
0000
0001
0100
0101
0000
0000
0000
1000
0100
1100
0000
,
0000
0000
0001
0010
0011
0000
0000
0000
1010
0000
0202
0000
0303
0000
0100
0010
,
1001
0000
0000
0000
;

//---------------dance-single - ----------------
#NOTES:
     dance-single:
     :
     Hard:
     15:
     0.750743,0.727788,0.264650,0.869565,0.425331,556.000000,528.000000,28.000000,92.000000,0.000000,0.000000,0.750743,0.727788,0.264650,0.869565,0.425331,556.000000,528.000000,28.000000,92.000000,0.000000,0.000000:
// measure 0
0000
0000
0000
0000
,  // measure 1
0000
0000
0000
0000
,  // measure 2
0000
0000
0000
0000
,  // measure 3
0000
0000
0000
0000
,  // measure 4
2002
0000
0000
0000
0000
0000
3000
0003
,  // measure 5
0000
1000
0010
1000
0010
0100
0001
1000
,  // measure 6
2002
0000
0000
0000
0000
0000
0003
3000
,  // measure 7
0001
0010
0001
0000
0010
0000
0100
0000
1000
0010
1000
0000
0010
0000
0100
0000
,  // measure 8
0002
0013
0200
0310
2000
3000
0020
2030
,  // measure 9
3010
0000
0200
0000
0310
0000
0002
0000
1003
0000
0001
1000
0001
0000
0100
0010
,  // measure 10
2000
3010
0200
0310
0002
0003
0020
0032
,  // measure 11
0013
0000
0200
0000
0310
0000
2000
0000
3001
0000
1000
0001
0010
0000
0010
0100
,  // measure 12
2000
3100
0020
0130
0002
0003
0200
0302
,  // measure 13
0103
0000
0020
0000
0130
0000
2000
0000
3001
0000
1000
0001
1000
0000
0010
0100
,  // measure 14
0002
0103
0020
0130
2000
3000
1000
1200
,  // measure 15
0000
0000
0010
0000
0000
0000
0301
0000
0000
0000
1000
0001
1000
0000
0001
0000
,  // measure 16
1000
0100
1000
0000
0100
0000
0010
0000
2000
0000
0000
3020
0000
0000
0230
0000
,  // measure 17
2300
0000
0000
3020
0000
0000
0230
0000
0302
0000
0000
0000
1003
0000
0001
1000
,  // measure 18
0100
0000
0000
0000
1001
0000
0000
0000
2000
0000
0000
3020
0000
0000
0230
0000
,  // measure 19
1000
0000
0010
0000
0301
1000
0100
0010
,  // measure 20
0001
0100
0001
0000
0100
0000
0010
0000
0002
0000
0000
0023
0000
0000
0230
0000
,  // measure 21
0302
0000
0000
0023
0000
0000
0230
0000
2300
0000
0000
0000
3001
0000
1000
0001
,  // measure 22
0100
0000
0000
0000
1001
0000
0000
0000
0002
0000
0000
0023
0000
0000
0230
0000
,  // measure 23
0001
0000
0000
0000
0310
0000
0100
1000
0001
0000
0000
0000
1001
0000
0000
0000
,  // measure 24
1000
0010
1000
0000
0010
0000
0100
0000
1000
0000
0100
0000
0010
0000
1000
0000
,  // measure 25
0001
0010
0001
0000
0010
0000
0100
0000
0001
0000
0100
0000
0010
0000
0001
0000
,  // measure 26
1000
0010
1000
0000
0010
0000
0100
0000
1000
0000
0100
0000
0010
0000
1000
0000
,  // measure 27
1001
0000
0001
0010
0001
0010
0100
1000
,  // measure 28
0001
0100
0001
0000
0100
0000
0010
0000
0001
0000
0010
0000
1000
0000
0001
0000
,  // measure 29
1000
0100
1000
0000
0100
0000
0010
0000
1000
0000
0010
0000
0001
0000
1000
0000
,  // measure 30
0001
0100
0001
0000
0100
0000
0010
0000
0001
0000
0010
0000
1000
0000
0001
0000
,  // measure 31
0020
0000
0000
0000
0130
1000
0001
0000
1000
0001
0100
0000
0001
0100
0010
0000
,  // measure 32
2000
0000
0000
0000
3010
0000
0002
0000
0000
0000
0013
0100
0010
0000
1000
0000
,  // measure 33
1000
0000
0001
1000
0100
0000
0020
0000
0000
0000
0130
0000
0010
0000
0001
0000
,  // measure 34
1002
0000
0000
0000
0103
0000
0000
0000
0101
0000
0000
1010
0000
0000
1001
0000
,  // measure 35
1002
0000
0000
0000
0013
0000
0100
1000
0002
0000
0000
0000
1003
0000
0010
0100
,  // measure 36
0002
0000
0000
0000
0013
0000
2000
0000
0000
0000
3010
0100
0010
0000
0001
0000
,  // measure 37
0001
0000
1000
0001
0100
0000
0020
0000
0000
0000
0130
0000
0010
0000
1000
0000
,  // measure 38
2001
0000
0000
0000
3100
0000
0000
0000
1100
0000
0000
0011
0000
0000
1001
0000
,  // measure 39
2001
0000
0000
0000
3010
0000
0100
0000
0001
1000
0100
0000
0010
0001
1000
0000
,  // measure 40
0001
0000
0100
0000
0010
0000
0002
0000
0013
0000
0100
0000
0010
1000
0001
0000
,  // measure 41
1000
0000
0100
0010
0100
0000
0002
0000
0103
0000
0010
0000
0100
1000
0001
0000
,  // measure 42
2002
0000
3003
0000
1000
0000
0010
0000
0100
0001
1000
0001
0010
0000
0100
0000
,  // measure 43
1000
0000
0001
0100
0010
0000
2000
0000
0000
0000
3010
0000
0010
0000
1000
0001
,  // measure 44
1000
0000
0100
0000
0010
0000
2000
0000
3010
0000
0100
0000
0010
0001
1000
0000
,  // measure 45
0001
0000
0100
0010
0100
0000
2000
0000
3100
0000
0010
0000
0100
0001
1000
0000
,  // measure 46
2002
0000
3003
0000
0001
0010
0100
0000
2000
0000
0000
0001
0000
0000
3010
0100
,  // measure 47
0002
0003
0202
0303
2002
3003
0022
0033
,  // measure 48
1000
0010
1000
0000
0010
0000
0100
0000
1000
0000
0100
0000
0010
0000
0100
0001
,  // measure 49
1000
0001
0010
0000
0100
0000
0010
0000
1000
0000
0010
0000
0100
0000
0010
0001
,  // measure 50
1000
0001
0100
0000
0010
0000
0001
0000
0010
0000
1000
0000
0010
0000
0100
0001
,  // measure 51
1000
0001
0010
0000
0100
0000
0001
0000
0100
0000
1000
0000
0001
0100
0001
0100
,  // measure 52
0010
0000
0000
0000
1000
0100
1000
0100
0010
0000
0000
0000
0001
0100
0010
1000
,  // measure 53
0001
0000
0000
0000
1000
0100
0010
0001
1000
0000
0000
0000
0001
0100
0010
1000
,  // measure 54
0001
0000
0010
0000
0100
0000
0001
0000
1000
0000
0010
0000
0100
0000
1000
0001
,  // measure 55
1000
0000
0010
0000
0100
0000
1000
0000
0001
0000
0010
0000
0100
0000
0001
1000
,  // measure 56
0002
0013
0200
0310
2000
3000
0020
2030
,  // measure 57
3010
0000
0200
0000
0310
0000
0002
0000
1003
0000
0001
1000
0001
0000
0100
0010
,  // measure 58
2000
3010
0200
0310
0002
0003
0001
0021
,  // measure 59
0000
0000
0130
0010
1000
0000
0001
1000
0100
0000
1000
0100
0010
0000
0100
1000
,  // measure 60
0001
0100
0010
0100
1000
0100
0010
0100
,  // measure 61
0101
0000
0000
0000
1000
0001
1000
0001
0010
0000
1000
0000
0010
0000
0001
0000
,  // measure 62
1000
0010
0100
0010
0001
0010
0100
0010
,  // measure 63
1010
0000
0001
0000
0010
0000
0000
0000
0010
0001
1000
0001
0100
0000
0001
0000
,  // measure 64
1000
0100
0010
0100
0001
0100
0010
0100
,  // measure 65
1100
0000
0000
0000
0001
1000
0001
1000
0010
0000
0001
0000
0010
0000
1000
0000
,  // measure 66
0001
0010
0100
0010
1000
0010
0100
0010
,  // measure 67
0022
0000
0000
0000
0033
0000
0000
0000
1000
0001
0100
0010
1000
0000
0001
0000
,  // measure 68
1000
0100
1000
0000
0000
0000
1000
0100
1000
0000
0000
0000
0001
0100
0001
0000
,  // measure 69
0000
0000
0001
0100
0001
0000
0000
0000
0010
0000
2001
0000
0000
0000
3010
1000
,  // measure 70
0100
0000
0000
0000
;

//---------------dance-single - ----------------
#NOTES:
     dance-single:
     :
     Medium:
     13:
     0.576560,0.628544,0.311909,0.472590,0.042533,427.000000,394.000000,33.000000,50.000000,0.000000,0.000000,0.576560,0.628544,0.311909,0.472590,0.042533,427.000000,394.000000,33.000000,50.000000,0.000000,0.000000:
// measure 0
0000
0000
0000
0000
,  // measure 1
0000
0000
0000
0000
,  // measure 2
0000
0000
0000
0000
,  // measure 3
0000
0000
0000
0000
,  // measure 4
2002
0000
0000
0000
0000
0000
0003
3000
,  // measure 5
0000
0001
0100
0010
,  // measure 6
2002
0000
0000
0000
0000
0000
3000
0003
,  // measure 7
1000
0000
0100
0000
0010
0000
0001
1000
,  // measure 8
0001
0000
0101
0000
1010
0000
0001
0020
,  // measure 9
0030
0200
0300
0002
0003
0100
0010
0100
,  // measure 10
1000
0000
1100
0000
0011
0000
1000
0020
,  // measure 11
0030
0200
0300
2000
3000
0100
0010
0100
,  // measure 12
0001
0000
1001
0000
0011
0000
1000
0200
,  // measure 13
0300
0020
0030
2000
3000
0010
0100
0010
,  // measure 14
0001
0000
1001
0000
1010
0000
0001
0102
,  // measure 15
0000
1000
0000
1000
0000
0013
0000
0001
,  // measure 16
1000
0000
0010
0000
1000
0000
0010
0000
0100
0000
0000
0010
0000
0000
1000
0000
,  // measure 17
0001
0000
0000
1000
0000
0000
0100
0000
0020
0000
0000
0000
0130
0000
0000
0000
,  // measure 18
0220
0000
0000
0000
0330
0000
0000
0000
0010
0000
0000
0100
0000
0000
1000
0000
,  // measure 19
0020
0000
1030
0000
1010
0000
0010
1000
,  // measure 20
0001
0000
0010
0000
0001
0000
0010
0000
0100
0000
0000
0010
0000
0000
0001
0000
,  // measure 21
1000
0000
0000
0001
0000
0000
0100
0000
0020
0000
0000
0000
0130
0000
0000
0000
,  // measure 22
0220
0000
0000
0000
0330
0000
0000
0000
0001
0000
0000
1000
0000
0000
0100
0000
,  // measure 23
0020
0000
0031
1000
0010
0100
0001
0000
,  // measure 24
1000
0100
1000
0100
0010
0100
1000
0000
,  // measure 25
0001
0100
0001
0100
0010
0100
0001
0000
,  // measure 26
1000
0100
1000
0100
0010
0100
1000
0000
,  // measure 27
0001
0100
0010
0000
1000
0100
0010
0000
,  // measure 28
0001
0100
0001
0100
0010
1000
0100
0000
,  // measure 29
1000
0100
1000
0100
0010
0001
0100
0000
,  // measure 30
0001
0100
0001
0100
0010
1000
0100
0000
,  // measure 31
0010
0001
1000
0010
0100
0001
0010
0100
,  // measure 32
2000
0000
3010
0200
0000
0310
1000
0001
,  // measure 33
1000
0100
1000
0200
0000
0000
0301
0100
,  // measure 34
1000
0000
0000
0000
1001
0000
0000
0000
0001
0000
0000
0100
0000
0000
0010
0000
,  // measure 35
2010
0000
3000
0001
1000
0000
0100
0010
,  // measure 36
0002
0000
0013
0200
0000
0310
0001
1000
,  // measure 37
0001
0100
0001
0200
0000
0000
1300
0100
,  // measure 38
0001
0000
0000
0000
1001
0000
0000
0000
1000
0000
0000
0100
0000
0000
0010
0000
,  // measure 39
0012
0000
1003
0000
0001
0100
0010
1000
,  // measure 40
0001
0010
0100
0020
0000
1030
0010
0100
,  // measure 41
0010
0001
1000
0002
0000
0103
0010
0100
,  // measure 42
2000
0000
3100
0000
0010
0100
0001
1000
,  // measure 43
0200
0000
0310
0002
0000
1003
1000
0001
,  // measure 44
1000
0010
0100
0020
0000
0031
0010
0100
,  // measure 45
0010
1000
0001
2000
0000
3100
0010
0100
,  // measure 46
0002
0000
0000
0000
0103
0000
0000
0000
0010
0000
0000
0100
0000
0000
1000
0000
,  // measure 47
1000
1100
1001
1010
,  // measure 48
1000
0010
0100
0001
1000
0010
0100
0001
,  // measure 49
0010
0100
1000
0001
0010
0100
1000
0001
,  // measure 50
0100
0010
1000
0001
0100
0010
1000
0100
,  // measure 51
0010
0001
1000
0100
0010
0001
1000
0010
,  // measure 52
0100
0001
0100
0001
1000
0100
1000
0100
,  // measure 53
0010
0001
0010
0001
1000
0010
1000
0010
,  // measure 54
0001
0010
0100
0010
1000
0001
1000
0100
,  // measure 55
0001
0100
0010
0100
1000
0001
0100
0010
,  // measure 56
1000
0000
0101
0000
1100
0000
0001
0020
,  // measure 57
0030
0200
0300
0002
0003
0100
0010
0100
,  // measure 58
1000
0000
1100
0000
0101
0000
1000
2010
,  // measure 59
0000
0001
0000
0001
0000
3100
0010
0001
,  // measure 60
1000
0010
0100
0001
0010
0001
0100
0010
,  // measure 61
1000
0000
0001
0010
1000
0010
0001
1000
,  // measure 62
0001
0100
0010
1000
0100
0010
0001
1000
,  // measure 63
0010
0100
0020
0000
1030
0001
2000
0000
,  // measure 64
3001
0010
0100
1000
0010
1000
0100
0010
,  // measure 65
0001
0000
1000
0010
0001
0010
1000
0001
,  // measure 66
1000
0100
0010
0001
0100
0010
1000
0001
,  // measure 67
0020
0230
2300
3002
,  // measure 68
1003
1010
0000
0001
1001
0000
0001
0011
,  // measure 69
0000
1000
1001
0000
0010
2002
3003
0110
,  // measure 70
0110
0000
0000
0000
;

//---------------dance-single - ----------------
#NOTES:
     dance-single:
     :
     Easy:
     10:
     0.441534,0.496219,0.236295,0.557656,0.023629,327.000000,302.000000,25.000000,59.000000,0.000000,0.000000,0.441534,0.496219,0.236295,0.557656,0.023629,327.000000,302.000000,25.000000,59.000000,0.000000,0.000000:
// measure 0
0000
0000
0000
0000
,  // measure 1
0000
0000
0000
0000
,  // measure 2
0000
0000
0000
0000
,  // measure 3
0000
0000
0000
0000
,  // measure 4
2002
0000
0000
0000
0000
0000
0003
3000
,  // measure 5
0000
0001
1000
0001
,  // measure 6
2002
0000
0000
0000
0000
0000
3000
0003
,  // measure 7
1000
0100
0010
0001
,  // measure 8
1000
0000
0010
0000
0100
0000
0010
1000
,  // measure 9
0000
0010
0000
0100
0000
1002
0000
0013
,  // measure 10
0001
0000
0010
0000
0100
0000
0010
0001
,  // measure 11
0000
0010
0000
0100
0000
2001
0000
3010
,  // measure 12
1000
0000
0010
0000
0001
0000
0010
1000
,  // measure 13
0000
0010
0000
0100
0000
1002
0000
0013
,  // measure 14
0001
0000
0010
0000
1000
0000
0010
0002
,  // measure 15
0000
1000
0000
1000
0000
1003
0000
0000
,  // measure 16
0001
0100
0001
0100
0020
0000
1000
0000
,  // measure 17
0230
0001
0320
1030
,  // measure 18
2020
0000
0000
0000
3030
0000
0000
0000
0001
0000
0000
1000
0000
0000
0001
0000
,  // measure 19
0020
0030
0220
0330
,  // measure 20
1000
0100
1000
0100
0020
0000
0001
0000
,  // measure 21
0230
1000
0320
0031
,  // measure 22
0022
0000
0000
0000
0033
0000
0000
0000
1000
0000
0000
0001
0000
0000
1000
0000
,  // measure 23
0020
0000
0030
0100
0002
0000
1003
0000
,  // measure 24
0001
0010
0001
0000
0010
0000
0100
0000
,  // measure 25
1000
0010
1000
0000
0010
0000
0100
0000
,  // measure 26
0001
0010
0001
0000
0010
0000
0100
0000
,  // measure 27
1000
1000
0001
0001
,  // measure 28
1000
0010
0100
0000
0001
0000
1000
0000
,  // measure 29
0001
0010
0100
0000
1000
0000
0001
0000
,  // measure 30
1000
0010
0100
0000
0001
0000
1000
0000
,  // measure 31
0100
0010
0001
0000
0100
0010
0100
0010
,  // measure 32
2000
0000
3010
0200
0000
0310
0100
0000
,  // measure 33
0001
0000
0010
0200
0000
0000
0310
0000
,  // measure 34
0022
0000
0000
0000
0033
0000
0000
0000
1000
0000
0000
0010
0000
0000
0100
0000
,  // measure 35
0002
0000
0003
1000
0200
0000
0310
0000
,  // measure 36
0002
0000
0013
0200
0000
0310
0100
0000
,  // measure 37
1000
0000
0010
0200
0000
0000
0310
0000
,  // measure 38
2020
0000
0000
0000
3030
0000
0000
0000
0001
0000
0000
0010
0000
0000
0100
0000
,  // measure 39
2000
0000
3001
0000
1000
0001
1000
0000
,  // measure 40
0002
0000
0103
0020
0000
0130
0001
0000
,  // measure 41
0010
0000
0100
0020
0000
0031
1000
0001
,  // measure 42
0200
0000
0310
0000
1000
0001
0010
0000
,  // measure 43
2100
0000
3000
0102
0000
0003
1000
0010
,  // measure 44
2000
0000
3100
0020
0000
0130
1000
0000
,  // measure 45
0010
0000
0100
0020
0000
1030
0001
1000
,  // measure 46
0200
0000
0000
0000
0310
0000
0000
0000
0001
0000
0000
0100
0000
0000
0010
0000
,  // measure 47
1000
1010
1001
1100
,  // measure 48
0001
0010
0001
0000
0001
0010
0001
0000
,  // measure 49
1000
0010
1000
0000
1000
0010
1000
0000
,  // measure 50
0001
0010
0100
0000
0100
0010
0100
0000
,  // measure 51
1000
0010
0100
0000
0100
0010
0100
0000
,  // measure 52
2010
3001
2001
3100
,  // measure 53
0012
1003
1002
0103
,  // measure 54
0010
1000
0100
0000
0010
0001
0100
0000
,  // measure 55
0010
1000
0001
0000
0010
0001
1000
0000
,  // measure 56
0001
0000
0100
0000
1000
0000
0100
0001
,  // measure 57
0000
0100
0000
0010
0000
2001
0000
3100
,  // measure 58
1000
0000
0100
0000
0001
0000
0100
2000
,  // measure 59
0000
0001
0000
0001
0000
3001
0000
0000
,  // measure 60
2001
0010
0001
0010
,  // measure 61
3001
0000
1000
0100
0010
0100
1000
0000
,  // measure 62
2001
0010
0001
3100
,  // measure 63
0010
0001
0100
0000
0100
0010
1000
0000
,  // measure 64
1002
0010
1000
0010
,  // measure 65
1003
0000
0001
0100
0010
0100
0001
0000
,  // measure 66
1002
0010
1000
0103
,  // measure 67
0220
0000
0000
0330
,  // measure 68
1000
0010
0000
0010
0100
0000
0001
0010
,  // measure 69
0000
0010
0100
0000
1000
0002
0000
1003
,  // measure 70
1000
0000
0000
0000
;

//---------------dance-single - ----------------
#NOTES:
     dance-single:
     :
     Beginner:
     7:
     0.299757,0.297732,0.113422,0.349716,0.000000,222.000000,210.000000,12.000000,37.000000,0.000000,0.000000,0.299757,0.297732,0.113422,0.349716,0.000000,222.000000,210.000000,12.000000,37.000000,0.000000,0.000000:
0000
0000
0000
0000
,
0000
0000
0000
0000
,
0000
0000
0000
0000
,
0000
0000
0000
0000
,
2002
0000
0000
3003
,
0000
0100
0100
0000
,
2002
0000
0000
3003
,
1000
0001
1000
0000
,
0001
0001
0001
0010
,
0100
0010
0001
0000
,
1000
1000
1000
0010
,
0100
0010
1000
0000
,
0001
0001
0001
0010
,
0100
1000
0001
0000
,
1000
1000
1000
0010
,
0100
0001
1000
0000
,
0001
0001
0020
0030
,
0100
0010
0002
0003
,
0022
0033
1000
0001
,
0200
0300
0020
0030
,
1000
1000
0020
0030
,
0100
0010
2000
3000
,
2020
3030
0001
1000
,
0200
0300
0010
0001
,
1000
1000
0010
0010
,
0100
0100
0001
0001
,
1000
1000
0010
0010
,
0100
0100
0001
1000
,
0001
0001
0010
0010
,
0100
0100
1000
1000
,
0001
0001
0010
0010
,
0100
1000
0010
0100
,
0001
0000
0000
0002
0000
0000
0003
0000
,
0010
0000
0000
0020
0000
0000
0030
0000
,
0220
0330
1000
0000
,
2002
3003
0001
0000
,
1000
0000
0000
2000
0000
0000
3000
0000
,
0010
0000
0000
0020
0000
0000
0030
0000
,
0220
0330
0001
0000
,
2002
3003
1000
0001
,
1000
0000
0000
1000
0000
0000
1000
0000
,
0100
0000
0000
0100
0000
0000
0100
0000
,
0220
0330
0001
0010
,
2002
3003
1000
0000
,
0001
0000
0000
0001
0000
0000
0001
0000
,
0100
0000
0000
0100
0000
0000
0100
0000
,
2002
3003
0010
0000
,
1000
1000
0001
0001
,
1000
0100
1000
0100
,
0010
0001
0010
0001
,
1000
0010
1000
0010
,
0100
0001
0100
0001
,
0010
0100
0010
0100
,
1000
0010
1000
0010
,
0100
0001
0010
0100
,
1000
0010
0100
0001
,
1000
1000
1000
0100
,
0010
0100
1000
0000
,
0001
0001
0001
0100
,
0010
0100
0001
0000
,
1000
0100
0010
0001
,
1000
0010
0010
0010
,
1000
0010
0100
0001
,
0020
0030
0200
1300
,
0001
0100
0010
1000
,
0001
0010
0010
0010
,
0001
0010
0100
1000
,
0020
0000
0000
0030
,
1000
0000
0000
0010
0000
0000
0100
0000
,
0000
0001
0000
0000
0020
0000
0030
0000
,
1001
0000
0000
0000
;
