#VERSION:0.83;
#TITLE:ジャンキー;
#SUBTITLE:;
#ARTIST:フレデリック;
#TITLETRANSLIT:Junkie;
#SUBTITLETRANSLIT:;
#ARTISTTRANSLIT:frederic;
#GENRE:J-Rock;
#ORIGIN:;
#CREDIT:;
#BANNER:Junkie.png;
#BACKGROUND:Junkie-bg.png;
#PREVIEWVID:;
#JACKET:Junkie-jacket.png;
#CDIMAGE:;
#DISCIMAGE:;
#LYRICSPATH:;
#CDTITLE:cdtitle.png;
#MUSIC:Junkie.ogg;
#OFFSET:4.673595;
#SAMPLESTART:42.728409;
#SAMPLELENGTH:12.799999;
#SELECTABLE:YES;
#DISPLAYBPM:150.000000;
#BPMS:0.000=150.000,
220.000=154.109,
221.500=138.888;
#STOPS:189.500=0.800;
#DELAYS:;
#WARPS:;
#TIMESIGNATURES:0.000=4=4;
#TICKCOUNTS:0.000=4;
#COMBOS:0.000=1;
#SPEEDS:0.000=1.000=0.000=0;
#SCROLLS:0.000=1.000;
#FAKES:;
#LABELS:0.000=Song Start;
#BGCHANGES:1.958=Junkie.avi=1.000=1=0=0=StretchNoLoop==CrossFade==,
99999=-nosongbg-=1.000=0=0=0 // don't automatically add -songbackground-
;
#KEYSOUNDS:;
#ATTACKS:
;

//---------------dance-single - ----------------
#NOTEDATA:;
#CHARTNAME:;
#STEPSTYPE:dance-single;
#DESCRIPTION:;
#CHARTSTYLE:;
#DIFFICULTY:Hard;
#METER:11;
#RADARVALUES:0.565852,0.601849,0.239712,0.433765,0.131271,347.000000,326.000000,21.000000,38.000000,0.000000,0.000000,0.000000,0.000000,0.000000,0.565852,0.601849,0.239712,0.433765,0.131271,347.000000,326.000000,21.000000,38.000000,0.000000,0.000000,0.000000,0.000000,0.000000;
#CREDIT:;
#OFFSET:4.673595;
#BPMS:0.000000=150.000000
,220.000000=154.108994
,221.500000=138.888000
;
#STOPS:189.500000=0.800000
;
#DELAYS:;
#WARPS:;
#TIMESIGNATURES:0.000000=4=4
;
#TICKCOUNTS:0.000000=4
;
#COMBOS:0.000000=1
;
#SPEEDS:0.000000=1.000000=0.000000=0
;
#SCROLLS:0.000000=1.000000
,220.000000=0.973000
,221.500000=1.080000
;
#FAKES:;
#LABELS:0.000000=Song Start
;
#DISPLAYBPM:150.000000;
#NOTES:
// measure 0
0000
0000
0000
0000
,  // measure 1
0000
0000
0000
0000
,  // measure 2
0000
0000
0000
0000
,  // measure 3
0000
0000
0000
0000
,  // measure 4
0001
0100
0010
0100
0001
0000
0001
0010
,  // measure 5
0100
0010
0001
0000
0001
0100
0010
0100
,  // measure 6
0001
0000
0101
0000
1000
0100
0001
0100
,  // measure 7
1000
0000
0010
0000
0100
0001
0001
0000
,  // measure 8
1000
0100
0010
0100
1000
0000
1000
0010
,  // measure 9
0100
0010
1000
0000
1000
0100
0010
0100
,  // measure 10
0000
0010
0001
1000
0001
0100
0001
1000
,  // measure 11
0100
0000
0010
0000
0001
0000
0100
0000
0010
0000
0000
0010
0000
0000
0010
0000
,  // measure 12
2000
0000
3020
0000
0032
0000
1003
0100
,  // measure 13
1000
0100
0002
0000
0023
0000
0130
0010
,  // measure 14
0100
0000
0011
0000
1100
0000
0001
0100
,  // measure 15
0010
1000
0100
0010
0002
0000
1003
0000
,  // measure 16
0002
0000
0023
0000
2030
0000
3001
0100
,  // measure 17
0001
0100
2000
0000
3020
0000
0130
0010
,  // measure 18
0100
0000
1010
0000
0101
0000
1000
0200
,  // measure 19
0000
0310
0001
0100
0010
0000
1001
0000
,  // measure 20
0002
0000
0000
0000
0203
0000
0000
0000
0320
0000
0000
0000
0032
0000
0000
0013
,  // measure 21
0000
0010
0000
0010
0100
0000
0010
0000
1000
0000
0001
0000
0001
0000
0000
0000
,  // measure 22
2000
0000
0000
0000
3100
0000
0100
0000
0020
0000
0000
0000
2030
0000
0000
3010
,  // measure 23
0000
0010
0000
0010
0100
0000
0010
0000
0001
0000
1000
0000
1000
0000
0000
0000
,  // measure 24
0002
0000
0000
0000
0203
0000
0000
0000
2300
0000
0000
0000
3200
0000
0000
0301
,  // measure 25
0000
1000
0000
0001
1000
0000
0100
0000
0110
0000
0000
0011
0000
0000
1002
0000
,  // measure 26
0000
0000
0103
0000
0000
0000
0100
0000
0110
0000
0000
1010
0000
0000
2001
0000
,  // measure 27
0000
3100
0000
1000
0100
0001
0100
2000
,  // measure 28
0000
3010
0100
0001
1000
0100
0000
0110
,  // measure 29
0000
0110
0000
1001
1001
0001
0100
1000
,  // measure 30
0000
0000
1000
0000
0100
0000
0010
0000
1000
0000
0000
0001
0000
0000
1000
0000
,  // measure 31
0100
0010
0001
1000
0000
1000
0100
0001
,  // measure 32
0000
0000
0001
0000
0100
0000
0010
0000
0001
0000
0000
1000
0000
0000
0001
0000
,  // measure 33
0100
0010
1000
0001
2000
0010
3002
0010
,  // measure 34
1003
1000
0000
0001
0001
0010
0000
0010
,  // measure 35
0002
0010
2003
0010
3001
0000
0002
0100
,  // measure 36
2003
0100
3001
1000
1000
0100
0000
0100
,  // measure 37
2000
0100
3002
0100
1003
0001
0010
1000
,  // measure 38
0000
0000
1000
0000
0010
0000
0001
0000
1000
0000
0000
0010
0000
0000
0100
0000
,  // measure 39
0001
0010
0100
1000
0000
1000
0010
0001
,  // measure 40
0000
0000
0001
0000
0010
0000
1000
0000
0001
0000
0000
0010
0000
0000
0100
0000
,  // measure 41
1000
0010
0100
0001
2000
0100
3002
0010
,  // measure 42
1003
1000
0000
0001
0001
0100
0000
0100
,  // measure 43
0002
0100
2003
0010
3001
0000
1001
0000
,  // measure 44
0001
0000
0000
0010
0000
0000
1000
0000
0001
0000
0000
0100
0000
0000
1000
0000
,  // measure 45
0001
0000
0000
0010
0000
0000
0100
0000
1100
0000
0000
0011
0000
0000
1001
0000
,  // measure 46
1000
0000
0000
0010
0000
0000
0001
0000
1000
0000
0000
0100
0000
0000
0001
0000
,  // measure 47
1000
0010
0100
0001
1000
0100
0001
0100
,  // measure 48
1000
0000
1000
0010
0001
0010
1000
0000
,  // measure 49
1000
0100
0001
0100
1000
0000
1100
0000
,  // measure 50
0001
0100
0010
1000
0100
0000
0010
0000
,  // measure 51
0001
1000
1000
0000
0001
0100
1000
0100
,  // measure 52
0001
0000
0001
0010
1000
0010
0001
0000
,  // measure 53
0001
0100
1000
0100
0000
0001
0100
0010
,  // measure 54
1000
0100
1000
0010
0100
0001
1000
0100
,  // measure 55
0010
0000
0000
0010
0000
0000
0010
0000
0100
0000
0000
0000
0000
0000
0000
0000
;

//---------------dance-single - ----------------
#NOTEDATA:;
#CHARTNAME:;
#STEPSTYPE:dance-single;
#DESCRIPTION:;
#CHARTSTYLE:;
#DIFFICULTY:Medium;
#METER:8;
#RADARVALUES:0.450072,0.509103,0.536499,0.365276,0.000000,276.000000,229.000000,47.000000,32.000000,0.000000,0.000000,0.000000,0.000000,0.000000,0.450072,0.509103,0.536499,0.365276,0.000000,276.000000,229.000000,47.000000,32.000000,0.000000,0.000000,0.000000,0.000000,0.000000;
#CREDIT:;
#OFFSET:4.673595;
#BPMS:0.000000=150.000000
,221.000000=154.108994
,222.500000=138.888000
;
#STOPS:190.000000=0.400000
;
#DELAYS:;
#WARPS:;
#TIMESIGNATURES:0.000000=4=4
;
#TICKCOUNTS:0.000000=4
;
#COMBOS:0.000000=1
;
#SPEEDS:0.000000=1.000000=0.000000=0
;
#SCROLLS:0.000000=1.000000
,221.000000=0.973000
,222.500000=1.080000
;
#FAKES:;
#LABELS:0.000000=Song Start
;
#DISPLAYBPM:150.000000;
#NOTES:
0000
0000
0000
0000
,
0000
0000
0000
0000
,
0000
0000
0000
0000
,
0000
0000
0000
0000
,
0001
0010
0001
0000
1000
0000
0001
0100
,
0001
0000
1000
0000
0001
0010
0001
0000
,
1000
0000
1001
0000
0001
0000
0100
0010
,
1000
0000
0100
0000
0010
0001
0001
0000
,
1000
0010
1000
0000
0001
0000
1000
0100
,
1000
0000
0001
0000
1000
0010
1000
0000
,
1001
0011
0110
1100
,
1001
0000
0000
0000
0001
0000
0200
0000
0020
0000
0000
0300
0000
0000
0030
0000
,
1000
0000
0010
0000
1000
0000
0001
0001
,
0001
0000
0010
0000
0001
0000
1000
0001
,
2000
0010
0020
3030
,
0010
0100
0001
0000
1000
0000
0000
0000
,
0001
0000
0010
0000
0001
0000
1000
1000
,
1000
0000
0010
0000
1000
0000
0001
1000
,
0002
0010
0020
0033
,
0100
0010
0100
0000
1001
0000
0000
0000
,
2000
3020
0032
0023
,
1030
0000
0010
1000
0100
0000
0110
0000
,
0002
0023
2030
3020
,
0031
0000
0010
0001
0100
0000
0110
0000
,
2000
3020
0230
0302
,
0013
0000
0100
0010
0100
0000
0000
2001
,
0000
0000
3010
0000
0100
0000
0000
1002
,
0000
0000
0013
0000
0110
0000
0000
2002
,
0000
3003
0000
1000
0000
0001
0000
1001
,
0000
1001
0000
1000
0001
0000
0000
1001
,
0000
1001
1001
1001
,
1000
0100
1000
0000
0100
0000
0010
0001
,
0000
1001
1001
1001
,
0001
0000
0100
0000
0010
1000
0010
0000
,
2020
3030
0010
1000
,
0010
1000
0010
0000
1001
0000
0010
0001
,
0010
0022
0033
0001
,
0010
0001
0010
0000
1001
0000
0000
1001
,
0000
1001
1001
1001
,
0001
0100
0001
0000
0010
0000
0001
1000
,
0000
1001
1001
1001
,
1000
0000
0100
0000
1000
0010
0100
0000
,
2020
3030
0010
1000
,
0001
0010
0100
0000
0022
0000
0033
0000
,
0011
0001
0101
0100
,
1010
1000
1100
0100
,
0011
0100
1010
0100
,
0001
1000
0001
1000
0000
0000
1000
0010
,
0100
0000
0010
0000
1000
0100
0010
0000
,
0100
0000
1000
0010
0100
0000
0001
0000
,
1001
0000
1000
0000
0100
0010
0001
0000
,
0100
0000
0010
1000
1000
0000
0001
0010
,
0100
0000
0010
0000
0001
0100
0010
0000
,
0100
0000
0001
0010
0100
0000
1001
0000
,
1010
0110
0101
1001
,
1000
0000
0200
0000
0020
0000
0000
0300
0000
0000
0030
0000
0100
0000
0000
0000
;

//---------------dance-single - ----------------
#NOTEDATA:;
#CHARTNAME:;
#STEPSTYPE:dance-single;
#DESCRIPTION:;
#CHARTSTYLE:;
#DIFFICULTY:Easy;
#METER:6;
#RADARVALUES:0.337554,0.350009,0.319616,0.194053,0.000000,207.000000,179.000000,28.000000,17.000000,0.000000,0.000000,0.000000,0.000000,0.000000,0.337554,0.350009,0.319616,0.194053,0.000000,207.000000,179.000000,28.000000,17.000000,0.000000,0.000000,0.000000,0.000000,0.000000;
#CREDIT:;
#OFFSET:4.673595;
#BPMS:0.000000=150.000000
,221.000000=154.108994
,222.500000=138.888000
;
#STOPS:190.000000=0.400000
;
#DELAYS:;
#WARPS:;
#TIMESIGNATURES:0.000000=4=4
;
#TICKCOUNTS:0.000000=4
;
#COMBOS:0.000000=1
;
#SPEEDS:0.000000=1.000000=0.000000=0
;
#SCROLLS:0.000000=1.000000
,221.000000=0.973000
,222.500000=1.080000
;
#FAKES:;
#LABELS:0.000000=Song Start
;
#DISPLAYBPM:150.000000;
#NOTES:
0000
0000
0000
0000
,
0000
0000
0000
0000
,
0000
0000
0000
0000
,
0000
0000
0000
0000
,
0001
0001
0010
0100
,
0100
1000
0010
0010
,
0100
0110
0100
0010
,
1000
0100
0010
0001
,
1000
1000
0010
0100
,
0100
0001
0010
0010
,
0001
0010
0100
1000
,
0001
0100
0110
0000
,
1000
0010
1000
1000
,
0001
0010
0001
1000
,
2002
3000
0003
1000
,
0010
0100
0001
0000
,
1000
0100
1000
1000
,
0001
0100
0001
0010
,
0220
0030
0300
0010
,
0100
0010
1001
0000
,
2000
3020
0230
0302
,
0013
0001
0011
0000
,
0002
0023
0230
2300
,
3010
1000
1010
0000
,
0020
0230
0302
2003
,
3100
0000
0010
0000
0110
0000
0000
0110
,
0000
0000
0000
0000
1001
0000
0000
1001
,
0000
0000
0000
0000
1001
0000
0000
0120
,
0000
0000
0000
0100
0000
0100
0000
0130
,
0000
0000
0000
0000
0000
0000
0000
1001
,
0000
1000
0010
0100
,
0001
0000
1000
0000
0001
0000
0000
1001
,
0000
0001
0010
0100
,
1000
0001
1000
1000
,
1010
0000
1000
0000
,
1000
1000
1010
0001
,
0001
0011
0001
0000
,
0001
0000
0001
0000
0011
0000
0000
1001
,
0000
1000
0010
1000
,
0100
0000
1000
0000
0001
0000
0000
1001
,
0000
0001
0010
0001
,
0100
0001
0010
0010
,
1100
0000
0010
0000
,
0010
0010
0101
0000
,
0001
0010
0100
1000
,
0001
0010
1100
0101
,
1000
0010
0100
0001
,
1000
0100
0000
1000
,
1000
0010
0001
0001
,
0010
1000
1000
0100
,
0110
0100
1000
0010
,
0100
0001
1000
0001
,
0001
0010
1000
1000
,
0010
0001
0001
1000
,
0010
0100
0001
1000
,
0100
0110
0000
1001
;

//---------------dance-single - ----------------
#NOTEDATA:;
#CHARTNAME:;
#STEPSTYPE:dance-single;
#DESCRIPTION:;
#CHARTSTYLE:;
#DIFFICULTY:Beginner;
#METER:3;
#RADARVALUES:0.200576,0.319616,0.171223,0.022830,0.000000,123.000000,108.000000,15.000000,2.000000,0.000000,0.000000,0.000000,0.000000,0.000000,0.200576,0.319616,0.171223,0.022830,0.000000,123.000000,108.000000,15.000000,2.000000,0.000000,0.000000,0.000000,0.000000,0.000000;
#CREDIT:;
#OFFSET:4.673595;
#BPMS:0.000000=150.000000
,222.000000=154.108994
,223.500000=138.888000
;
#STOPS:;
#DELAYS:;
#WARPS:;
#TIMESIGNATURES:0.000000=4=4
;
#TICKCOUNTS:0.000000=4
;
#COMBOS:0.000000=1
;
#SPEEDS:0.000000=1.000000=0.000000=0
;
#SCROLLS:0.000000=1.000000
,222.000000=0.973000
,223.500000=1.080000
;
#FAKES:;
#LABELS:0.000000=Song Start
;
#DISPLAYBPM:150.000000;
#NOTES:
0000
0000
0000
0000
,
0000
0000
0000
0000
,
0000
0000
0000
0000
,
0000
0000
0000
0000
,
0001
0000
0001
0000
,
1000
0000
1000
0000
,
0001
0000
1000
0000
,
0010
0010
0010
0000
,
1000
0000
1000
0000
,
0001
0000
0001
0000
,
0010
0000
0100
0000
,
1000
0000
0001
0000
,
1000
0000
1000
0000
,
1000
1000
1000
0000
,
2000
0000
3000
0000
,
0001
0000
1000
0000
,
0001
0000
0001
0000
,
0001
0001
0001
0000
,
0002
0000
0003
0000
,
1000
0000
0001
0000
,
0010
0000
0100
0000
,
0010
0010
0010
0000
,
0100
0000
0010
0000
,
0100
0100
0100
0000
,
0010
0000
0100
0000
,
0010
0000
1001
0000
,
0000
0000
1001
0000
,
0000
0000
1001
0000
,
0010
0000
0010
0000
,
0010
0000
0000
0000
,
1001
0000
1000
0000
,
0010
0000
0000
0000
,
1001
0000
0001
0000
,
0010
0000
0001
0001
,
0001
0000
0000
0000
,
1000
1000
1000
1000
,
1000
1000
0000
0000
,
0001
0001
0001
0000
,
1001
0000
0001
0000
,
0100
0000
0000
0000
,
1001
0000
1000
0000
,
0100
0000
0010
0010
,
0010
0000
0000
0000
,
0010
0010
0010
0000
,
1001
0000
1001
0000
,
0110
0000
0110
0000
,
1001
0000
0110
0000
,
1001
1001
0000
0000
,
1000
0000
1000
0000
,
0001
0000
0001
0000
,
1000
0000
0001
0000
,
0010
0010
0010
0000
,
0001
0000
0001
0000
,
1000
0000
1000
0000
,
0010
0000
0100
0000
,
0001
0000
1000
0000
,
0100
0000
0000
0000
;

//---------------dance-single - ----------------
#NOTEDATA:;
#CHARTNAME:;
#STEPSTYPE:dance-single;
#DESCRIPTION:;
#CHARTSTYLE:;
#DIFFICULTY:Challenge;
#METER:14;
#RADARVALUES:0.776211,0.855259,0.399521,0.273957,0.479425,476.000000,441.000000,35.000000,24.000000,0.000000,0.000000,0.000000,0.000000,0.000000,0.776211,0.855259,0.399521,0.273957,0.479425,476.000000,441.000000,35.000000,24.000000,0.000000,0.000000,0.000000,0.000000,0.000000;
#CREDIT:;
#OFFSET:4.673595;
#BPMS:0.000000=150.000000
,220.000000=154.108994
,221.500000=138.888000
;
#STOPS:189.500000=0.800000
;
#DELAYS:;
#WARPS:;
#TIMESIGNATURES:0.000000=4=4
;
#TICKCOUNTS:0.000000=4
;
#COMBOS:0.000000=1
;
#SPEEDS:0.000000=1.000000=0.000000=0
;
#SCROLLS:0.000000=1.000000
,220.000000=0.973000
,221.500000=1.080000
;
#FAKES:;
#LABELS:0.000000=Song Start
;
#DISPLAYBPM:150.000000;
#NOTES:
0000
0000
0000
0000
,
0000
0000
0000
0000
,
0000
0000
0000
0000
,
0000
0000
0000
0000
,
1000
0000
0010
0000
0100
0000
0010
1000
0010
0000
1000
0000
0001
0000
0010
0000
,
0100
0000
0010
0001
0010
0000
0001
0000
1000
0000
0010
0000
0100
0000
0010
0000
,
1000
1000
1001
0001
0010
0010
1000
0010
,
0001
0000
0100
0000
1000
0000
0100
0000
0001
0000
0010
0000
0010
0000
0100
1000
,
0001
0000
0100
0000
0010
0000
0100
0001
0100
0000
0001
0000
1000
0000
0100
0000
,
0010
0000
0100
1000
0100
0000
1000
0000
0001
0000
0100
0000
0010
0000
1000
0000
,
0001
0000
0010
0001
0010
0000
0100
0010
0100
0000
1000
0100
1000
0000
0010
1000
,
0010
0000
0100
0010
0100
0010
0100
0001
1000
0000
0000
1001
0000
0000
1001
0000
,
2001
0000
3100
0010
0200
0000
0310
0100
,
0001
0100
0010
0001
2000
0000
3001
0100
,
2000
0000
0001
0000
3001
1000
0100
0001
,
1000
0000
0010
0000
0100
0000
0001
0000
0010
0000
0000
0100
0000
0000
0010
0000
,
0002
0000
0103
0010
0200
0000
0310
0100
,
1000
0100
0010
1000
0002
0000
1003
0100
,
0002
0000
1000
0000
1003
0000
0001
0100
,
1000
0000
0010
0000
0001
0000
0010
0000
1000
0000
0000
0000
1001
0000
0001
1000
,
0100
0000
0000
0000
0100
0000
1000
0001
0100
0000
0000
0000
0100
0000
0001
1000
,
0000
1000
0000
0001
0010
0000
1000
0000
0010
0000
0001
0000
0001
0000
1000
0010
,
0100
0000
0000
0000
0100
0000
0001
0010
0100
0000
0000
0000
0100
0000
1000
0001
,
0000
0001
0000
1000
0010
0000
0001
0000
0010
0000
1000
0000
1000
0000
0010
1000
,
0100
0000
0000
0000
0100
0000
0010
0001
0100
0000
0000
0000
0100
0000
0010
1000
,
0000
0001
0000
1000
0100
0000
0010
0000
0011
0000
0000
0101
0000
0000
1002
0000
,
0000
0000
0013
0000
0001
0100
0010
0000
1010
0000
0000
1100
0000
0000
2001
0000
,
0000
3010
1000
0000
0100
0000
0010
0001
1000
0000
0010
0000
0100
0000
0210
0000
,
0000
0000
0301
1000
0100
0000
0010
0000
0100
0010
0100
0010
0001
0000
0011
0000
,
0000
1100
0000
1001
1001
0001
0100
1000
,
0000
0000
0100
0000
0001
0000
1000
0010
1000
0000
0001
0010
0000
0100
1000
0100
,
1000
0001
0000
1000
0010
0000
0100
0000
0001
0000
1000
0000
0100
0000
0001
0000
,
0000
0000
0100
0000
1000
0000
0001
0010
0001
0000
1000
0010
0000
0100
0001
0000
,
1000
0100
0010
0001
1002
0013
1002
0013
,
0001
0001
0100
0001
0001
0020
0000
0031
,
2001
3010
2001
3010
1001
0000
2001
3010
,
1002
0000
0013
0000
0100
0000
1000
0000
1000
0000
0020
0000
0000
0000
1030
0100
,
0010
0000
0001
0100
0001
0100
0010
0000
1000
0000
0001
0000
0010
0000
1000
0000
,
0000
0000
0010
0000
0001
0000
1000
0100
0010
0000
0001
0100
0000
0010
1000
0001
,
1000
0100
0000
1000
0100
0000
0010
0000
0001
0000
1000
0000
0010
0000
0001
0000
,
0000
0000
0010
0000
1000
0000
0001
0100
0010
0000
1000
0100
0000
0100
0010
0001
,
1000
0001
0100
0010
2010
3001
0012
1003
,
0010
0010
1000
0100
0100
2000
0000
3001
,
0102
0000
1003
0000
2100
0000
3001
0000
0101
0000
0000
0000
0110
0000
0100
0010
,
1000
0000
0001
0000
0010
0100
0010
0000
0001
0000
1000
0000
0010
0100
0010
0000
,
1000
0001
1000
0001
1000
0100
0010
0000
0011
0000
0000
1001
0000
0000
1010
0000
,
0001
0100
0001
0000
1000
0100
1000
0000
0001
0100
0001
1000
0001
1000
0100
0000
,
0010
0000
0010
0000
0010
0000
0010
0000
0001
0000
0010
0000
1000
0000
0010
0100
,
0010
0000
0001
0000
1000
0000
0010
0000
0001
0000
0010
0100
0010
0000
1000
0000
,
0001
0010
1000
0010
0001
0001
1001
1000
,
0010
0010
0001
0010
1000
0100
0001
0100
,
1000
0000
0010
0000
0010
0000
0100
0001
1000
0000
0100
0000
0001
0000
0100
0010
,
0100
0000
1000
0000
0001
0000
0100
0000
1000
0000
0100
0010
0100
0000
0001
0000
,
1000
0000
0100
0000
0001
0000
0100
0000
1000
0000
0010
1000
0010
0000
0100
0010
,
0100
0000
0001
0100
0001
0000
0010
0001
0010
0000
0100
1000
0001
1000
0001
0100
,
0010
0000
0000
1001
0000
0000
1001
0000
0100
0000
0000
0000
0000
0000
0000
0000
;
