#VERSION:0.83;
#TITLE:Jason's Mom;
#SUBTITLE:;
#ARTIST:Ice Nine Kills;
#TITLETRANSLIT:;
#SUBTITLETRANSLIT:;
#ARTISTTRANSLIT:;
#GENRE:I <3 Pamela Voorhees;
#ORIGIN:;
#CREDIT:;
#BANNER:Jason's Mom.png;
#BACKGROUND:Jason's Mom-bg.png;
#PREVIEWVID:;
#JACKET:Jason's Mom-jacket.png;
#CDIMAGE:;
#DISCIMAGE:;
#LYRICSPATH:Jason's Mom.lrc;
#CDTITLE:cdtitle.png;
#MUSIC:Jason's Mom.ogg;
#OFFSET:-0.215000;
#SAMPLESTART:65.171997;
#SAMPLELENGTH:16.271187;
#SELECTABLE:YES;
#BPMS:0.000=118.000;
#STOPS:;
#DELAYS:;
#WARPS:;
#TIMESIGNATURES:0.000=4=4;
#TICKCOUNTS:0.000=4;
#COMBOS:0.000=1;
#SPEEDS:0.000=1.000=0.000=0;
#SCROLLS:0.000=1.000;
#FAKES:;
#LABELS:0.000=Song Start;
#BGCHANGES:191.000=Norman Bates's Mom-bg.png=1.000=0=0=1=====,
224.000=Jason's Mom-bg.png=1.000=0=0=1=====,
99999=-nosongbg-=1.000=0=0=0 // don't automatically add -songbackground-
;
#KEYSOUNDS:;
#ATTACKS:
;

//---------------dance-single - ----------------
#NOTEDATA:;
#CHARTNAME:;
#STEPSTYPE:dance-single;
#DESCRIPTION:;
#CHARTSTYLE:;
#DIFFICULTY:Hard;
#METER:10;
#RADARVALUES:0.452837,0.461971,0.242669,0.492921,0.030334,418.000000,386.000000,32.000000,65.000000,13.000000,0.000000,1.000000,0.000000,0.000000,0.452837,0.461971,0.242669,0.492921,0.030334,418.000000,386.000000,32.000000,65.000000,13.000000,0.000000,1.000000,0.000000,0.000000;
#CREDIT:;
#NOTES:
// measure 0
0000
0000
0000
0000
,  // measure 1
0000
0000
0000
0000
,  // measure 2
0000
0000
0000
0000
,  // measure 3
0000
0000
0000
0000
,  // measure 4
1000
0010
0000
0100
0000
0010
0100
0002
,  // measure 5
0000
1003
0010
0100
0001
0000
1000
1001
,  // measure 6
0001
0010
0000
0100
0000
0010
0100
2000
,  // measure 7
0000
3001
0010
0100
1000
0000
0001
1001
,  // measure 8
1000
0010
0000
0100
0000
0010
1000
0200
,  // measure 9
0000
1300
0010
0100
0001
0000
1000
1001
,  // measure 10
0001
0010
0000
0100
0000
0010
0001
0200
,  // measure 11
0000
0301
0010
0100
1000
0000
0001
1001
,  // measure 12
0000
0000
1000
0010
1000
0010
0100
0001
,  // measure 13
1000
0001
0010
0100
0010
0001
1000
0020
,  // measure 14
0000
0230
0320
0230
0302
0000
1003
0000
,  // measure 15
0001
1000
0100
0002
0000
0003
0000
0110
,  // measure 16
0000
0001
0001
0010
0001
0010
0100
1000
,  // measure 17
0004
1003
0010
0100
0010
1000
0001
0020
,  // measure 18
0000
0000
0230
0000
0320
0000
0230
0000
230M
00M0
0M00
00M0
3M01
0000
0000
0000
,  // measure 19
1000
0001
0100
20MM
00MM
30MM
00MM
0110
,  // measure 20
0000
1000
1000
0010
0100
0001
0010
0001
,  // measure 21
0100
0010
1000
0001
0010
0001
0020
1000
,  // measure 22
0000
0100
0000
0031
0000
0001
1000
0000
,  // measure 23
0001
0200
0000
2300
0000
3001
0000
0110
,  // measure 24
0000
1000
0001
0010
0100
1000
0010
1000
,  // measure 25
0100
0010
0001
1000
0010
1000
0020
0001
,  // measure 26
0000
0100
0000
1030
0000
1000
0001
0000
,  // measure 27
1000
1000
0100
0002
0000
1003
0000
0110
,  // measure 28
0000
1000
0001
1000
0010
0100
0001
1000
,  // measure 29
0100
1000
0001
0100
0001
1000
0100
1000
,  // measure 30
0010
0100
0001
0010
0100
1000
0010
0100
,  // measure 31
0001
0010
0100
1000
0002
0000
0003
0000
,  // measure 32
2001
3010
0000
1010
0000
1000
0010
0210
,  // measure 33
0000
1300
0100
0010
1010
0000
0010
1000
,  // measure 34
2001
3100
0000
1100
0000
1000
0100
0120
,  // measure 35
0000
1030
0010
0100
2000
3002
0203
0300
,  // measure 36
0001
0100
1000
0001
0010
1000
1000
0010
,  // measure 37
1000
0100
0001
1000
0010
0001
1000
0010
,  // measure 38
0120
0000
0000
0001
0000
0000
0100
0000
2000
0000
0000
0000
3030
0000
0000
0000
,  // measure 39
1000
0010
0100
0001
2001
0001
0000
3100
,  // measure 40
0010
0001
1000
0020
0000
0130
0010
0200
,  // measure 41
0000
0310
0100
0001
2000
0000
3100
1000
,  // measure 42
0010
1000
0001
0020
0000
0130
0010
0200
,  // measure 43
0000
1300
1000
0010
0010
0100
0100
0001
,  // measure 44
1000
0100
0010
0002
0000
0103
0010
2000
,  // measure 45
0000
3100
0010
0001
2000
0000
3010
0100
,  // measure 46
0001
0001
0010
0010
0100
0100
1000
1000
,  // measure 47
0010
0010
0100
0100
0001
0001
1000
0001
,  // measure 48
1002
0013
0000
0011
0000
0001
0010
0210
,  // measure 49
0000
0301
0100
0010
0011
0000
0010
0001
,  // measure 50
1002
0103
0000
0101
0000
0001
0100
0020
,  // measure 51
0001
0031
0010
0100
0002
2003
3200
0300
,  // measure 52
0001
0100
0010
1000
0010
0001
0001
1000
,  // measure 53
0010
0000
0100
0000
2000
0000
3000
0100
0010
0000
0001
0000
0010
0000
1000
0000
,  // measure 54
0200
0000
0000
0320
0000
0000
0032
0000
2003
0000
0000
0000
3010
0100
0010
0000
,  // measure 55
0200
0000
0300
0000
0001
1000
0100
0010
,  // measure 56
0012
1003
0000
1001
0000
0001
0100
0210
,  // measure 57
0000
0301
0010
0210
1300
0001
0100
0010
,  // measure 58
2010
3001
0000
1001
0000
1000
0100
0210
,  // measure 59
0000
0000
1300
0000
0010
0000
0110
0000
0002
0000
0000
2003
0000
0000
3002
0000
,  // measure 60
1003
0100
0001
1000
0010
0001
0001
0010
,  // measure 61
0001
0100
1000
0001
0010
1000
0001
0010
,  // measure 62
0120
0000
0000
1000
0000
0000
0100
0000
0002
0000
0000
0000
0033
0000
0000
0000
,  // measure 63
0001
0010
0100
2000
0001
0001
0000
0002
,  // measure 64
0000
3003
0000
0000
0000
0000
0000
0000
;

//---------------dance-single - ----------------
#NOTEDATA:;
#CHARTNAME:;
#STEPSTYPE:dance-single;
#DESCRIPTION:;
#CHARTSTYLE:;
#DIFFICULTY:Medium;
#METER:7;
#RADARVALUES:0.289252,0.314853,0.098584,0.250252,0.000000,267.000000,254.000000,13.000000,33.000000,0.000000,0.000000,0.000000,0.000000,0.000000,0.289252,0.314853,0.098584,0.250252,0.000000,267.000000,254.000000,13.000000,33.000000,0.000000,0.000000,0.000000,0.000000,0.000000;
#CREDIT:;
#NOTES:
0000
0000
0000
0000
,
0000
0000
0000
0000
,
0000
0000
0000
0000
,
0000
0000
0000
0000
,
1000
1000
0010
0010
,
1000
0000
0010
0000
0100
0000
0001
1000
,
0001
0001
0010
0010
,
0001
0000
0010
0000
0100
0000
1000
0001
,
1000
0010
0100
0001
,
0010
0000
0001
0000
0100
0000
0001
1000
,
0001
0010
0100
1000
,
0010
0000
1000
0000
0100
0000
1000
0001
,
1000
0001
0100
0100
,
0001
0000
0100
0000
0010
0000
1000
0002
,
0000
1000
0020
0033
,
0001
0010
0001
0100
0000
0000
0000
1001
,
0000
1000
0100
0100
,
1000
0000
0100
0000
0010
0000
0001
2000
,
0000
0001
0020
3030
,
1000
0010
1000
0100
0000
0000
0000
1001
,
0000
1000
1000
0010
,
0001
0000
0010
0000
2000
0010
0000
0001
,
0000
0200
0000
0000
3300
0000
0000
0000
,
1000
0100
0000
1000
0000
0010
0000
1001
,
0000
0001
0001
0010
,
1000
0000
0010
0000
0002
0010
0000
1000
,
0000
0200
0000
0000
0303
0000
0000
0000
,
0001
0100
0001
0010
0000
0010
0000
1001
,
0000
0001
0100
0010
,
1000
0010
1000
0000
0001
0010
0001
0000
,
1000
1000
0100
0010
,
0001
1000
0001
0000
2002
0000
3003
0000
,
0001
0100
0000
0200
0000
0300
0001
0010
,
0000
0001
0010
0001
0100
0000
0010
0000
,
1000
0001
0000
0002
0000
0003
1000
0100
,
0000
1000
0100
0010
0001
0000
1000
0000
,
0001
0100
1000
0000
0100
0000
0001
0000
,
1000
0100
0001
0000
0100
0000
1000
0000
,
1001
0110
2002
3003
,
0001
0000
0010
0000
0100
1000
0000
0001
,
0100
0000
0010
2000
0000
3000
0001
0020
,
0000
0030
0100
0000
1000
0000
0001
0000
,
1000
0000
0010
0200
0000
0300
0001
2000
,
0000
3001
1000
0000
0001
0000
1000
0000
,
0100
0000
0010
0002
0000
0003
1000
0020
,
0000
0030
0100
0000
0001
0000
1000
0000
,
0100
0010
0001
1000
,
0010
0100
0001
0001
,
1000
0100
0000
0200
0000
0300
1000
0010
,
0000
1000
0010
1000
0100
0000
0010
0000
,
0001
1000
0000
2000
0000
3000
0001
0100
,
0010
0000
1000
0100
0010
0000
0001
0000
,
1000
0010
0001
0000
0010
0000
1000
0000
,
0001
0010
1000
0000
0010
0000
0001
1000
,
0002
0203
0320
2030
,
0002
3003
1000
0001
,
1000
0100
0000
0012
0000
0000
1000
1000
,
0000
0000
0100
0200
0000
0000
0303
0000
,
0001
0100
0000
2010
0000
0000
0001
0001
,
0000
0000
0100
0200
0000
3300
0000
0000
,
1000
0100
0001
0000
0100
0000
1000
0000
,
0001
0100
1000
0000
0100
0000
0001
0000
,
1001
0110
2002
3003
,
1000
0000
0100
0000
0010
0001
0000
1000
;

//---------------dance-single - ----------------
#NOTEDATA:;
#CHARTNAME:;
#STEPSTYPE:dance-single;
#DESCRIPTION:;
#CHARTSTYLE:;
#DIFFICULTY:Easy;
#METER:4;
#RADARVALUES:0.178752,0.242195,0.098584,0.204752,0.000000,165.000000,152.000000,13.000000,27.000000,0.000000,0.000000,0.000000,0.000000,0.000000,0.178752,0.242195,0.098584,0.204752,0.000000,165.000000,152.000000,13.000000,27.000000,0.000000,0.000000,0.000000,0.000000,0.000000;
#CREDIT:;
#NOTES:
0000
0000
0000
0000
,
0000
0000
0000
0000
,
0000
0000
0000
0000
,
0000
0000
0000
0000
,
1000
0000
0010
0000
,
1000
0010
1000
0000
,
0001
0000
0010
0000
,
0001
0010
0001
0000
,
1000
0000
0001
0000
,
0100
0010
1000
0000
,
0001
0000
1000
0000
,
0100
0010
0001
0000
,
0000
1000
1000
0001
,
1000
0000
0010
1000
,
0200
0000
0300
0000
,
0100
0010
0001
0000
,
0000
0001
0001
1000
,
0001
0000
0010
0001
,
0200
0000
0300
0000
,
0100
0010
1000
0000
,
0000
0001
0001
0010
,
0100
0000
0100
1000
,
0020
0000
0030
0000
,
0010
0100
0001
0000
,
0000
1000
1000
0010
,
0100
0000
0100
0001
,
0020
0000
0030
0000
,
0010
0100
1000
0000
,
0001
0000
0001
0000
,
0100
0000
0010
0000
,
1000
0000
1000
0000
,
0100
0010
0002
0003
,
1001
0000
1001
0000
,
1000
0010
1000
0010
,
1001
0000
1001
0000
,
1000
0100
1000
0000
,
0001
0100
1000
0000
,
1000
0100
0001
0000
,
0020
0030
0200
0300
,
1000
0001
1001
0000
,
0001
0001
0002
0003
,
0200
0300
0010
0010
,
1000
1000
2000
3000
,
0002
0000
0000
0003
,
1000
1000
2000
3000
,
0200
0300
0010
0010
,
0002
0003
0200
0300
,
0020
0030
2000
3000
,
1001
0000
1001
0000
,
0001
0010
0001
0010
,
1001
0000
1001
0000
,
0001
0100
0001
0000
,
1000
0100
0001
0000
,
0001
0100
1000
0000
,
0020
0030
0200
0300
,
0002
0003
1000
0001
,
1001
0000
1001
0000
,
2000
3000
0020
0030
,
1001
0000
1001
0000
,
0002
0003
0020
0030
,
0001
0100
1000
0000
,
1000
0100
0001
0000
,
0020
0030
0200
0300
,
0010
0000
0100
0000
2000
0000
0000
3000
;
