#VERSION:0.83;
#TITLE:いただき! 桃色ゾンビにあん;
#SUBTITLE:;
#ARTIST:ARM×狐夢想 feat. 桃箱;
#TITLETRANSLIT:Itadaki! Momoiro zombie nian;
#SUBTITLETRANSLIT:;
#ARTISTTRANSLIT:ARM×Kosmo feat. Momobako;
#GENRE:Hyper Undead Kawaiicore;
#ORIGIN:;
#CREDIT:;
#BANNER:Itadaki! Momoiro zombie nian.png;
#BACKGROUND:Itadaki! Momoiro zombie nian-bg.png;
#PREVIEWVID:;
#JACKET:Itadaki! Momoiro zombie nian-jacket.png;
#CDIMAGE:;
#DISCIMAGE:;
#LYRICSPATH:;
#CDTITLE:cdtitle.png;
#MUSIC:Itadaki! Momoiro zombie nian.ogg;
#OFFSET:-1.131000;
#SAMPLESTART:79.731003;
#SAMPLELENGTH:19.199997;
#SELECTABLE:YES;
#BPMS:0.000=200.000,
208.000=100.000,
248.000=200.000;
#STOPS:;
#DELAYS:;
#WARPS:230.000=16.000;
#TIMESIGNATURES:0.000=4=4;
#TICKCOUNTS:0.000=4;
#COMBOS:0.000=1;
#SPEEDS:0.000=1.000=0.000=0;
#SCROLLS:0.000=1.000,
24.000=2.000,
24.500=1.000,
25.000=0.500,
25.500=0.250,
28.000=0.000,
28.250=2.000,
28.500=0.000,
28.625=2.000,
28.750=0.000,
28.875=2.000,
29.000=0.000,
29.250=2.000,
29.500=0.000,
29.750=2.000,
30.000=0.000,
30.125=2.000,
30.250=0.000,
30.375=2.000,
30.500=0.000,
30.750=2.000,
31.000=0.000,
31.500=2.000,
32.000=1.000,
56.500=0.969,
57.000=0.938,
57.500=0.906,
58.000=0.875,
58.500=0.844,
59.000=0.813,
59.500=0.781,
60.000=0.750,
60.500=0.719,
61.000=0.688,
61.500=0.656,
62.000=0.625,
62.500=0.594,
63.000=0.563,
63.500=0.531,
64.000=0.500,
84.250=0.531,
84.500=0.563,
84.750=0.594,
85.000=0.625,
85.250=0.656,
85.500=0.688,
85.750=0.719,
86.000=0.750,
86.250=0.781,
86.500=0.813,
86.750=0.844,
87.000=0.875,
87.250=0.906,
87.500=0.938,
87.750=0.969,
88.000=1.000,
92.000=0.000,
92.500=2.000,
93.000=0.000,
93.500=2.000,
94.000=0.000,
94.125=2.000,
94.250=0.000,
94.375=2.000,
94.500=0.000,
94.625=2.000,
94.750=0.000,
94.875=2.000,
95.000=0.000,
95.500=2.000,
96.000=1.000,
134.000=0.000,
134.500=2.000,
135.000=0.000,
135.500=2.000,
136.000=1.000,
142.000=0.000,
142.500=2.000,
143.000=0.000,
143.500=2.000,
144.000=1.000,
156.000=0.000,
156.167=2.000,
156.333=0.000,
156.500=2.000,
156.667=0.000,
156.833=2.000,
157.000=0.000,
157.167=2.000,
157.333=0.000,
157.500=2.000,
157.667=0.000,
157.833=2.000,
158.000=0.000,
158.333=2.000,
158.667=0.000,
159.000=2.000,
159.333=0.000,
159.667=2.000,
160.000=0.500,
176.000=1.000,
191.500=0.000,
192.500=1.000,
202.000=2.000,
202.250=1.500,
202.500=1.000,
202.750=0.500,
206.000=2.000,
206.500=1.500,
207.000=1.000,
207.500=0.500,
208.000=1.000,
230.000=0.000,
231.000=1.000,
232.000=0.000,
233.000=1.000,
234.000=0.000,
235.000=1.000,
246.000=0.000,
247.000=1.000,
248.000=0.000,
249.000=1.000,
250.000=0.000,
251.000=1.000,
286.000=0.000,
286.500=2.000,
287.000=0.000,
287.500=2.000,
288.000=1.000,
320.000=2.000,
322.000=0.500,
324.000=1.000,
331.500=0.000,
333.000=0.500,
333.250=1.000,
333.500=2.000,
339.000=1.500,
339.250=1.000,
339.500=0.500,
339.750=0.250;
#FAKES:28.000=2.750;
#LABELS:0.000=Song Start;
#BGCHANGES:;
#KEYSOUNDS:;
#ATTACKS:
;

//---------------dance-single - ----------------
#NOTEDATA:;
#CHARTNAME:;
#STEPSTYPE:dance-single;
#DESCRIPTION:;
#CHARTSTYLE:;
#DIFFICULTY:Challenge;
#METER:14;
#RADARVALUES:0.608417,0.803613,0.387175,0.621280,0.252114,473.000000,430.000000,43.000000,69.000000,0.000000,0.000000,0.000000,0.000000,22.000000,0.608417,0.803613,0.387175,0.621280,0.252114,473.000000,430.000000,43.000000,69.000000,0.000000,0.000000,0.000000,0.000000,22.000000;
#CREDIT:;
#OFFSET:-1.131000;
#BPMS:0.000000=200.000000
,208.000000=100.000000
,248.000000=200.000000
;
#STOPS:;
#DELAYS:;
#WARPS:230.000000=16.000000
;
#TIMESIGNATURES:0.000000=4=4
;
#TICKCOUNTS:0.000000=4
;
#COMBOS:0.000000=1
;
#SPEEDS:0.000000=1.000000=0.000000=0
;
#SCROLLS:0.000000=1.000000
,24.000000=2.000000
,24.500000=1.000000
,25.000000=0.500000
,25.500000=0.250000
,28.000000=0.000000
,28.250000=2.000000
,28.500000=0.000000
,28.625000=2.000000
,28.750000=0.000000
,28.875000=2.000000
,29.000000=0.000000
,29.250000=2.000000
,29.500000=0.000000
,29.750000=2.000000
,30.000000=0.000000
,30.125000=2.000000
,30.250000=0.000000
,30.375000=2.000000
,30.500000=0.000000
,30.750000=2.000000
,31.000000=0.000000
,31.500000=2.000000
,32.000000=1.000000
,56.500000=0.968750
,57.000000=0.937500
,57.500000=0.906250
,58.000000=0.875000
,58.500000=0.843750
,59.000000=0.812500
,59.500000=0.781250
,60.000000=0.750000
,60.500000=0.718750
,61.000000=0.687500
,61.500000=0.656250
,62.000000=0.625000
,62.500000=0.593750
,63.000000=0.562500
,63.500000=0.531250
,64.000000=0.500000
,84.250000=0.531250
,84.500000=0.562500
,84.750000=0.593750
,85.000000=0.625000
,85.250000=0.656250
,85.500000=0.687500
,85.750000=0.718750
,86.000000=0.750000
,86.250000=0.781250
,86.500000=0.812500
,86.750000=0.843750
,87.000000=0.875000
,87.250000=0.906250
,87.500000=0.937500
,87.750000=0.968750
,88.000000=1.000000
,92.000000=0.000000
,92.500000=2.000000
,93.000000=0.000000
,93.500000=2.000000
,94.000000=0.000000
,94.125000=2.000000
,94.250000=0.000000
,94.375000=2.000000
,94.500000=0.000000
,94.625000=2.000000
,94.750000=0.000000
,94.875000=2.000000
,95.000000=0.000000
,95.500000=2.000000
,96.000000=1.000000
,134.000000=0.000000
,134.500000=2.000000
,135.000000=0.000000
,135.500000=2.000000
,136.000000=1.000000
,142.000000=0.000000
,142.500000=2.000000
,143.000000=0.000000
,143.500000=2.000000
,144.000000=1.000000
,156.000000=0.000000
,156.166672=2.000000
,156.333328=0.000000
,156.500000=2.000000
,156.666672=0.000000
,156.833328=2.000000
,157.000000=0.000000
,157.166672=2.000000
,157.333328=0.000000
,157.500000=2.000000
,157.666672=0.000000
,157.833328=2.000000
,158.000000=0.000000
,158.333328=2.000000
,158.666672=0.000000
,159.000000=2.000000
,159.333328=0.000000
,159.666672=2.000000
,160.000000=0.500000
,176.000000=1.000000
,191.500000=0.000000
,192.500000=1.000000
,202.000000=2.000000
,202.250000=1.500000
,202.500000=1.000000
,202.750000=0.500000
,206.000000=2.000000
,206.500000=1.500000
,207.000000=1.000000
,207.500000=0.500000
,208.000000=1.000000
,230.000000=0.000000
,231.000000=1.000000
,232.000000=0.000000
,233.000000=1.000000
,234.000000=0.000000
,235.000000=1.000000
,246.000000=0.000000
,247.000000=1.000000
,248.000000=0.000000
,249.000000=1.000000
,250.000000=0.000000
,251.000000=1.000000
,286.000000=0.000000
,286.500000=2.000000
,287.000000=0.000000
,287.500000=2.000000
,288.000000=1.000000
,320.000000=2.000000
,322.000000=0.500000
,324.000000=1.000000
,331.500000=0.000000
,333.000000=0.500000
,333.250000=1.000000
,333.500000=2.000000
,339.000000=1.500000
,339.250000=1.000000
,339.500000=0.500000
,339.750000=0.250000
;
#FAKES:28.000000=2.750000
;
#LABELS:0.000000=Song Start
;
#NOTES:
0000
0000
0000
0000
,
0000
0000
0000
0000
,
0000
0000
0000
0000
,
0000
0000
0000
0000
,
1000
0100
0000
1000
0100
0000
0010
0000
,
0001
0100
0000
0001
0100
0000
0010
0000
,
0220
0000
0330
0000
,
000M
0000
0000
0000
M000
0000
000M
0000
M000
0000
0000
0000
000M
0000
0000
0000
M000
0000
000M
0000
M000
0000
0000
0000
0020
0000
0000
0000
0000
0030
0000
0000
,
1001
0000
1001
0000
0001
0010
0100
0002
,
0000
0000
0103
0000
0010
0000
0001
0000
1000
0000
0001
1000
0001
0000
0100
0000
,
0010
1000
0001
0010
0100
1000
0001
0200
,
0000
0301
0100
0001
0010
0100
1100
0000
,
1001
0000
1001
0000
1000
0010
0100
2000
,
0000
0000
3100
0000
0010
0000
1000
0000
0001
0000
1000
0001
1000
0000
0100
0000
,
0010
0001
1000
0010
1000
0001
0010
0001
,
0100
1000
0100
0001
1000
0100
0001
0100
,
0110
0000
0000
0000
,
0000
0000
0000
0000
,
0000
0000
0000
0000
,
0000
0000
0000
0110
,
1002
0000
2003
0000
,
3002
0203
0320
2030
,
3001
0010
0001
0010
0100
1000
0100
1000
,
0002
0000
0000
0000
0000
0003
0000
0000
2000
0000
0000
0000
0000
3000
0000
0000
0001
0000
1000
0000
0001
0000
1000
0000
0002
0000
0000
0000
0000
0003
0000
0000
,
0101
0000
1010
0000
0001
0010
0100
0002
,
0000
1003
0010
0100
1000
0000
1001
0000
,
0001
0100
1000
0100
0001
1000
0010
0100
,
0001
0000
1001
0000
0001
1000
0100
0000
,
1100
0000
0011
0000
1000
0010
0100
2000
,
0000
3001
0010
0100
0001
0000
1001
0000
,
1000
1000
0100
0010
0001
0001
0100
0010
,
1000
0110
2002
3003
,
1000
0100
0010
0100
0001
0100
0010
0100
,
1000
0000
0000
0000
0000
0000
0000
0000
1000
0000
0000
0000
0000
0000
0000
0000
0220
0000
0000
0000
0000
0330
0000
0000
2002
0000
0000
0000
0000
3003
0000
0000
,
0001
0100
0010
0100
1000
0100
0010
0100
,
0001
0000
0000
0000
0000
0000
0000
0000
0001
0000
0000
0000
0000
0000
0000
0000
0220
0000
0000
0000
0000
0330
0000
0000
2002
0000
0000
0000
0000
3003
0000
0000
,
0001
0100
0001
0020
0000
0001
0031
0000
,
1000
0100
1000
0020
0000
1000
1030
0000
,
0002
0023
2030
3020
,
0031
1000
0001
1000
0001
1000
0001
0000
0100
0000
0010
0000
,
2010
0000
3100
0000
,
0000
0100
0220
0330
,
0012
0000
0103
0000
,
0000
0000
0100
0000
0001
0100
0010
1000
,
0002
0010
2003
0010
,
3002
0100
2003
0100
,
3010
0100
0010
0100
0001
1000
0001
1000
,
0100
0001
0100
1000
0010
0001
0010
2000
,
0000
0000
0000
0000
0000
3000
0000
0000
1001
0000
0000
0000
0000
0000
0000
0000
0021
0000
0000
0000
0000
0000
0000
0000
0000
0000
0000
0000
0000
0000
0000
0000
,
1030
0010
0001
0100
1000
0000
0001
0010
,
1000
0100
0001
0000
0220
0000
0330
0000
,
0000
0000
2002
0000
,
3003
0000
0000
0001
0100
0010
1000
0000
0001
0010
0000
0100
,
1000
0000
0001
0000
0000
0200
0000
0300
0010
1000
0000
0002
,
0000
1003
0100
1000
0100
0010
0001
0000
1000
0010
0000
0001
,
0010
0000
0000
0000
0000
0000
0000
0000
0000
0000
0000
0000
0000
0000
0000
0000
0000
0000
0000
0000
0000
0000
0000
0000
0000
0000
0000
0000
0000
0000
0000
0000
1000
0000
0000
0000
0000
0000
0000
0000
0000
0000
0000
0000
0000
0000
0000
0000
0100
0000
0000
0000
0000
0000
0000
0000
0000
0000
0000
0000
0000
0000
0000
0000
0000
0000
0000
0000
0000
0000
0000
0000
0000
0000
0000
0000
0000
0000
0000
0000
0001
0000
0000
0000
0000
0000
0000
0000
0000
0000
0000
0000
0000
0000
0000
0000
0100
0000
0000
0000
0000
0000
0000
0000
0000
0000
0000
0000
0000
0000
0000
0000
0000
0000
0000
0000
0000
0000
0000
0000
2000
0000
0000
0000
0000
0000
0000
0000
0000
0000
0000
0000
0000
0000
0000
0000
0000
0000
0000
0000
0000
0000
0000
0000
3000
0000
0000
0000
0000
0000
0000
0000
0000
0000
0000
0000
0000
0000
0000
0000
0000
0000
0000
0000
0000
0000
0000
0000
0000
0000
0000
0000
0000
0000
1000
0000
0000
0000
0000
0000
0000
0000
0000
0000
0000
0000
0000
0000
0000
0000
0000
0000
,
0000
0000
0000
0001
0000
0000
0000
0000
0000
0000
0000
0000
0000
0000
0000
0100
0000
0000
0000
0000
0000
0000
0000
0000
0000
0000
0000
0010
0000
0000
0000
0000
0000
0000
0000
0000
0000
0000
0000
1000
0000
0000
0000
0000
0000
0000
0000
0000
0000
0000
0000
0000
0000
0000
0001
0000
0000
0000
0000
0000
0000
0000
0000
0000
0000
0000
0000
0000
0000
0000
0000
0000
0000
0000
0000
0000
0000
0000
0000
0000
0000
0000
0000
0000
0000
0000
0000
0000
0000
0000
0000
0000
0000
0000
0000
0000
0001
0000
0000
0000
0000
0000
0000
0000
0000
0000
0000
0000
0000
0000
0000
0000
0100
0000
0000
0000
0000
0000
0000
0000
0000
0000
0000
0000
0000
0000
0000
0000
0001
0000
0000
0000
0000
0000
0000
0000
0000
0000
0000
0000
0000
0000
0000
0000
1000
0000
0000
0000
0000
0000
0000
0000
0000
0000
0000
0000
0000
0000
0000
0000
0100
0000
0000
0000
0000
0000
0000
0000
0000
0000
0000
0000
0000
0000
0000
0000
1000
0000
0000
0000
0000
0000
0000
0000
0000
0000
0000
0000
0000
0000
0000
0000
,
0001
0010
0001
1000
0010
1000
0110
0000
0000
0000
0000
0000
,
0202
0000
0000
0000
0000
0000
0000
0000
0000
0303
0000
0000
0000
0000
0000
0000
2020
0000
0000
0000
0000
0000
0000
0000
0000
3030
0000
0000
0000
0000
0000
0000
,
1100
0000
0011
0000
0001
0100
0010
1000
,
0000
0000
0000
0000
,
0000
0000
0000
0000
0220
0000
0000
0330
,
0202
0000
0000
0000
0000
0000
0000
0000
0000
0303
0000
0000
0000
0000
0000
0000
2020
0000
0000
0000
0000
0000
0000
0000
0000
3030
0000
0000
0000
0000
0000
0000
,
1100
0000
0011
0000
0001
0100
0010
1000
,
0001
0000
0010
0001
0010
0000
0100
0000
1000
0000
0010
0000
0100
0000
0002
0000
,
0000
0000
0103
0001
0100
0000
0010
0000
1000
0000
0001
0000
1000
0000
0100
0000
,
0001
0100
0010
1000
0001
0100
0010
1000
,
0001
0100
1000
0001
0010
0100
1000
0001
,
0100
0000
0010
1000
0010
0000
0100
0000
0001
0000
1000
0000
0001
0000
0020
0000
,
0000
0000
0130
0010
0100
0000
1000
0000
0001
0000
1000
0001
1000
0000
0010
0000
,
0100
0000
0010
0100
0000
0001
0000
1001
,
0000
0000
0000
0000
0001
0000
1000
0000
0001
0000
0000
0000
1000
0000
0000
0000
0200
0000
0000
0000
0000
0300
0000
0000
0022
0000
0000
0000
0000
0033
0000
0000
,
1000
0000
0010
1000
0010
0000
0100
0000
0001
0000
0010
0000
0100
0000
2000
0000
,
0000
0000
3100
1000
0100
0000
0010
0000
0001
0000
1000
0000
0001
0000
0100
0000
,
1000
0100
0010
0001
1000
0100
0010
0001
,
2000
0000
0000
0000
3100
0000
0002
0000
0000
0000
1003
0001
1000
0000
0001
0000
,
0010
0100
0010
2000
0000
3010
0001
1000
,
0010
0100
0010
0001
1000
0100
0010
0100
,
0001
1000
0001
0000
1000
0000
0100
0000
0010
0000
0001
0000
0100
0000
0010
0000
,
1000
0000
0000
1000
0100
0000
0000
0100
0001
0000
0000
0001
0010
0000
0000
0010
,
2000
0000
3000
0000
,
1001
0000
0010
1001
0000
1100
0000
0101
,
0000
0011
0000
1010
0000
1000
0100
0002
,
0000
0000
0000
0003
0220
0000
0000
0000
,
0000
0000
0000
0000
,
0330
0000
0000
0000
;

//---------------dance-single - ----------------
#NOTEDATA:;
#CHARTNAME:;
#STEPSTYPE:dance-single;
#DESCRIPTION:;
#CHARTSTYLE:;
#DIFFICULTY:Hard;
#METER:12;
#RADARVALUES:0.473356,0.612276,0.324146,0.630284,0.072032,368.000000,332.000000,36.000000,70.000000,0.000000,0.000000,0.000000,0.000000,12.000000,0.473356,0.612276,0.324146,0.630284,0.072032,368.000000,332.000000,36.000000,70.000000,0.000000,0.000000,0.000000,0.000000,12.000000;
#CREDIT:;
#OFFSET:-1.131000;
#BPMS:0.000000=200.000000
,208.000000=100.000000
,248.000000=200.000000
;
#STOPS:;
#DELAYS:;
#WARPS:230.000000=16.000000
;
#TIMESIGNATURES:0.000000=4=4
;
#TICKCOUNTS:0.000000=4
;
#COMBOS:0.000000=1
;
#SPEEDS:0.000000=1.000000=0.000000=0
;
#SCROLLS:0.000000=1.000000
,24.000000=0.500000
,28.000000=1.000000
,64.000000=0.500000
,88.000000=1.000000
,160.000000=0.500000
,176.000000=1.000000
,202.000000=0.000000
,205.000000=1.000000
,232.000000=0.000000
,233.000000=1.000000
,234.000000=0.000000
,235.000000=1.000000
,248.000000=0.000000
,249.000000=1.000000
,250.000000=0.000000
,251.000000=1.000000
,331.500000=0.000000
,333.000000=1.000000
,334.000000=2.000000
,339.000000=1.500000
,339.250000=1.000000
,339.500000=0.500000
,339.750000=0.250000
;
#FAKES:;
#LABELS:0.000000=Song Start
;
#NOTES:
0000
0000
0000
0000
,
0000
0000
0000
0000
,
0000
0000
0000
0000
,
0000
0000
0000
0000
,
1000
0100
0000
1000
0100
0000
0010
0000
,
0001
0100
0000
0001
0100
0000
0010
0000
,
0220
0000
0330
0000
,
2000
0000
0000
3001
,
0011
0000
1100
0000
0011
0000
0001
0200
,
0000
0301
0010
0000
0001
0100
0010
1000
,
0001
0000
1000
0100
0001
0000
0100
2000
,
0000
3001
0100
0000
1000
0100
0001
0000
,
1010
0000
0101
0000
1010
0000
1000
0200
,
0000
1300
0010
0000
1000
0100
0010
0001
,
2000
3020
0032
0023
,
2030
3200
0302
0203
,
0310
0000
0000
0000
,
0000
0000
0000
0000
,
0000
0000
0000
0000
,
0000
0000
0000
0110
,
1002
0000
2003
0000
,
3002
0203
0320
2030
,
3001
0010
0001
0000
1000
0010
1000
0000
,
0010
0010
2002
3003
,
0001
0000
0010
0000
0100
0000
0001
0100
,
0000
0001
0100
0010
0001
0000
1001
0000
,
0001
0100
0001
0100
0010
0000
1010
0000
,
0010
0100
0001
1000
0100
0000
0011
0000
,
1000
0000
0010
0000
0100
0000
1000
0100
,
0000
1000
0100
0010
1000
0000
1010
0000
,
1000
0001
0100
0001
0020
0000
0130
0010
,
0100
1100
0022
0033
,
2000
0010
3002
0100
,
1003
1000
1010
1010
,
0002
0010
2003
0100
,
3001
0001
0011
0011
,
1000
0000
0001
0100
0000
1000
0100
0000
,
0001
0000
1000
0100
0000
0001
0100
0000
,
2000
3020
0032
0023
,
2030
0000
0000
0000
0000
0000
3001
0000
0100
0000
0010
0000
,
2010
0000
3100
0000
,
0000
0100
0220
0330
,
0012
0000
0103
0000
,
0000
0000
0100
0000
0001
0100
0010
1000
,
0002
1003
2000
3001
,
0020
0130
0200
0310
,
0002
0203
0320
2030
,
3001
0100
0010
1000
0001
1000
0100
0010
,
0000
0110
2002
3003
,
1000
0010
0100
0001
0200
0000
0301
0010
,
0100
1000
0200
0000
0301
0000
0000
0000
,
0000
0000
0220
0000
,
0330
0000
0000
0001
0100
0010
1000
0000
0001
0010
0000
0100
,
1000
0000
0001
0000
0000
0200
0000
0000
0310
1000
0000
0002
,
0000
0000
0003
1000
0100
0010
0001
0000
1000
0020
0000
0000
,
0032
0023
2030
0001
,
3100
0000
0000
0010
0000
0000
0100
0000
0000
0010
0000
0000
0001
0000
0000
0000
0010
0000
0100
0000
0000
0000
1000
0000
,
0001
0000
0100
0010
0000
0000
1001
0000
0000
0000
0000
0000
,
0100
0000
0010
0000
,
0110
0000
1001
0000
0001
0010
0100
1000
,
0000
0000
0000
0000
,
0000
0000
2002
3003
,
0100
0000
0010
0000
,
0110
0000
1001
0000
0001
0010
0100
1000
,
0001
0000
0100
0000
0001
0100
0010
0100
,
0000
0100
0001
0000
1000
0100
0020
0000
,
1000
0000
0031
1000
0001
0000
0200
0000
,
1000
0000
0301
1000
0001
1000
0100
0010
,
0001
0000
0100
0000
0010
1000
0001
0010
,
0000
0010
0100
0000
1000
0001
0100
0010
,
1000
0000
0010
1000
0000
0100
0000
0010
,
0000
0001
0010
0001
0100
0000
1001
0000
,
1000
0000
0100
0000
1000
0100
0010
0100
,
0000
0100
1000
0000
0001
0100
0020
0000
,
0001
0000
1030
0001
1000
0000
0200
0000
,
0001
0000
1300
0002
0000
1003
0010
0100
,
0001
0000
0001
2000
0000
3001
0010
0100
,
1000
0000
0001
0100
0001
1000
0100
1000
,
0001
0000
0000
0000
,
1010
0101
0011
1100
,
2002
0000
0000
3003
,
0001
0000
0100
1000
0000
0010
0000
0001
,
0000
1000
0000
0100
0000
0001
0010
1000
,
0000
0000
0220
0000
,
0000
0000
0000
0000
,
0330
0000
0000
0000
;

//---------------dance-single - ----------------
#NOTEDATA:;
#CHARTNAME:;
#STEPSTYPE:dance-single;
#DESCRIPTION:;
#CHARTSTYLE:;
#DIFFICULTY:Medium;
#METER:9;
#RADARVALUES:0.360162,0.497474,0.324146,0.495223,0.000000,280.000000,244.000000,36.000000,55.000000,0.000000,0.000000,0.000000,0.000000,12.000000,0.360162,0.497474,0.324146,0.495223,0.000000,280.000000,244.000000,36.000000,55.000000,0.000000,0.000000,0.000000,0.000000,12.000000;
#CREDIT:;
#OFFSET:-1.131000;
#BPMS:0.000000=200.000000
,208.000000=100.000000
,248.000000=200.000000
;
#STOPS:;
#DELAYS:;
#WARPS:230.000000=16.000000
;
#TIMESIGNATURES:0.000000=4=4
;
#TICKCOUNTS:0.000000=4
;
#COMBOS:0.000000=1
;
#SPEEDS:0.000000=1.000000=0.000000=0
;
#SCROLLS:0.000000=1.000000
,24.000000=0.500000
,28.000000=1.000000
,64.000000=0.500000
,88.000000=1.000000
,160.000000=0.500000
,176.000000=1.000000
,202.000000=0.000000
,205.000000=1.000000
,232.000000=0.000000
,233.000000=1.000000
,234.000000=0.000000
,235.000000=1.000000
,248.000000=0.000000
,249.000000=1.000000
,250.000000=0.000000
,251.000000=1.000000
,331.500000=0.000000
,333.000000=1.000000
,334.000000=2.000000
,339.000000=1.500000
,339.250000=1.000000
,339.500000=0.500000
,339.750000=0.250000
;
#FAKES:;
#LABELS:0.000000=Song Start
;
#NOTES:
0000
0000
0000
0000
,
0000
0000
0000
0000
,
0000
0000
0000
0000
,
0000
0000
0000
0000
,
1000
0000
0000
0100
0000
0000
1000
0000
,
0001
0000
0000
0100
0000
0000
0001
0000
,
2002
0000
3003
0000
,
0000
0000
0000
0010
,
1001
0000
1001
0000
1001
0000
0000
0002
,
0000
0000
0013
0000
0100
0010
0100
0000
,
1000
0000
0010
0000
1001
0000
0000
2000
,
0000
3100
0010
0001
,
1001
0000
1001
0000
1001
0000
0000
2000
,
0000
0000
3010
0000
0100
0010
0100
0000
,
0002
0023
0230
2300
,
3200
0320
0032
0003
,
1001
0000
0000
0000
,
0000
0000
0000
0000
,
0000
0000
0000
0000
,
0000
0000
0000
0100
,
1002
0000
2003
0000
,
3002
0203
0320
2030
,
3001
0000
1000
0000
,
0100
0010
0220
0330
,
0001
0000
0010
0000
0100
0000
0000
1000
,
0000
0010
0100
0001
,
1000
0001
1000
0000
0100
0000
0010
0000
,
0001
1000
0002
0003
,
1000
0000
0010
0000
0100
0000
0000
0001
,
0000
0010
0100
1000
,
0001
1000
0001
0000
0200
0000
0300
0000
,
0010
0010
2002
3003
,
1000
0000
0100
0000
0010
0001
0010
0000
,
0001
0000
1001
1001
,
0001
0000
0100
0000
0010
1000
0010
0000
,
1000
0000
1001
1001
,
0001
0010
0100
0000
,
1000
0010
0100
0000
,
0002
0023
2030
3020
,
0032
0000
0003
0000
,
1002
0000
0103
0000
,
0000
0001
0100
0000
,
2001
0000
3100
0000
,
0000
1000
0100
0010
,
0002
0003
0200
0300
,
0020
0030
2000
3000
,
0001
0001
1000
1000
,
0002
0023
0230
2300
,
3000
0010
2002
3003
,
0001
0100
0101
1000
,
0100
1100
0010
0000
,
0000
0000
2002
0000
,
3003
0000
0001
0100
,
0010
1000
0010
0100
,
0001
0010
1000
0010
,
0001
0100
1000
0100
,
0001
0010
0100
1000
,
0001
1000
0010
0000
,
1001
0000
1001
0000
,
1001
0000
1001
0000
0001
1000
0001
0000
,
0000
0000
0000
0000
,
0000
0000
0020
0030
,
1001
0000
1001
0000
,
1001
0000
1001
0000
0001
1000
0001
0000
,
1000
0000
0100
0000
0010
0000
0100
1000
,
0000
0100
0000
1000
0001
0000
0100
0000
,
2010
0000
3000
0001
0010
0000
0100
0000
,
0012
0000
0003
1000
0010
0000
0100
0000
,
0001
0000
0010
0000
0100
0000
1000
0001
,
0000
0100
0000
0010
1000
0000
0001
0000
,
0010
0000
0000
0110
0000
0110
0000
1001
,
0000
0000
0001
1000
0001
0000
1000
0000
,
0001
0000
0100
0000
0010
0000
0100
0001
,
0000
0100
0000
0001
1000
0000
0100
0000
,
0012
0000
0003
1000
0010
0000
0100
0000
,
2010
0000
3000
0001
0010
0000
0100
0000
,
1100
0000
0001
1000
0010
0000
0100
0000
,
0101
0000
1000
0001
0010
0000
0100
0000
,
1000
0000
0000
0000
,
0002
0203
2300
3200
,
0302
0000
0000
0003
,
1000
0000
0001
0010
0000
0100
0000
1000
,
0000
0010
0000
0100
0000
0001
1000
0100
,
0000
0000
0220
0000
,
0000
0000
0000
0000
,
0330
0000
0000
0000
;

//---------------dance-single - ----------------
#NOTEDATA:;
#CHARTNAME:;
#STEPSTYPE:dance-single;
#DESCRIPTION:;
#CHARTSTYLE:;
#DIFFICULTY:Easy;
#METER:6;
#RADARVALUES:0.239251,0.328198,0.153069,0.360162,0.000000,186.000000,169.000000,17.000000,40.000000,0.000000,0.000000,0.000000,0.000000,0.000000,0.239251,0.328198,0.153069,0.360162,0.000000,186.000000,169.000000,17.000000,40.000000,0.000000,0.000000,0.000000,0.000000,0.000000;
#CREDIT:;
#OFFSET:-1.131000;
#BPMS:0.000000=200.000000
,208.000000=100.000000
,232.000000=200.000000
;
#STOPS:;
#DELAYS:;
#WARPS:;
#TIMESIGNATURES:0.000000=4=4
;
#TICKCOUNTS:0.000000=4
;
#COMBOS:0.000000=1
;
#SPEEDS:0.000000=1.000000=0.000000=0
;
#SCROLLS:0.000000=1.000000
,24.000000=0.500000
,28.000000=1.000000
,64.000000=0.500000
,88.000000=1.000000
,160.000000=0.500000
,176.000000=1.000000
,202.000000=0.000000
,204.000000=1.000000
,318.000000=2.000000
,323.000000=1.500000
,323.250000=1.000000
,323.500000=0.500000
,323.750000=0.250000
;
#FAKES:;
#LABELS:0.000000=Song Start
;
#NOTES:
0000
0000
0000
0000
,
0000
0000
0000
0000
,
0000
0000
0000
0000
,
0000
0000
0000
0000
,
1000
0000
1000
0000
,
0001
0000
0001
0000
,
0200
0000
0300
0000
,
0000
0000
0000
1001
,
0001
0010
0001
0000
,
0020
0000
0130
0000
,
0010
0001
1000
0000
,
0001
1000
0010
0000
,
1000
0010
1000
0000
,
0020
0000
0130
0000
,
0002
0000
0023
0000
,
0230
0000
2300
0000
,
3001
0000
0000
0000
,
0000
0000
0000
0000
,
0000
0000
0000
0000
,
0000
0000
0000
0001
,
0002
0000
2003
0000
,
3002
0203
0320
2030
,
3000
0000
0000
0000
,
0010
0010
0020
0030
,
1001
0000
1001
0000
,
1000
0100
0010
0000
,
0100
1000
0001
0000
,
1000
0001
0100
0000
,
1001
0000
1001
0000
,
0001
0100
0010
0000
,
2000
0000
3200
0000
,
0310
0001
0010
0000
,
0001
0000
0001
0000
,
0001
0000
1000
0001
,
1000
0000
1000
0000
,
1000
0000
0001
1000
,
0002
0000
0103
0000
,
2000
0000
3100
0000
,
0001
0001
1000
1000
,
2002
0000
3003
0000
,
0002
0000
0003
0000
,
0000
0000
0010
0000
,
2000
0000
3000
0000
,
0000
0000
0010
0000
,
0001
0000
1000
0000
,
0001
0000
1000
0000
,
0200
0000
0320
0000
,
0230
0320
0230
0320
,
0030
0001
0002
0003
,
0100
0000
1001
0100
,
0000
1001
0010
0000
,
0000
0000
0220
0000
,
0330
0000
0001
0010
,
0100
0000
0010
0100
,
1000
0000
1000
0010
,
0100
0000
0010
0100
,
0001
0000
1000
0100
,
0001
0010
2000
3000
,
1001
0000
1001
0000
,
0001
1000
0001
0000
,
0010
0010
0010
0000
,
0100
0000
0010
0001
,
2000
3000
1001
0000
,
2000
3000
1001
0000
,
0001
0001
0001
0000
,
0100
0010
1000
0000
,
0100
0000
0100
0000
,
0010
0001
1000
0000
,
0010
0010
0010
0000
,
0100
0000
0010
1000
,
0002
0003
1001
0000
,
0002
0003
1001
0000
,
0001
0010
0001
0000
,
1000
0010
1000
0000
,
0100
0000
0000
0000
,
0010
0100
0010
0000
,
2002
0000
3003
0000
,
0001
0000
0000
0100
0000
0000
0000
0010
,
0000
0000
0000
1000
0000
0000
0000
0001
,
0000
0000
0220
0000
,
0000
0000
0000
0000
,
0330
0000
0000
0000
;

//---------------dance-single - ----------------
#NOTEDATA:;
#CHARTNAME:;
#STEPSTYPE:dance-single;
#DESCRIPTION:;
#CHARTSTYLE:;
#DIFFICULTY:Beginner;
#METER:2;
#RADARVALUES:0.117053,0.195838,0.045020,0.180081,0.000000,91.000000,86.000000,5.000000,20.000000,0.000000,0.000000,0.000000,0.000000,0.000000,0.117053,0.195838,0.045020,0.180081,0.000000,91.000000,86.000000,5.000000,20.000000,0.000000,0.000000,0.000000,0.000000,0.000000;
#CREDIT:;
#OFFSET:-1.131000;
#BPMS:0.000000=200.000000
;
#STOPS:;
#DELAYS:;
#WARPS:;
#TIMESIGNATURES:0.000000=4=4
;
#TICKCOUNTS:0.000000=4
;
#COMBOS:0.000000=1
;
#SPEEDS:0.000000=1.000000=0.000000=0
;
#SCROLLS:0.000000=1.000000
;
#FAKES:;
#LABELS:0.000000=Song Start
;
#NOTES:
// measure 0
0000
0000
0000
0000
,  // measure 1
0000
0000
0000
0000
,  // measure 2
0000
0000
0000
0000
,  // measure 3
0000
0000
0000
0000
,  // measure 4
0100
0000
0000
0000
,  // measure 5
0010
0000
0000
0000
,  // measure 6
0200
0000
0300
0000
,  // measure 7
0000
0000
0000
0000
,  // measure 8
0001
0000
0001
0000
,  // measure 9
0001
0000
0000
0000
,  // measure 10
0010
0000
0000
0000
,  // measure 11
0100
0000
0000
0000
,  // measure 12
1000
0000
1000
0000
,  // measure 13
1000
0000
0000
0000
,  // measure 14
0020
0000
0000
0000
,  // measure 15
0030
0000
0000
0000
,  // measure 16
1001
0000
0000
0000
,  // measure 17
0000
0000
0000
0000
,  // measure 18
0000
0000
0000
0000
,  // measure 19
0000
0000
0000
0000
,  // measure 20
0002
0000
0003
0000
,  // measure 21
2000
0000
3000
0000
,  // measure 22
0100
0000
0000
0000
,  // measure 23
0100
0000
0200
0300
,  // measure 24
1000
0000
0000
0000
,  // measure 25
1000
0000
0000
0000
,  // measure 26
0010
0000
0010
0000
,  // measure 27
0100
0000
0000
0000
,  // measure 28
0001
0000
0000
0000
,  // measure 29
0001
0000
0000
0000
,  // measure 30
0020
0000
0030
0000
,  // measure 31
0100
0000
0100
0000
,  // measure 32
2000
0000
0000
0000
,  // measure 33
3000
0000
1000
0000
,  // measure 34
0002
0000
0000
0000
,  // measure 35
0003
0000
0001
0000
,  // measure 36
0100
0000
0000
0000
,  // measure 37
0010
0000
0000
0000
,  // measure 38
0100
0000
0100
0000
,  // measure 39
0200
0000
0300
0000
,  // measure 40
0010
0000
0000
0000
,  // measure 41
0000
0000
1000
0000
,  // measure 42
0100
0000
0000
0000
,  // measure 43
0000
0000
0010
0000
,  // measure 44
0001
0000
0000
0000
,  // measure 45
1000
0000
0000
0000
,  // measure 46
0020
0000
0000
0000
,  // measure 47
0000
0000
0000
0000
0000
0000
0000
0030
,  // measure 48
0000
0000
0010
0000
,  // measure 49
0100
0000
0000
0100
,  // measure 50
0000
0000
0010
0000
,  // measure 51
0000
0000
2002
0000
,  // measure 52
3003
0000
0000
0000
,  // measure 53
1000
0000
0000
0000
,  // measure 54
0100
0000
0000
0000
,  // measure 55
0010
0000
0000
0000
,  // measure 56
0001
0000
0000
0000
,  // measure 57
0100
0000
0000
0000
,  // measure 58
0010
0000
0000
0000
,  // measure 59
1000
0000
0000
0000
,  // measure 60
0001
0000
0000
0000
,  // measure 61
0010
0000
0000
0000
,  // measure 62
0100
0000
0000
0000
,  // measure 63
2000
0000
3000
0000
,  // measure 64
0001
0000
1000
0000
,  // measure 65
0001
0000
0000
0000
,  // measure 66
0100
0000
0100
0000
,  // measure 67
0100
0000
0000
0000
,  // measure 68
0020
0000
0030
0000
,  // measure 69
0200
0000
0300
0000
,  // measure 70
0001
0000
0001
0000
,  // measure 71
0001
0000
0000
0000
,  // measure 72
1000
0000
0000
0000
,  // measure 73
1001
0000
0000
0000
,  // measure 74
0100
0000
0100
0000
,  // measure 75
0100
0000
0000
0000
,  // measure 76
0020
0000
0030
0000
,  // measure 77
0200
0000
0300
0000
,  // measure 78
1000
0000
0000
0000
,  // measure 79
0001
0000
0000
0000
,  // measure 80
0100
0000
0000
0000
,  // measure 81
0010
0000
0100
0000
,  // measure 82
0020
0000
0030
0000
,  // measure 83
1001
0000
0000
0000
,  // measure 84
0000
0000
0000
0000
,  // measure 85
0000
0000
0220
0000
,  // measure 86
0000
0000
0000
0000
,  // measure 87
0330
0000
0000
0000
;
