#TITLE:ガッチュー!;
#SUBTITLE:ft.Miku・Rin・Len;
#ARTIST:Giga;
#TITLETRANSLIT:I GOT YOU!;
#SUBTITLETRANSLIT:;
#ARTISTTRANSLIT:;
#GENRE:Vocaloid Nerdcore;
#CREDIT:;
#BANNER:I GOT YOU! ft.Miku Rin and Len.png;
#BACKGROUND:I GOT YOU! ft.Miku Rin and Len-bg.png;
#LYRICSPATH:;
#CDTITLE:cdtitle.png;
#MUSIC:I GOT YOU! ft.Miku Rin and Len.ogg;
#OFFSET:-1.011205;
#SAMPLESTART:79.801346;
#SAMPLELENGTH:19.373936;
#SELECTABLE:YES;
#BPMS:0.000000=99.000000
;
#STOPS:
;
#BGCHANGES:0.000=I GOT YOU! ft.Miku Rin and Len.mp4=1.000=1=0=1===CrossFade==,
99999=-nosongbg-=1.000=0=0=0 // don't automatically add -songbackground-
;
#KEYSOUNDS:;
#ATTACKS:;

//---------------dance-single - ----------------
#NOTES:
     dance-single:
     492-Shaymin:
     Challenge:
     14:
     0.626874,0.635028,0.374595,0.642163,0.731353,492.000000,450.000000,42.000000,72.000000,6.000000,0.000000,0.626874,0.635028,0.374595,0.642163,0.731353,492.000000,450.000000,42.000000,72.000000,6.000000,0.000000:
// measure 0
0000
0000
0000
0000
,  // measure 1
0000
0000
0000
0000
,  // measure 2
0000
0000
0000
0000
,  // measure 3
0000
0000
0000
0000
,  // measure 4
2000
3020
0230
0302
0023
0230
2300
3002
,  // measure 5
0203
0000
0000
0000
0000
0000
0010
0000
0000
0000
0000
0000
0300
0000
0000
0010
0000
0000
1000
0000
0001
1000
0000
0001
,  // measure 6
2000
0000
0000
0000
0000
0000
3200
0000
0000
0000
0000
0000
0320
0000
0000
0000
0000
0000
0031
0100
0001
0100
0010
1000
,  // measure 7
0001
0000
0000
0011
0M00
0010
1000
0000
0000
1010
0M00
0010
0001
0000
0000
0001
0000
0000
0001
0010
0100
1000
0010
0100
,  // measure 8
0002
0000
0000
0003
0000
0000
2001
0000
0000
3200
0000
0000
0320
0000
0000
0030
0000
0000
0001
0000
0100
0010
0000
1000
,  // measure 9
0001
0000
0001
0010
0000
0000
1100
0000
0000
1000
0000
0001
1000
0000
0000
0010
0000
0000
0202
0000
0000
0303
0000
0000
,  // measure 10
1002
0000
0000
0100
0000
0000
2003
0000
0000
0100
0000
0000
3001
0000
2000
0010
0000
3002
0010
0000
1003
0001
0000
0001
,  // measure 11
0100
0000
0010
1000
0000
0000
0001
0000
0000
1001
0000
1000
0100
0000
0000
0100
0000
0010
0001
0000
1000
0001
0100
0010
,  // measure 12
1000
0000
0000
1010
0000
0000
1010
0000
0001
0010
0000
0010
0100
0000
0000
0010
0000
2000
0000
0000
0000
3020
0000
0000
,  // measure 13
0130
0000
1000
0100
0000
1000
0001
0000
1000
0010
0000
0010
0100
0000
0000
0010
0000
0002
0000
0000
0000
0023
0000
0000
,  // measure 14
0130
0000
0010
0100
0000
0010
1000
0000
0001
0010
0000
0010
1000
0000
0000
0010
0000
0200
0000
0000
1300
0100
0010
0001
,  // measure 15
1000
0000
0000
1010
0M00
0010
0001
0000
0000
0011
0M00
0010
1000
0000
0000
1000
0000
0000
1000
0010
0100
0001
0010
0100
,  // measure 16
1000
0000
0000
0000
0000
0000
0000
0000
0000
0001
0100
0001
0100
0000
0000
1010
0000
0001
1000
0100
1000
0100
0000
0010
,  // measure 17
0001
0000
0000
0110
0000
0000
2001
0000
0000
3010
0000
0000
1000
0010
1000
0001
0000
0000
0010
0000
0001
1000
0000
0000
,  // measure 18
0010
0000
0100
0001
0000
1000
0200
0000
0000
0001
0000
0000
0310
0000
0100
1000
0000
0001
0010
0000
0000
2001
0000
0000
,  // measure 19
3010
0000
0100
0001
0000
1000
0010
0000
0000
1002
0000
0013
0100
0000
0000
0100
0000
0010
1000
0000
0010
0100
0000
0010
,  // measure 20
0001
0000
0000
1000
0000
0000
1010
0000
0000
0101
0000
0000
1000
0000
0000
0001
0000
1000
0100
0000
1000
0001
0000
0000
,  // measure 21
0001
0000
0100
0010
0000
0100
2000
0000
0000
3200
0000
0000
0301
0000
0000
1000
0010
0100
0001
0000
1000
0001
0000
0001
,  // measure 22
1000
0000
0100
0010
0000
0100
0002
0000
0000
0203
0000
0000
1300
0000
0001
0010
0000
0100
1000
0000
0001
0100
0000
0000
,  // measure 23
0010
0000
0010
0001
0000
0000
2020
0000
0000
3030
0000
0000
0001
0000
0010
0000
0000
0001
1000
0000
0010
0000
0000
1000
,  // measure 24
0001
0000
0000
0011
0000
0000
1100
0000
0000
0001
0000
0000
0100
0000
0000
0100
0000
0010
2000
0000
0000
3001
0000
0000
,  // measure 25
1000
0000
0100
0000
0000
0010
0002
0000
0000
0010
0000
0000
1003
0000
0010
0100
0000
0020
0001
0000
0000
1030
0000
0000
,  // measure 26
0001
0000
0010
0100
0000
0020
1000
0000
0000
0031
0000
0000
1000
0000
0000
0000
0000
0000
0101
0000
0000
0000
0000
0000
,  // measure 27
1100
0000
0000
0000
0000
1000
0001
0000
0000
0000
0000
0000
0100
0000
0000
2001
0000
0000
3010
0000
0000
2001
0000
0000
,  // measure 28
3200
0000
0000
0000
0000
0000
0310
0001
0010
0001
0000
0000
1000
0000
0000
1100
0000
0000
0001
0000
0000
0101
0000
0000
,  // measure 29
1000
1100
0001
2010
3001
0101
1000
1100
,  // measure 30
0001
0000
0100
0001
0000
1000
0100
0000
0000
0012
0000
0000
1003
0000
0000
0001
0100
0001
0100
0000
0000
0010
0000
1000
,  // measure 31
0001
0000
1000
0100
0000
0010
0001
0000
0000
1000
0000
0000
1001
0000
0000
1000
0000
0010
0100
0000
0000
0001
0000
0010
,  // measure 32
0100
0011
2002
3003
2000
3020
0032
2003
,  // measure 33
3100
0000
0000
0100
0000
0010
0100
0000
0001
1000
0000
1000
0002
0000
0000
0023
0000
0000
2030
0000
0000
3002
0000
0000
,  // measure 34
0103
0000
0010
0100
0000
0010
0100
0000
1000
0001
0000
0000
2000
0000
0000
3020
0000
0000
0032
0000
0000
2003
0000
0000
,  // measure 35
3100
0000
0000
0100
0000
0010
0100
0000
0001
1000
0000
0001
0010
0000
0010
0100
0000
0100
1000
0000
0000
0001
0000
0000
,  // measure 36
1000
0000
0010
0100
0000
0001
0000
0000
2000
0000
0000
0000
3001
0000
0000
0011
0000
0000
0011
0000
1000
0010
0000
0010
,  // measure 37
0100
0000
0000
0010
0000
0002
0000
0000
0000
2003
0000
0000
3100
0000
0001
0100
0000
0001
1000
0000
0001
0010
0000
0010
,  // measure 38
0100
0000
0000
0010
0000
2000
0000
0000
0000
3002
0000
0000
0103
0000
0010
0100
0000
0010
0001
0000
1000
0010
0000
0010
,  // measure 39
0001
0000
0000
1000
0000
0200
0000
0000
0000
0301
0000
0000
1000
0000
0001
1000
0000
0001
0100
0000
0001
0010
0000
0000
,  // measure 40
0110
0000
0000
1000
0100
1000
0020
0000
0000
0000
0000
0000
1030
0000
0000
1010
0000
0000
1010
0000
0001
0010
0000
0010
,  // measure 41
0100
0000
0000
0010
0000
2000
0000
0000
0000
3002
0000
0000
0103
0000
1000
0100
0000
1000
0001
0000
1000
0010
0000
0010
,  // measure 42
0100
0000
0000
0010
0000
0002
0000
0000
0000
2003
0000
0000
3100
0000
0010
0100
0000
0010
1000
0000
0001
0010
0000
0010
,  // measure 43
1000
0000
0000
0001
0000
0200
0000
0000
1300
0100
0010
0001
1000
0000
0000
1010
0M00
0010
0001
0000
0000
0011
0M00
0010
,  // measure 44
1000
0000
0000
1000
0000
0000
1000
0010
0100
0001
0010
0100
1000
0000
0000
0000
0000
0000
0000
0000
0000
0000
0000
0000
;

//---------------dance-single - ----------------
#NOTES:
     dance-single:
     385-Jirachi:
     Hard:
     11:
     0.490541,0.496116,0.419190,0.615407,0.231892,385.000000,338.000000,47.000000,69.000000,0.000000,0.000000,0.490541,0.496116,0.419190,0.615407,0.231892,385.000000,338.000000,47.000000,69.000000,0.000000,0.000000:
0000
0000
0000
0000
,
0000
0000
0000
0000
,
0000
0000
0000
0000
,
0000
0000
0000
0000
,
2000
3020
0230
0302
0023
0230
2300
3002
,
0203
0000
0010
0000
0300
0010
1000
0001
,
0020
0000
0230
0000
2300
0000
3001
1000
,
1010
0001
0011
1000
1010
1010
2000
3020
,
0031
0000
0020
2030
3200
0300
0010
0001
,
1000
0002
0203
0310
1000
1000
2020
3030
,
0011
0000
0000
1000
0000
0000
0100
0000
0000
0010
0000
0000
0001
0000
1000
0001
0000
0000
1000
0000
0000
0000
0000
0000
,
0002
0000
0000
0203
0000
0000
0320
0000
0000
1030
0000
0000
0001
0000
0000
1000
0000
0001
0010
0000
0000
0100
0000
0000
,
1000
0000
0000
1100
0000
0000
1100
0000
0000
0001
0000
1000
0010
0000
0000
0100
0000
0020
0000
0000
0000
0230
0000
0000
,
0310
0000
0000
1010
0000
0000
1010
0000
0000
0001
0000
1000
0100
0000
0000
0010
0000
0200
0000
0000
0000
0320
0000
0000
,
0031
0000
0010
0100
0000
1000
0001
0000
0000
1000
0000
0001
0100
0000
0000
0010
0000
2000
0000
0000
0000
3001
0000
0000
,
0011
1000
1010
0001
0011
0011
0002
0023
,
1030
0000
0000
0000
0000
0000
0000
0000
0000
1000
0000
0000
0010
0000
0000
0001
0000
0000
1000
0000
0001
0100
0000
0001
,
0100
0010
1000
0001
0010
0010
0100
0100
,
0010
0000
0001
1000
0000
0001
1000
0000
0000
0020
0000
0000
1030
0000
0000
0100
0000
0000
0010
0000
0000
0011
0000
0000
,
0001
0000
0000
0100
0000
0000
0010
0000
0000
1010
0000
0000
0001
0000
0000
0001
0000
0000
0010
0000
0100
1000
0000
0000
,
0010
0000
0100
0001
0000
0000
2000
0000
0000
3200
0000
0000
0300
0000
0000
0001
0000
0000
0001
0000
0000
0100
0000
0000
,
0010
0000
0000
0001
0000
1000
0010
0000
0000
0200
0000
0000
0300
0000
0000
1000
0000
0000
1000
0000
0000
0100
0000
0000
,
0010
0000
0000
1000
0000
0001
0010
0000
0000
0200
0000
0000
0300
0000
0010
0100
0000
0000
1000
0000
0000
0001
0000
0000
,
0100
0000
0010
0100
0000
0000
2002
0000
0000
3003
0000
0000
0001
0000
0000
0000
0000
0000
0001
0000
0000
0000
0000
0000
,
0011
1001
0202
0303
1000
0010
0001
1000
,
0100
0000
0000
0001
0000
1000
0001
0000
0000
0010
0000
0000
1000
0000
0000
0001
0000
0000
0100
0000
0000
1000
0000
0000
,
0001
0000
1000
0001
0000
1000
0001
0000
0000
0100
0000
0000
0110
0000
0000
0000
0000
0000
1010
0000
0000
0000
0000
0000
,
0011
0000
0000
0000
0000
0010
0100
0000
0000
0000
0000
0000
1000
0000
0000
0001
0000
0000
0100
0000
0000
0010
0000
0000
,
2002
0000
0000
3003
0000
0000
1000
0001
1000
0001
0000
0000
1000
0000
0000
0100
0000
0000
1000
0000
0000
0100
0000
0000
,
1000
0100
1000
1010
0001
0100
0001
0100
,
0001
0100
0001
0011
1000
0100
0010
0001
,
0100
0010
1000
1001
0001
0000
0001
0000
,
1100
0011
2002
3003
2000
3020
0032
0023
,
1000
0000
0000
1030
0000
0000
1010
0000
0001
1000
0000
1000
0002
0000
0000
0023
0000
0000
2030
0000
0000
3020
0000
0000
,
0031
0000
1000
0001
0000
1000
0001
0000
1000
0001
0000
0000
0200
0000
0000
2300
0000
0000
3200
0000
0000
0302
0000
0000
,
1000
0000
0000
1003
0000
0000
1001
0000
0000
0001
0000
0000
0010
0000
0100
0010
0000
0100
0010
0000
0000
0001
0000
0000
,
1000
0000
0001
0100
0000
0010
0000
0000
2000
0000
0000
0000
3001
0000
0000
0101
0000
0000
0101
0000
0000
1000
0000
0001
,
0010
0000
0000
0100
0000
0002
0000
0000
0000
0203
0000
0000
0310
0000
0000
0011
0000
0000
0011
0000
0000
1000
0000
0001
,
0100
0000
0000
0010
0000
0002
0000
0000
0000
0023
0000
0000
1030
0000
0010
0100
0000
0001
1000
0000
0000
0001
0000
1000
,
0100
0000
0000
0010
0000
0002
0000
0000
0000
1003
0000
0000
0001
0000
0000
0100
0000
0000
0010
0000
0000
1000
0000
0000
,
1001
0000
0000
0110
0000
0000
1001
0000
0000
0000
0000
0000
1000
0000
0000
1100
0000
0000
1100
0000
0000
0001
0000
1000
,
0010
0000
0000
0100
0000
2000
0000
0000
0000
3200
0000
0000
0310
0000
0000
1010
0000
0000
1010
0000
0000
0001
0000
1000
,
0100
0000
0000
0010
0000
2000
0000
0000
0000
3020
0000
0000
0031
0000
0010
0100
0000
1000
0001
0000
0000
1000
0000
0001
,
0100
0000
0000
0010
0000
2000
0000
0000
0000
3001
0000
0000
0011
0000
0000
1000
0000
0000
1010
0000
0000
0001
0000
0000
,
0011
0011
0002
0023
1030
0000
0000
0000
;

//---------------dance-single - ----------------
#NOTES:
     dance-single:
     251-Celebi:
     Medium:
     7:
     0.319808,0.357203,0.196217,0.472704,0.000000,251.000000,229.000000,22.000000,53.000000,0.000000,0.000000,0.319808,0.357203,0.196217,0.472704,0.000000,251.000000,229.000000,22.000000,53.000000,0.000000,0.000000:
0000
0000
0000
0000
,
0000
0000
0000
0000
,
0000
0000
0000
0000
,
0000
0000
0000
0000
,
0002
0023
0230
2300
,
3002
0000
0000
0000
0003
1000
0010
0100
,
0001
0000
1000
0000
0001
0000
1000
0100
,
0011
0000
0011
0000
0011
0011
2000
3020
,
0130
0000
0002
2003
3002
0003
0010
0000
,
0100
0020
0230
0300
1000
1000
0002
0003
,
1001
0000
0010
0000
0010
0010
0010
0000
,
2000
3020
0230
0300
0001
0001
0001
0000
,
1000
0001
1000
0100
0020
0000
0230
0000
,
1300
0001
1000
0010
0200
0000
0320
0000
,
1030
0001
0010
0100
2000
0000
3001
0100
,
1010
0000
1010
0000
1010
1010
0002
0023
,
0130
0000
0000
0000
0010
0100
0010
0000
,
0001
0000
1001
0000
1000
1000
1000
0000
,
0010
0100
0001
0000
1000
1000
0100
0000
,
0001
0001
0100
0000
1000
0010
0100
0001
,
1000
0000
0002
2003
3000
0100
0100
0000
,
0010
0100
1000
0002
0003
0100
0100
0000
,
0010
0100
0001
2000
3000
0100
0010
0000
,
0100
1001
0010
0010
,
1000
0001
1001
0000
0001
0010
0100
0000
,
1000
0010
0100
0000
0001
0001
1000
0000
,
1000
1000
0001
0000
1100
0000
1100
0000
,
0101
0000
0101
0000
1000
0010
0100
0001
,
0020
0030
0001
0001
,
0001
0000
0100
0010
1000
0000
1000
0000
,
1000
0000
0100
0010
0001
0000
1000
0000
,
0010
0000
0100
0001
0010
0000
0010
0000
,
0100
0010
1001
0000
2000
3020
0230
0302
,
1000
0000
1003
0000
0002
2003
3200
0320
,
0001
0001
0031
0000
0002
0023
0230
2300
,
0001
0000
3001
0000
0001
0001
0100
0100
,
0010
1000
0001
0000
1000
0001
1000
0100
,
0020
0000
2030
0000
3010
0001
1000
0001
,
0200
0000
2300
0000
3100
0010
1000
0001
,
0020
0000
0230
0000
1300
1000
1000
0000
,
0001
1000
1001
0000
0001
1000
0001
0100
,
0020
0000
0032
0000
0013
1000
0001
1000
,
0200
0000
0302
0000
0103
0010
0001
1000
,
0020
0000
1030
0001
0011
0000
0011
0000
,
0011
0011
2000
3020
0130
0000
0000
0000
;

//---------------dance-single - ----------------
#NOTES:
     dance-single:
     151-Mew:
     Easy:
     4:
     0.192394,0.198446,0.044595,0.160541,0.000000,151.000000,146.000000,5.000000,18.000000,0.000000,0.000000,0.192394,0.198446,0.044595,0.160541,0.000000,151.000000,146.000000,5.000000,18.000000,0.000000,0.000000:
0000
0000
0000
0000
,
0000
0000
0000
0000
,
0000
0000
0000
0000
,
0000
0000
0000
0000
,
0002
0023
0230
2300
,
3002
0000
0103
0010
,
1000
0001
0010
0100
,
1000
1000
1000
0010
,
0100
0000
0001
0000
,
1000
0001
0010
0000
,
0100
0000
1000
0000
,
0010
0010
0100
0001
,
1000
0100
0010
0002
,
1003
0010
0100
0002
,
0013
0100
1000
0002
,
1003
1000
1000
0010
,
0100
0000
0001
0001
,
0010
0100
1000
1000
,
0010
0100
0001
0001
,
1000
1000
0100
0010
,
0001
0001
0000
1000
,
0010
1001
0000
0001
,
0010
1001
0000
0001
,
0100
0010
1000
0001
,
1001
0000
1000
0100
,
1000
0100
0001
0100
,
0001
0100
1000
1000
,
0001
0001
1000
0010
,
0200
0300
0001
0001
,
0001
0001
1000
1000
,
0001
1000
0001
0010
,
0100
1000
0001
1000
,
1001
0000
1000
0020
,
0000
0130
0001
0020
,
0000
0130
1000
0020
,
0000
0130
0001
0001
,
0010
0100
1000
0001
,
0100
2000
3100
0001
,
0010
2000
3010
0001
,
1000
0020
0130
0000
,
0100
1001
0001
1000
,
0100
0002
0103
1000
,
0010
0002
0013
1000
,
0100
0020
0031
0001
,
0001
0100
0010
0000
;

//---------------dance-single - ----------------
#NOTES:
     dance-single:
     95-Onyx by HuΣeR:
     Beginner:
     2:
     0.121043,0.158757,0.000000,0.062433,0.000000,95.000000,95.000000,0.000000,7.000000,0.000000,0.000000,0.121043,0.158757,0.000000,0.062433,0.000000,95.000000,95.000000,0.000000,7.000000,0.000000,0.000000:
0000
0000
0000
0000
,
0000
0000
0000
0000
,
0000
0000
0000
0000
,
0000
0000
0000
0000
,
0020
0000
0000
0000
,
0030
0000
0000
0000
,
1000
0000
0001
0000
,
0010
0010
0010
0010
,
0010
0000
0001
0000
,
1000
0000
0010
0000
,
0100
0000
0001
0000
,
1000
0000
0100
0000
,
0010
0010
0010
0000
,
0001
0001
0001
0000
,
1000
1000
1000
0000
,
0010
0010
0010
0010
,
0010
0000
1000
0000
,
1000
0000
0001
0000
,
0001
0000
0010
0000
,
0100
0000
0010
0010
,
0010
0000
0001
0000
,
0100
0000
0010
0000
,
1000
0000
0100
0000
,
0010
0000
0001
0001
,
0001
0000
0100
0000
,
0010
0000
0100
0000
,
0010
0000
1000
0000
,
0001
0000
1000
1000
,
1000
0000
0002
0000
,
0000
0003
2000
0000
,
0000
3000
0002
0000
,
0000
0003
1000
1000
,
1000
0000
0001
0002
,
0000
0003
0010
0020
,
0000
0030
0100
0200
,
0000
0300
1000
0000
,
0001
0000
1000
1000
,
1000
0000
0010
0010
,
0010
0000
0100
0100
,
0100
0000
0001
0000
,
1000
0000
0001
0001
,
0001
0000
0010
0010
,
0010
0000
0100
0100
,
0100
0000
0010
0010
,
0010
0010
0010
0000
;
