#VERSION:0.83;
#TITLE:放課後ストライド;
#SUBTITLE:;
#ARTIST:Last Note.;
#TITLETRANSLIT:Houkago stride;
#SUBTITLETRANSLIT:;
#ARTISTTRANSLIT:;
#GENRE:Vocaloid Rock;
#ORIGIN:;
#CREDIT:;
#BANNER:Houkago stride.png;
#BACKGROUND:Houkago stride-bg.png;
#PREVIEWVID:;
#JACKET:Houkago stride-jacket.png;
#CDIMAGE:;
#DISCIMAGE:;
#LYRICSPATH:;
#CDTITLE:cdtitle.png;
#MUSIC:Houkago stride.ogg;
#OFFSET:-0.243970;
#SAMPLESTART:85.177307;
#SAMPLELENGTH:17.066666;
#SELECTABLE:YES;
#BPMS:0.000=225.000;
#STOPS:316.000=0.533;
#DELAYS:;
#WARPS:;
#TIMESIGNATURES:0.000=4=4;
#TICKCOUNTS:0.000=4;
#COMBOS:0.000=1;
#SPEEDS:0.000=1.000=0.000=0;
#SCROLLS:0.000=1.000;
#FAKES:;
#LABELS:0.000=Song Start;
#LASTSECONDHINT:120.244003;
#BGCHANGES:-3.750=Houkago stride.avi=1.000=0=0=1===CrossFade_Fastest==,
99999=-nosongbg-=1.000=0=0=0 // don't automatically add -songbackground-
;
#KEYSOUNDS:;
#ATTACKS:
;

//---------------dance-single - ----------------
#NOTEDATA:;
#CHARTNAME:;
#STEPSTYPE:dance-single;
#DESCRIPTION:;
#CHARTSTYLE:;
#DIFFICULTY:Challenge;
#METER:15;
#RADARVALUES:0.720644,0.822206,0.346192,0.362677,0.037092,612.000000,570.000000,42.000000,44.000000,16.000000,0.000000,0.000000,0.000000,0.000000,0.720644,0.822206,0.346192,0.362677,0.037092,612.000000,570.000000,42.000000,44.000000,16.000000,0.000000,0.000000,0.000000,0.000000;
#CREDIT:;
#NOTES:
0000
0000
0000
0000
,
0000
0000
0000
0000
,
0000
0000
0000
0000
,
0000
0000
0000
0000
,
0000
0000
0000
0000
,
0000
0000
0000
0000
,
0000
0000
0000
0000
,
0000
0000
0000
0000
,
0001
0000
0010
0000
0100
0010
0001
1000
,
0000
0010
0100
0000
0001
0100
0001
0000
,
1000
0000
0010
0000
0100
0010
1000
0001
,
0000
0010
0100
0000
1100
0000
0101
0000
,
1000
0000
0100
0000
0010
0100
1000
0001
,
0000
0100
0010
0000
1000
0010
1000
0000
,
0001
0000
0100
0000
0010
1000
0001
0010
,
0000
0000
0100
0000
1000
0000
0000
0000
1001
0000
0000
0000
0001
1000
0001
1000
,
0001
0000
0100
0000
0010
0100
0010
0001
,
0000
0010
1000
0000
0010
0100
0001
0000
,
1000
0000
0100
0000
0010
0100
0010
1000
,
0000
0010
0001
0000
0011
0000
1010
0000
,
1000
0000
0010
0000
0100
0010
0100
1000
,
0000
0100
0001
0000
0100
0010
1000
0000
,
0001
0000
0010
0000
1000
0010
0001
0100
,
0000
0000
1000
0000
0100
0000
0000
0000
0101
0000
0000
0000
1000
0001
1000
0001
,
1000
0100
1000
0100
0010
0000
0001
1000
,
0000
0001
0100
0010
1000
0000
1010
0000
,
0010
0100
0001
1000
0100
0000
0010
0001
,
0000
0000
1000
0000
0010
0100
0010
0000
0100
0000
0001
0000
1000
0000
0001
0000
,
0020
0000
0000
0000
0000
0000
0000
0000
0030
0000
0000
0000
0001
0000
0000
0000
1000
0000
0000
0000
0020
0030
0000
0000
0000
0000
0000
0000
0001
0000
0000
0000
,
1000
0000
0000
0000
0020
0030
0000
0000
0000
0000
0000
0000
0001
0000
0000
0000
1000
0000
0000
0000
0001
0000
0000
0000
0010
0000
0000
0000
0100
0000
0000
0000
,
1000
0000
1000
0010
0M00
0010
0001
0000
,
0001
0100
00M0
0100
1000
0000
1001
0000
,
0001
0100
0001
0100
0010
0000
1000
0001
,
0000
1000
0100
0010
0001
0000
0011
0000
,
0010
0100
1000
0001
0100
0000
0010
1000
,
0000
0001
0010
0100
1000
1000
0001
1000
,
0020
0000
0000
0000
0000
0000
0000
0000
0030
0000
0000
0000
1000
0000
0000
0000
0001
0000
0000
0000
0020
0030
0000
0000
0000
0000
0000
0000
1000
0000
0000
0000
,
0001
0000
0000
0000
0020
0030
0000
0000
0000
0000
0000
0000
1000
0000
0000
0000
0001
0000
0000
0000
1000
0000
0000
0000
0010
0000
0000
0000
0100
0000
0000
0000
,
0001
0000
0001
0010
0M00
0010
1000
0000
,
1000
0100
00M0
0100
0001
0000
1001
0000
,
1000
0000
0100
0000
0010
0100
0010
1000
,
0000
0010
0001
0000
0010
0100
1000
0000
,
0001
0000
0100
0000
0010
0100
0010
0001
,
0000
0010
1000
0000
1010
0000
0011
0000
,
0001
0000
0010
0000
0100
0010
0100
0001
,
0000
0100
1000
0000
0100
0010
0001
0000
,
1000
0000
0010
0000
0001
0010
1000
0100
,
0000
0000
0001
0000
0100
0000
0000
0000
1100
0000
0000
0000
0001
1000
0001
1000
,
0001
0100
0001
0100
0010
0000
0100
1000
,
0000
0100
0010
0100
0001
0000
1001
0000
,
0001
0010
0100
0010
1000
0000
0010
0001
,
0000
1000
0010
0100
0001
0010
0100
1000
,
0020
0000
0000
0000
0000
0000
0000
0000
0030
0000
0000
0000
1000
0000
0000
0000
0100
0000
0000
0000
0020
0030
0000
0000
0000
0000
0000
0000
1000
0000
0000
0000
,
0100
0000
0000
0000
0020
0030
0000
0000
0000
0000
0000
0000
1000
0000
0000
0000
0010
0000
0000
0000
1000
0000
0000
0000
0010
0000
0000
0000
0100
0000
0000
0000
,
0001
0000
0001
0010
0M00
0010
1000
0000
,
1000
0100
00M0
0100
0001
0000
1001
0000
,
1000
0100
1000
0100
0010
0000
0100
0001
,
0000
0100
0010
0100
1000
0000
1001
0000
,
1000
0010
0100
0010
0001
0000
0010
1000
,
0000
0001
0010
0100
1000
0010
0100
0001
,
0020
0000
0000
0000
0000
0000
0000
0000
0030
0000
0000
0000
0001
0000
0000
0000
0100
0000
0000
0000
0020
0030
0000
0000
0000
0000
0000
0000
0001
0000
0000
0000
,
0100
0000
0000
0000
0020
0030
0000
0000
0000
0000
0000
0000
0001
0000
0000
0000
0010
0000
0000
0000
0001
0000
0000
0000
0010
0000
0000
0000
0100
0000
0000
0000
,
1000
0000
1000
0010
0M00
0010
0001
0000
,
0001
0100
00M0
0100
1000
0000
1001
0000
,
0002
0000
0000
0203
0000
0000
0320
0000
,
0000
2030
0000
0000
3010
0000
1010
0000
,
2000
0000
0000
3200
0000
0000
0320
0000
,
0000
0032
0000
0000
0013
0000
0011
0000
,
2000
0000
0000
3020
0000
0000
0032
0000
,
0000
0023
0000
0000
1030
0000
1001
0000
,
2000
0000
0000
3200
0000
0000
0302
0000
,
0000
0103
0000
0001
0100
1000
0001
0100
,
0010
1000
0001
0010
0001
1000
0010
1000
,
0001
0010
0001
1000
0010
1000
0100
1000
,
0010
0100
0001
0010
0100
1000
0010
0100
,
0001
0010
0100
1000
0010
0100
0001
1000
,
0100
1000
0001
0100
0001
1000
0100
1000
,
0001
0100
0001
1000
0100
0010
0001
1000
,
0010
0100
0001
1000
0001
0010
0100
1000
,
0020
0030
0000
0000
1000
0000
0000
0000
0100
0000
0000
0000
0010
0000
0000
0000
0001
0000
0000
0000
0100
0000
0000
0000
0001
0000
0000
0000
0100
0000
0000
0000
,
0020
0000
0130
1000
0M0M
1010
0000
0110
,
0000
0101
0000
1000
0001
0010
0001
0010
,
0200
0000
0310
1000
00MM
1100
0000
0110
,
0000
0000
0000
0000
0011
0000
0000
0000
0000
0000
0000
0000
1000
0000
0000
0000
0020
0030
0000
0000
0000
0000
0000
0000
0001
0000
0000
0000
0200
0300
0000
0000
,
0000
0000
0000
0000
1000
0000
0000
0000
0020
0030
0000
0000
0000
0000
0000
0000
0001
0000
0000
0000
0100
0000
0000
0000
1000
0000
0000
0000
0100
0000
0000
0000
,
0001
0000
0000
0000
0100
0000
0000
0000
0001
0000
0000
0000
1000
0000
0000
0000
0200
0300
0000
0000
0000
0000
0000
0000
0001
0000
0000
0000
0020
0030
0000
0000
,
0000
0000
0000
0000
1000
0000
0000
0000
0200
0300
0000
0000
0000
0000
0000
0000
0001
0000
0000
0000
0100
0000
0000
0000
0001
0000
0000
0000
0100
0000
0000
0000
,
0010
1000
0001
0000
1000
0100
1000
0100
,
0020
0000
0130
0001
MM00
0011
0000
0110
,
0000
1100
0000
0001
1000
0010
1000
0010
,
0200
0000
0310
0001
M0M0
0101
0000
0110
,
0000
0000
0000
0000
1010
0000
0000
0000
0000
0000
0000
0000
0001
0000
0000
0000
0020
0030
0000
0000
0000
0000
0000
0000
1000
0000
0000
0000
0200
0300
0000
0000
,
0000
0000
0000
0000
0001
0000
0000
0000
0020
0030
0000
0000
0000
0000
0000
0000
1000
0000
0000
0000
0100
0000
0000
0000
0001
0000
0000
0000
0100
0000
0000
0000
,
1000
0000
0000
0000
0100
0000
0000
0000
1000
0000
0000
0000
0001
0000
0000
0000
0200
0300
0000
0000
0000
0000
0000
0000
1000
0000
0000
0000
0020
0030
0000
0000
,
0000
0000
0000
0000
0001
0000
0000
0000
0200
0300
0000
0000
0000
0000
0000
0000
1000
0000
0000
0000
0010
0000
0000
0000
0100
0000
0000
0000
0001
0000
0000
0000
,
1000
0100
0010
0001
1000
0000
1100
0000
,
0001
0011
1000
1010
,
0001
0101
1000
1001
,
0010
1001
0100
1001
,
0001
0010
0100
1000
0001
0100
0100
0001
,
0100
0100
0001
0100
0110
0000
1000
0010
,
0100
0001
1000
0000
1000
0100
0100
1000
,
0100
0100
1000
0100
0110
0000
0001
0010
,
0100
0000
1000
0000
0001
1000
0001
1000
0001
0000
0100
0000
0100
0000
0010
0000
,
1000
1000
0001
0000
1001
0000
0001
0010
,
1000
0000
0000
0000
;

//---------------dance-single - ----------------
#NOTEDATA:;
#CHARTNAME:;
#STEPSTYPE:dance-single;
#DESCRIPTION:;
#CHARTSTYLE:;
#DIFFICULTY:Hard;
#METER:13;
#RADARVALUES:0.534596,0.562562,0.395648,0.288493,0.000000,454.000000,406.000000,48.000000,35.000000,0.000000,0.000000,0.000000,0.000000,0.000000,0.534596,0.562562,0.395648,0.288493,0.000000,454.000000,406.000000,48.000000,35.000000,0.000000,0.000000,0.000000,0.000000,0.000000;
#CREDIT:;
#NOTES:
// measure 0
0000
0000
0000
0000
,  // measure 1
0000
0000
0000
0000
,  // measure 2
0000
0000
0000
0000
,  // measure 3
0000
0000
0000
0000
,  // measure 4
0000
0000
0000
0000
,  // measure 5
0000
0000
0000
0000
,  // measure 6
0000
0000
0000
0000
,  // measure 7
0000
0000
0000
0000
,  // measure 8
0001
0000
0010
0000
0100
0000
0010
0001
,  // measure 9
0000
0010
0001
0000
1000
0000
1000
0000
,  // measure 10
0001
0000
0100
0000
0010
0000
0100
0001
,  // measure 11
0000
1000
0001
0000
1001
0000
1001
0000
,  // measure 12
1000
0000
0100
0000
0010
0000
0100
1000
,  // measure 13
0000
0100
1000
0000
0001
0000
0001
0000
,  // measure 14
1000
0000
0010
0000
0100
0000
0010
1000
,  // measure 15
0000
0001
0010
0000
0011
0000
1000
0001
,  // measure 16
1000
0000
0010
0000
0001
0000
0010
1000
,  // measure 17
0000
0010
1000
0000
0001
0000
0001
0000
,  // measure 18
1000
0000
0100
0000
0001
0000
0100
0010
,  // measure 19
0000
0100
1000
0000
1001
0000
1001
0000
,  // measure 20
0001
0000
0100
0000
1000
0000
0100
0001
,  // measure 21
0000
0100
0001
0000
1000
0000
1000
0000
,  // measure 22
0001
0000
0010
0000
1000
0000
0010
0001
,  // measure 23
0000
1000
0010
0000
1010
0000
0001
1000
,  // measure 24
0001
0010
0001
0010
,  // measure 25
0100
0000
0010
0001
1000
0000
1001
0000
,  // measure 26
0001
0100
0010
1000
,  // measure 27
0001
0000
1000
0100
1000
0100
0010
0000
,  // measure 28
0011
0000
0000
0001
0100
0001
0000
1000
,  // measure 29
0100
1000
0000
0001
0100
0000
0010
0000
,  // measure 30
2000
0000
0000
3020
0000
0000
2030
0000
,  // measure 31
0000
3200
0000
0000
0310
0000
0001
0000
,  // measure 32
1000
0010
1000
0010
,  // measure 33
0100
0000
0010
1000
0001
0000
1001
0000
,  // measure 34
1000
0100
0010
0001
,  // measure 35
1000
0000
0001
0100
0001
0100
0010
0000
,  // measure 36
1010
0000
0000
1000
0100
1000
0000
0001
,  // measure 37
0100
0001
0000
1000
0100
0000
0010
0000
,  // measure 38
0002
0000
0000
0023
0000
0000
0032
0000
,  // measure 39
0000
0203
0000
0000
0310
0000
1001
0000
,  // measure 40
0001
0000
0010
0000
1000
0000
0010
0001
,  // measure 41
0000
0010
0001
0000
1000
0000
1000
0000
,  // measure 42
0001
0000
0100
0000
1000
0000
0100
0010
,  // measure 43
0000
0100
0001
0000
1001
0000
1001
0000
,  // measure 44
1000
0000
0100
0000
0001
0000
0100
1000
,  // measure 45
0000
0100
1000
0000
0001
0000
0001
0000
,  // measure 46
1000
0000
0010
0000
0001
0000
0010
1000
,  // measure 47
0000
0001
0010
0000
0011
0000
1000
0001
,  // measure 48
1000
0010
0100
1000
,  // measure 49
0100
0000
0010
1000
0010
0000
1010
0000
,  // measure 50
0001
0010
1000
0010
,  // measure 51
0001
0000
1000
0010
0100
0001
1000
0000
,  // measure 52
1001
0000
0000
1000
0001
0010
0000
0001
,  // measure 53
1000
0010
0000
1000
0100
0000
0010
0000
,  // measure 54
0002
0000
0000
0023
0000
0000
0032
0000
,  // measure 55
0000
0203
0000
0000
0310
0000
1000
0000
,  // measure 56
0001
0010
0100
0001
,  // measure 57
0100
0000
0010
0001
0010
0000
0011
0000
,  // measure 58
1000
0010
0001
0010
,  // measure 59
1000
0000
0001
0010
0100
1000
0001
0000
,  // measure 60
1001
0000
0000
0001
1000
0010
0000
1000
,  // measure 61
0001
0010
0000
0001
0100
0000
0010
0000
,  // measure 62
2000
0000
0000
3020
0000
0000
2030
0000
,  // measure 63
0000
3200
0000
0000
0310
0000
0001
0000
,  // measure 64
2000
0000
0000
3020
0000
0000
0230
0000
,  // measure 65
0000
0320
0000
0000
1030
0000
1010
0000
,  // measure 66
0002
0000
0000
0023
0000
0000
0230
0000
,  // measure 67
0000
0320
0000
0000
0031
0000
0011
0000
,  // measure 68
2000
0000
0000
3020
0000
0000
0230
0000
,  // measure 69
0000
0302
0000
0000
0013
0000
0011
0000
,  // measure 70
0020
0000
0000
0032
0000
0000
0203
0000
,  // measure 71
0000
0310
0000
0010
1000
0000
0001
0000
,  // measure 72
1000
0100
0010
0001
,  // measure 73
0100
0000
0010
0000
1000
0001
1000
0000
,  // measure 74
0100
0001
0100
1000
,  // measure 75
0001
0000
0100
0000
0010
1000
0010
0000
,  // measure 76
0100
1000
0100
0001
,  // measure 77
1000
0000
0100
0000
0010
0001
1000
0000
,  // measure 78
0001
0100
0010
1000
,  // measure 79
1001
0000
0000
0000
0001
1000
0001
1000
,  // measure 80
0001
0010
0100
0001
,  // measure 81
0100
0000
0010
0000
0001
1000
0001
1000
,  // measure 82
0001
0100
0010
0001
,  // measure 83
0010
0000
1000
0000
1010
0000
0000
0011
,  // measure 84
0000
1010
1000
0010
,  // measure 85
1000
0000
0100
0000
1100
0000
0000
0101
,  // measure 86
0000
1100
0001
1000
,  // measure 87
1001
0000
0000
0000
1000
0001
1000
0001
,  // measure 88
1000
0010
0100
1000
,  // measure 89
0100
0000
0010
0000
1000
0001
1000
0001
,  // measure 90
1000
0100
0010
1000
,  // measure 91
0010
0000
0001
0000
0011
0000
0000
1010
,  // measure 92
0000
0011
0001
0010
,  // measure 93
0001
0000
0100
0000
0101
0000
0000
1100
,  // measure 94
0000
0101
1000
0100
,  // measure 95
0010
0000
0001
0000
2000
0000
0000
3020
,  // measure 96
0000
0031
1000
0100
,  // measure 97
0001
0000
1000
0000
0002
0000
0000
0023
,  // measure 98
0000
1030
0001
0100
,  // measure 99
1000
0000
0001
0000
0011
0000
0000
1001
,  // measure 100
0000
0101
0101
0000
,  // measure 101
0100
0000
0010
0000
1010
0000
0000
1001
,  // measure 102
0000
1100
1100
0000
,  // measure 103
0100
0000
0010
0000
0011
0000
0000
0101
,  // measure 104
0000
1100
1010
0000
,  // measure 105
0110
0000
0000
0000
;

//---------------dance-single - ----------------
#NOTEDATA:;
#CHARTNAME:;
#STEPSTYPE:dance-single;
#DESCRIPTION:;
#CHARTSTYLE:;
#DIFFICULTY:Medium;
#METER:9;
#RADARVALUES:0.345014,0.476014,0.189581,0.511045,0.000000,293.000000,270.000000,23.000000,62.000000,0.000000,0.000000,0.000000,0.000000,0.000000,0.345014,0.476014,0.189581,0.511045,0.000000,293.000000,270.000000,23.000000,62.000000,0.000000,0.000000,0.000000,0.000000,0.000000;
#CREDIT:;
#NOTES:
// measure 0
0000
0000
0000
0000
,  // measure 1
0000
0000
0000
0000
,  // measure 2
0000
0000
0000
0000
,  // measure 3
0000
0000
0000
0000
,  // measure 4
0000
0000
0000
0000
,  // measure 5
0000
0000
0000
0000
,  // measure 6
0000
0000
0000
0000
,  // measure 7
0000
0000
0000
0000
,  // measure 8
0001
0000
0001
0000
0001
0000
0000
0100
,  // measure 9
0000
0010
1000
0000
,  // measure 10
0001
0000
0001
0000
0001
0000
0000
0010
,  // measure 11
0000
0001
1001
0000
,  // measure 12
1000
0000
1000
0000
1000
0000
0000
0010
,  // measure 13
0000
0100
0001
0000
,  // measure 14
1000
0000
1000
0000
1000
0000
0000
0100
,  // measure 15
0000
1000
1001
0000
,  // measure 16
0001
0000
0100
0000
0010
0000
0000
0100
,  // measure 17
0000
0010
1000
0000
,  // measure 18
0001
0000
0010
0000
0100
0000
0000
0010
,  // measure 19
0000
0100
1100
0000
,  // measure 20
1000
0000
0010
0000
0100
0000
0000
0010
,  // measure 21
0000
0100
0001
0000
,  // measure 22
1000
0000
0100
0000
0010
0000
0000
0100
,  // measure 23
0000
0010
0011
0000
,  // measure 24
0001
0100
0001
0100
,  // measure 25
0001
0000
0100
0000
,  // measure 26
0001
0010
0001
0010
,  // measure 27
0001
0000
1000
0000
,  // measure 28
0001
0000
0001
0000
,  // measure 29
0100
0000
0100
0010
,  // measure 30
2000
0000
0000
3200
0000
0000
0320
0000
,  // measure 31
0000
0032
0000
0000
1003
0000
0000
0000
,  // measure 32
1000
0100
1000
0100
,  // measure 33
1000
0000
0100
0000
,  // measure 34
1000
0010
1000
0010
,  // measure 35
1000
0000
0001
0000
,  // measure 36
1000
0000
1000
0000
,  // measure 37
0100
0000
0100
0010
,  // measure 38
0002
0000
0000
2003
0000
0000
3020
0000
,  // measure 39
0000
0230
0000
0000
0301
0000
0000
0000
,  // measure 40
1000
0000
0100
0000
0010
0000
0000
0100
,  // measure 41
0000
0010
0001
0000
,  // measure 42
1000
0000
0010
0000
0100
0000
0000
0010
,  // measure 43
0000
0100
0101
0000
,  // measure 44
0001
0000
0010
0000
0100
0000
0000
0010
,  // measure 45
0000
0100
1000
0000
,  // measure 46
0001
0000
0100
0000
0010
0000
0000
0100
,  // measure 47
0000
0010
1010
0000
,  // measure 48
0001
1000
0100
1000
,  // measure 49
0001
0000
0100
0000
,  // measure 50
0001
1000
0010
1000
,  // measure 51
0100
0000
0010
0000
,  // measure 52
0001
0000
0100
0000
,  // measure 53
0010
0000
1000
0001
,  // measure 54
0020
0000
0000
0032
0000
0000
0203
0000
,  // measure 55
0000
0320
0000
0000
1030
0000
0000
0000
,  // measure 56
1000
0001
0100
0001
,  // measure 57
1000
0000
0100
0000
,  // measure 58
1000
0001
0010
0001
,  // measure 59
0100
0000
0010
0000
,  // measure 60
1000
0000
0100
0000
,  // measure 61
0010
0000
0001
1000
,  // measure 62
0020
0000
0000
2030
0000
0000
3200
0000
,  // measure 63
0000
0320
0000
0000
0031
0000
0000
0000
,  // measure 64
2002
0000
0000
3000
0000
0000
0200
0000
,  // measure 65
0000
0300
0000
0000
1000
0000
1003
0000
,  // measure 66
2002
0000
0000
0003
0000
0000
0200
0000
,  // measure 67
0000
0300
0000
0000
0001
0000
3001
0000
,  // measure 68
2002
0000
0000
3000
0000
0000
0020
0000
,  // measure 69
0000
0030
0000
0000
1000
0000
1003
0000
,  // measure 70
2002
0000
0000
0003
0000
0000
0020
0000
,  // measure 71
0000
0030
0000
0000
3001
0000
1000
0000
,  // measure 72
0002
0000
0000
0023
0000
0000
0230
0000
,  // measure 73
0000
2300
0000
0000
3001
0000
0100
0000
,  // measure 74
0020
0000
0000
2030
0000
0000
3002
0000
,  // measure 75
0000
0023
0000
0000
0130
0000
1000
0000
,  // measure 76
0020
0000
0000
0230
0000
0000
0302
0000
,  // measure 77
0000
0023
0000
0000
0130
0000
1000
0000
,  // measure 78
0002
0000
0203
0000
,  // measure 79
0310
0000
1000
0010
,  // measure 80
0001
0010
1000
0000
,  // measure 81
0010
0000
1000
0100
,  // measure 82
0001
0100
1000
0000
,  // measure 83
1000
0000
0000
0000
0002
0000
0000
0203
,  // measure 84
0000
0302
0000
1003
,  // measure 85
0001
0000
1000
0000
0002
0000
0000
0023
,  // measure 86
0000
0032
0000
1003
,  // measure 87
1010
0000
0001
0010
,  // measure 88
1000
0010
0001
0000
,  // measure 89
0010
0000
0001
0100
,  // measure 90
1000
0100
0001
0000
,  // measure 91
0001
0000
0000
0000
2000
0000
0000
3200
,  // measure 92
0000
2300
0000
3001
,  // measure 93
1000
0000
0001
0000
2000
0000
0000
3020
,  // measure 94
0000
2030
0000
3001
,  // measure 95
0010
0000
0100
0000
2000
0000
0000
3002
,  // measure 96
0000
2003
0000
3001
,  // measure 97
0100
0000
0010
0000
2000
0000
0000
3002
,  // measure 98
0000
2003
3200
0000
,  // measure 99
0320
0000
0000
0000
0031
0000
0000
0011
,  // measure 100
0000
0011
0011
0000
,  // measure 101
1000
0000
0000
0000
1010
0000
0000
1010
,  // measure 102
0000
1010
1010
0000
,  // measure 103
0001
0000
0000
0000
1001
0000
0000
1001
,  // measure 104
0000
1001
1001
0000
,  // measure 105
0110
0000
0000
0000
;

//---------------dance-single - ----------------
#NOTEDATA:;
#CHARTNAME:;
#STEPSTYPE:dance-single;
#DESCRIPTION:;
#CHARTSTYLE:;
#DIFFICULTY:Easy;
#METER:6;
#RADARVALUES:0.273185,0.389466,0.148368,0.230795,0.000000,232.000000,214.000000,18.000000,28.000000,0.000000,0.000000,0.000000,0.000000,0.000000,0.273185,0.389466,0.148368,0.230795,0.000000,232.000000,214.000000,18.000000,28.000000,0.000000,0.000000,0.000000,0.000000,0.000000;
#CREDIT:;
#NOTES:
// measure 0
0000
0000
0000
0000
,  // measure 1
0000
0000
0000
0000
,  // measure 2
0000
0000
0000
0000
,  // measure 3
0000
0000
0000
0000
,  // measure 4
0000
0000
0000
0000
,  // measure 5
0000
0000
0000
0000
,  // measure 6
0000
0000
0000
0000
,  // measure 7
0000
0000
0000
0000
,  // measure 8
0001
0001
0001
0000
,  // measure 9
0100
0000
0100
0000
,  // measure 10
0001
0001
0001
0000
,  // measure 11
0010
0000
0100
0000
,  // measure 12
1000
1000
1000
0000
,  // measure 13
0100
0000
0100
0000
,  // measure 14
1000
1000
1000
0000
,  // measure 15
0010
0000
0100
0000
,  // measure 16
0001
0010
0001
0000
,  // measure 17
0010
0000
0010
0000
,  // measure 18
0001
0100
0001
0000
,  // measure 19
0100
0000
0010
0000
,  // measure 20
1000
0100
1000
0000
,  // measure 21
0100
0000
0100
0000
,  // measure 22
1000
0010
1000
0000
,  // measure 23
0010
0000
0100
0000
,  // measure 24
0001
0000
0001
0000
,  // measure 25
0010
0000
0001
0000
,  // measure 26
1000
0000
1000
0000
,  // measure 27
0010
1000
0100
0000
,  // measure 28
0010
0000
0010
0000
,  // measure 29
0100
0000
0010
0001
,  // measure 30
2000
0000
0000
3000
0000
0000
0020
0000
,  // measure 31
0000
0030
0000
0000
0110
0000
0000
0000
,  // measure 32
1000
0000
1000
0000
,  // measure 33
0010
0000
1000
0000
,  // measure 34
0001
0000
0001
0000
,  // measure 35
0010
0001
0100
0000
,  // measure 36
0010
0000
0010
0000
,  // measure 37
0100
0000
0010
1000
,  // measure 38
0002
0000
0000
0003
0000
0000
0020
0000
,  // measure 39
0000
0030
0000
0000
0110
0000
0000
0000
,  // measure 40
1000
0010
1000
0000
,  // measure 41
0010
0000
0010
0000
,  // measure 42
1000
0100
1000
0000
,  // measure 43
0100
0000
0010
0000
,  // measure 44
0001
0100
0001
0000
,  // measure 45
0100
0000
0100
0000
,  // measure 46
0001
0010
0001
0000
,  // measure 47
0010
0000
0100
0000
,  // measure 48
1000
0000
0010
0000
,  // measure 49
0001
0000
0010
0000
,  // measure 50
1000
0000
0100
0000
,  // measure 51
1000
0100
0001
0000
,  // measure 52
0100
0000
0100
0000
,  // measure 53
0010
0000
0100
1000
,  // measure 54
0002
0000
0000
0003
0000
0000
0200
0000
,  // measure 55
0000
0300
0000
0000
1010
0000
0000
0000
,  // measure 56
0001
0000
0010
0000
,  // measure 57
1000
0000
0010
0000
,  // measure 58
0001
0000
0100
0000
,  // measure 59
0001
0100
1000
0000
,  // measure 60
0100
0000
0100
0000
,  // measure 61
0010
0000
0100
0001
,  // measure 62
2000
0000
0000
3000
0000
0000
0200
0000
,  // measure 63
0000
0300
0000
0000
0011
0000
0000
0000
,  // measure 64
2000
0000
0000
3000
0000
0000
0020
0000
,  // measure 65
0000
0030
0000
0000
0100
0000
0000
0000
,  // measure 66
0002
0000
0000
0003
0000
0000
0020
0000
,  // measure 67
0000
0030
0000
0000
0100
0000
0000
0000
,  // measure 68
2000
0000
0000
3000
0000
0000
0002
0000
,  // measure 69
0000
0003
0000
0000
0100
0000
0000
0000
,  // measure 70
0220
0000
0000
0330
0000
0000
2002
0000
,  // measure 71
0000
3003
0000
0000
0001
0000
1000
0000
,  // measure 72
0001
0000
0010
0000
,  // measure 73
0100
0000
0010
0100
,  // measure 74
1000
0000
0010
0000
,  // measure 75
0100
0000
0010
0100
,  // measure 76
0001
0000
1000
0000
,  // measure 77
0100
0000
0010
0001
,  // measure 78
2000
0000
3020
0000
,  // measure 79
0130
0000
0001
0100
,  // measure 80
1000
0000
0100
0000
,  // measure 81
0001
0000
0001
0010
,  // measure 82
1000
0000
0010
0000
,  // measure 83
0001
0000
0022
0000
,  // measure 84
0000
0033
0000
0100
,  // measure 85
1000
0000
2020
0000
,  // measure 86
0000
3030
0000
0001
,  // measure 87
0001
0000
1000
0100
,  // measure 88
0001
0000
0100
0000
,  // measure 89
1000
0000
1000
0010
,  // measure 90
0001
0000
0010
0000
,  // measure 91
1000
0000
2020
0000
,  // measure 92
0000
3030
0000
0100
,  // measure 93
0001
0000
0022
0000
,  // measure 94
0000
0033
0000
1000
,  // measure 95
1000
0000
0001
0100
,  // measure 96
0001
0000
0010
0000
,  // measure 97
0100
0000
1000
0100
,  // measure 98
1000
0000
0010
0000
,  // measure 99
0100
0000
1001
0000
,  // measure 100
1001
0000
1001
0000
,  // measure 101
0010
0000
1001
0000
,  // measure 102
1001
0000
1001
0000
,  // measure 103
0100
0000
1001
0000
,  // measure 104
0001
1000
0001
0000
,  // measure 105
0110
0000
0000
0000
;

//---------------dance-single - ----------------
#NOTEDATA:;
#CHARTNAME:;
#STEPSTYPE:dance-single;
#DESCRIPTION:;
#CHARTSTYLE:;
#DIFFICULTY:Beginner;
#METER:4;
#RADARVALUES:0.149545,0.260880,0.082427,0.148368,0.000000,127.000000,117.000000,10.000000,18.000000,0.000000,0.000000,0.000000,0.000000,0.000000,0.149545,0.260880,0.082427,0.148368,0.000000,127.000000,117.000000,10.000000,18.000000,0.000000,0.000000,0.000000,0.000000,0.000000;
#CREDIT:;
#OFFSET:-0.243970;
#BPMS:0.000000=225.000000
;
#STOPS:;
#DELAYS:;
#WARPS:;
#TIMESIGNATURES:0.000000=4=4
;
#TICKCOUNTS:0.000000=4
;
#COMBOS:0.000000=1
;
#SPEEDS:0.000000=1.000000=0.000000=0
;
#SCROLLS:0.000000=1.000000
;
#FAKES:;
#LABELS:0.000000=Song Start
;
#NOTES:
// measure 0
0000
0000
0000
0000
,  // measure 1
0000
0000
0000
0000
,  // measure 2
0000
0000
0000
0000
,  // measure 3
0000
0000
0000
0000
,  // measure 4
0000
0000
0000
0000
,  // measure 5
0000
0000
0000
0000
,  // measure 6
0000
0000
0000
0000
,  // measure 7
0000
0000
0000
0000
,  // measure 8
0001
0000
0000
0000
,  // measure 9
0001
0000
0000
0000
,  // measure 10
0010
0000
0000
0000
,  // measure 11
0100
0000
0000
0000
,  // measure 12
1000
0000
0000
0000
,  // measure 13
1000
0000
0000
0000
,  // measure 14
0010
0000
0000
0000
,  // measure 15
0100
0000
0000
0000
,  // measure 16
0001
0000
0000
0000
,  // measure 17
0010
0000
0000
0000
,  // measure 18
0001
0000
0000
0000
,  // measure 19
0100
0000
0000
0000
,  // measure 20
1000
0000
0000
0000
,  // measure 21
0010
0000
0000
0000
,  // measure 22
1000
0000
0000
0000
,  // measure 23
0100
0000
0000
0000
,  // measure 24
0001
0000
0001
0000
,  // measure 25
0001
0000
0000
0000
,  // measure 26
1000
0000
1000
0000
,  // measure 27
1000
0000
0000
0000
,  // measure 28
0010
0000
0000
0000
,  // measure 29
0010
0000
0000
0000
,  // measure 30
0220
0000
0000
0330
,  // measure 31
0000
0000
0110
0000
,  // measure 32
1000
0000
1000
0000
,  // measure 33
1000
0000
0000
0000
,  // measure 34
0001
0000
0001
0000
,  // measure 35
0001
0000
0000
0000
,  // measure 36
0010
0000
0000
0000
,  // measure 37
0010
0000
0000
0000
,  // measure 38
0220
0000
0000
0330
,  // measure 39
0000
0000
0110
0000
,  // measure 40
1000
0000
0000
0000
,  // measure 41
0010
0000
0000
0000
,  // measure 42
1000
0000
0000
0000
,  // measure 43
0100
0000
0000
0000
,  // measure 44
0001
0000
0000
0000
,  // measure 45
0010
0000
0000
0000
,  // measure 46
0001
0000
0000
0000
,  // measure 47
0100
0000
0000
0000
,  // measure 48
1000
0000
0010
0000
,  // measure 49
1000
0000
0000
0000
,  // measure 50
0001
0000
0010
0000
,  // measure 51
0001
0000
0000
0000
,  // measure 52
0100
0000
0000
0000
,  // measure 53
0010
0000
0000
0000
,  // measure 54
0220
0000
0000
0330
,  // measure 55
0000
0000
1001
0000
,  // measure 56
0001
0000
0010
0000
,  // measure 57
0001
0000
0000
0000
,  // measure 58
1000
0000
0010
0000
,  // measure 59
1000
0000
0000
0000
,  // measure 60
0100
0000
0000
0000
,  // measure 61
0010
0000
0000
0000
,  // measure 62
0220
0000
0000
0330
,  // measure 63
0000
0000
1001
0000
,  // measure 64
2000
0000
0000
3000
,  // measure 65
0000
0000
0010
0000
,  // measure 66
0020
0000
0000
0030
,  // measure 67
0000
0000
0100
0000
,  // measure 68
0200
0000
0000
0300
,  // measure 69
0000
0000
0001
0000
,  // measure 70
0002
0000
0000
0003
,  // measure 71
0000
0000
0001
0000
,  // measure 72
0001
0000
0000
0000
,  // measure 73
0010
0000
0000
0000
,  // measure 74
0100
0000
0000
0000
,  // measure 75
1000
0000
0000
0000
,  // measure 76
0010
0000
0000
0000
,  // measure 77
0100
0000
0000
0000
,  // measure 78
0001
0000
1000
0000
,  // measure 79
0001
0000
0000
0000
,  // measure 80
0010
0000
0001
0000
,  // measure 81
0010
0000
0000
0000
,  // measure 82
0100
0000
1000
0000
,  // measure 83
0100
0000
0000
0000
,  // measure 84
0020
0000
0030
0000
,  // measure 85
0010
0000
0001
0000
,  // measure 86
0200
0000
0300
0000
,  // measure 87
0100
0000
0110
0000
,  // measure 88
0010
0000
1000
0000
,  // measure 89
0010
0000
0000
0000
,  // measure 90
0100
0000
0001
0000
,  // measure 91
0100
0000
0000
0000
,  // measure 92
0020
0000
0030
0000
,  // measure 93
0010
0000
1000
0000
,  // measure 94
0200
0000
0300
0000
,  // measure 95
0100
0000
0010
0000
,  // measure 96
0002
0000
0000
0000
,  // measure 97
0003
0000
0000
0000
,  // measure 98
2000
0000
0000
0000
,  // measure 99
3000
0000
0000
0000
,  // measure 100
0001
0000
0100
0000
,  // measure 101
0010
0000
0000
0000
,  // measure 102
1000
0000
0100
0000
,  // measure 103
0010
0000
0000
0000
,  // measure 104
0001
0000
1000
0000
,  // measure 105
0001
0000
1001
0000
;
