#VERSION:0.83;
#TITLE:Haunted;
#SUBTITLE:;
#ARTIST:Slippy;
#TITLETRANSLIT:;
#SUBTITLETRANSLIT:;
#ARTISTTRANSLIT:;
#GENRE:Dubstep;
#ORIGIN:;
#CREDIT:;
#BANNER:;
#BACKGROUND:;
#PREVIEWVID:;
#JACKET:;
#CDIMAGE:;
#DISCIMAGE:;
#LYRICSPATH:;
#CDTITLE:cdtitle.png;
#MUSIC:Haunted.ogg;
#OFFSET:-0.000540;
#SAMPLESTART:61.936028;
#SAMPLELENGTH:12.387104;
#SELECTABLE:YES;
#BPMS:0.000=155.000;
#STOPS:;
#DELAYS:;
#WARPS:;
#TIMESIGNATURES:0.000=4=4;
#TICKCOUNTS:0.000=4;
#COMBOS:0.000=1;
#SPEEDS:0.000=1.000=0.000=0;
#SCROLLS:0.000=1.000,
64.000=0.400,
77.000=0.421,
77.500=0.443,
78.000=0.464,
78.500=0.486,
79.000=0.507,
79.500=0.528,
80.000=0.550,
93.000=0.571,
93.500=0.593,
94.000=0.614,
94.500=0.636,
95.000=0.657,
95.500=0.678,
96.000=0.700,
109.000=0.721,
109.500=0.743,
110.000=0.764,
110.500=0.786,
111.000=0.807,
111.500=0.828,
112.000=0.850,
125.000=0.871,
125.500=0.893,
126.000=0.914,
126.500=0.936,
127.000=0.957,
127.500=0.978,
128.000=1.000,
158.000=0.000,
159.000=1.000,
288.000=0.950,
289.500=0.900,
291.000=0.850,
296.000=0.800,
297.500=0.750,
299.000=0.700,
304.000=0.650,
305.500=0.600,
307.000=0.550,
312.000=0.500,
313.500=0.450,
315.000=0.400,
320.000=0.200;
#FAKES:;
#LABELS:0.000=Song Start;
#BGCHANGES:;
#KEYSOUNDS:;
#ATTACKS:
;

//---------------dance-single - ----------------
#NOTEDATA:;
#CHARTNAME:;
#STEPSTYPE:dance-single;
#DESCRIPTION:;
#CHARTSTYLE:;
#DIFFICULTY:Challenge;
#METER:14;
#RADARVALUES:0.582928,0.752249,0.293561,0.543087,0.337595,556.000000,516.000000,40.000000,74.000000,0.000000,0.000000,0.000000,0.000000,0.000000,0.582928,0.752249,0.293561,0.543087,0.337595,556.000000,516.000000,40.000000,74.000000,0.000000,0.000000,0.000000,0.000000,0.000000;
#CREDIT:;
#NOTES:
0000
0000
0000
0000
,
0000
0000
0000
0000
,
0000
0000
0000
0000
,
0000
0000
0000
0000
,
1001
0000
0001
0010
0001
0000
1000
0000
,
1000
0010
1000
0000
0001
0000
1000
0000
,
0001
0000
0001
0100
0001
0000
1000
0000
,
1001
0000
1000
0100
0010
0001
0100
0010
,
1000
0000
0000
0000
0001
1000
0001
1000
0100
0000
0010
0000
0110
0000
0000
0000
,
0001
0010
1000
0010
0001
0000
0001
0000
,
1001
0000
1000
0010
0001
0010
1000
0000
,
1000
0010
0001
0010
1000
0001
0001
0000
,
1001
0000
1000
0100
0001
0100
1000
0000
,
0001
0100
1000
0100
0001
0000
1000
0000
,
1001
0000
0001
0010
0100
1000
0001
1000
,
0020
0000
0000
0000
1030
0000
0010
0000
0100
0000
0001
0010
0001
0010
0100
1000
,
0002
0000
0000
0000
,
0003
0000
0000
0000
,
0001
0000
0000
0010
0000
0000
0100
0000
,
0000
0000
1000
0010
0100
0001
0010
0100
,
2000
0000
0000
0000
,
3000
0000
0000
0000
0000
0000
0001
0000
0000
0000
0000
0000
0001
0000
1000
0001
,
1000
0000
0000
0010
0000
0000
0100
0000
,
0000
0000
0001
0010
0100
1000
0001
0100
,
0120
0000
0000
1000
1030
0000
0010
0000
,
2000
0000
0000
0010
3010
0000
1000
0100
,
0120
0000
0000
0001
0031
0000
0010
0000
,
0001
0000
0000
0000
1000
0000
0010
0000
0100
0000
0001
1000
0001
1000
0100
0010
,
0002
0000
0013
0001
0100
0000
2001
0000
,
3010
1000
0100
0000
1002
0000
0013
0001
,
0100
0000
0010
1000
0100
0000
2001
0000
,
3010
0000
0000
0000
0100
0000
0010
0000
1000
0000
0001
0010
0001
0000
1000
0010
,
2000
0100
0000
0100
0000
0001
0000
0001
,
0000
0000
0010
0000
0000
0000
3010
0000
0000
0000
1000
0000
0001
0010
0100
1000
,
0002
0100
0000
0100
0000
1000
0000
1000
,
0000
0010
0000
0013
0000
0001
1000
1000
,
0001
0000
1000
0010
1000
0000
0001
0010
0001
0000
1000
0100
1000
0000
0001
0100
,
0001
0000
0010
0000
0100
0000
1000
0000
0010
0000
0100
0000
0001
1000
0001
1000
,
0002
0003
0000
0000
0010
0100
0010
0100
2000
3000
0000
0000
0010
0100
0010
0100
,
0002
0003
1000
0000
0002
1003
0100
0010
0200
0000
0000
0000
0000
0300
0000
0000
,
1001
0000
0000
0000
0001
0100
0001
0100
0010
0000
0000
0000
0010
0100
0010
0100
,
0001
0000
0010
0000
0010
0001
0100
0000
0010
0000
0100
0000
0001
0010
0000
0000
,
0012
0000
0000
1000
0000
0103
0010
0000
2000
0000
0010
0000
3002
0000
0010
0000
,
1003
0020
0000
0100
0000
1030
0001
0000
0012
0000
1003
0000
2020
0000
3030
0000
,
1001
0000
0000
0000
1000
0100
1000
0100
0010
0000
0000
0000
0010
0100
0010
0100
,
1000
0000
0010
0000
0010
1000
0100
0000
0010
0000
0100
0000
0110
0000
0000
0000
,
1001
0000
0000
0000
0001
0100
0001
0100
0020
0000
0100
0000
1030
0000
1000
0100
,
1000
0100
0020
0000
0100
0000
0031
0010
0001
1000
0010
0000
0110
0000
0000
0000
,
1002
0000
0000
0000
0010
0000
1000
0000
0203
0000
0000
0000
1300
0000
0100
0010
,
0100
0000
0001
0000
1000
0100
0010
0000
0012
0000
0000
0000
0103
0010
1000
0000
,
2010
0000
0000
0001
0000
3100
0010
0000
0002
0000
0010
0000
2003
0000
0010
0000
,
3001
0020
0000
0100
0000
0031
1000
0000
2010
0000
3001
0000
0022
0000
0033
0000
,
2001
0000
0000
0000
0010
0000
0001
0000
3200
0000
0000
0302
0000
0000
0103
0010
,
0100
0010
0100
0000
1000
0001
1000
0001
1000
0000
0001
0100
0010
1000
0001
0000
,
1001
0000
0000
0000
1000
0100
1000
0100
0020
0000
0100
0000
0031
0000
0001
0100
,
0001
0100
0020
0000
0100
0000
1030
0010
0100
0001
0010
0000
0100
0000
1000
0001
,
2000
0000
3010
1000
0010
0000
0200
0000
0310
0100
0010
0000
0200
0000
0000
0000
,
1300
0100
0010
0100
0001
0000
1000
0001
,
2000
0000
3100
1000
0100
0000
0020
0000
0130
0010
0100
0000
0020
0000
0000
0000
,
1030
0000
0010
0000
0100
0000
0010
0000
0001
0000
1000
0010
1000
0010
0100
0000
,
0002
0000
0013
0001
0010
0000
0200
0000
0310
0100
0010
0000
0200
0000
0000
0000
,
0301
0100
0010
0100
1000
0000
0001
1000
,
0002
0000
0103
0001
0100
0000
0020
0000
0130
0010
0100
0000
0020
0000
0000
0000
,
0031
0000
0010
0000
0100
0000
0010
0000
2020
0000
3030
0000
0010
1000
0100
0010
,
0002
0000
0013
0001
1000
0000
1002
0000
1003
0001
0100
0000
0201
0000
0000
0000
,
1300
0100
1000
0100
0001
1000
0100
0010
,
0210
0000
1300
0001
0100
0000
0120
0000
1030
0001
0010
0000
0120
0000
0000
0000
,
1030
0000
0010
0000
1000
0000
0010
0000
0001
0000
1000
0001
0100
0010
1000
0000
,
2010
0000
3010
1000
0001
0000
2001
0000
3001
1000
0100
0000
1200
0000
0000
0000
,
0301
0100
0001
0100
1000
0001
0100
0010
,
0120
0000
1030
0010
1000
0000
2010
0000
3001
0010
0001
0000
0021
0000
0000
0000
,
0130
1000
0001
0100
0020
0000
0000
1030
,
2001
0000
0000
0001
0000
0000
0100
0000
,
0000
0000
0000
0000
0000
0000
0000
0001
,
3002
0000
0000
1000
0000
0000
0100
0000
,
0000
0000
0000
0000
0000
0000
0000
0000
1003
0000
0000
0000
0001
0000
1000
0001
,
2000
0000
0000
0001
0000
0000
0010
0000
,
0000
0000
0000
0000
0000
0000
0000
0001
,
3002
0000
0000
1000
0000
0000
0010
0000
,
0000
0000
0000
0000
0000
0100
0103
0000
,
0220
0000
0000
0000
,
0000
0000
0000
0000
,
0330
0000
0000
0000
;

//---------------dance-single - ----------------
#NOTEDATA:;
#CHARTNAME:;
#STEPSTYPE:dance-single;
#DESCRIPTION:;
#CHARTSTYLE:;
#DIFFICULTY:Hard;
#METER:10;
#RADARVALUES:0.393162,0.481440,0.183475,0.528409,0.018348,375.000000,350.000000,25.000000,72.000000,0.000000,0.000000,0.000000,0.000000,0.000000,0.393162,0.481440,0.183475,0.528409,0.018348,375.000000,350.000000,25.000000,72.000000,0.000000,0.000000,0.000000,0.000000,0.000000;
#CREDIT:;
#NOTES:
0000
0000
0000
0000
,
0000
0000
0000
0000
,
0000
0000
0000
0000
,
0000
0000
0000
0000
,
1001
0000
0000
0001
0000
0000
0010
0000
,
0000
0001
0000
0000
1000
0000
0010
0000
,
1000
0000
0000
0001
0000
0000
0010
0000
,
1001
0000
0001
0100
0010
1000
0100
0010
,
0002
0000
0000
1000
1003
0000
1001
0000
,
0001
0100
0010
0000
1010
0000
0001
0000
,
0001
0000
1000
0100
0001
0000
0100
0000
,
0001
0100
1000
0000
0011
0000
1000
0000
,
1000
0000
0001
0100
1000
0000
0100
0000
,
1000
0100
0001
0000
1010
0000
0001
0000
,
0001
0000
1000
0100
0010
0000
0100
0000
,
0200
0000
1300
0100
0010
0001
0100
0010
,
2000
0000
0000
0000
,
3000
0000
0000
0000
,
1000
0000
0000
0010
0000
0000
0100
0000
,
0000
0000
0001
0100
0010
1000
0100
0010
,
0002
0000
0000
0000
,
0003
0000
0000
0001
0000
0000
0001
1000
,
0001
0000
0000
0010
0000
0000
0100
0000
,
0000
0000
1000
0100
0010
0001
0100
0010
,
2000
0000
0010
0001
,
3002
0000
0010
1000
,
1003
0000
0000
0010
0100
0000
0001
0000
,
1000
0000
0001
0010
1000
0010
0001
1000
,
0001
0000
0100
0010
1000
0000
1000
0000
,
0100
0010
0001
0000
1000
0010
0100
0001
,
1000
0000
0100
0010
0001
0000
1000
0000
,
1001
0000
1000
0010
0001
0010
1000
0001
,
1000
0100
0000
1100
0000
0001
0000
0101
,
0000
1000
0000
1100
0000
0001
0100
0010
,
1000
0001
0000
0011
0000
1000
0000
1010
,
0000
0001
0000
0011
0000
1000
0010
1000
,
0002
0023
2030
3020
,
0031
0100
0001
0100
1000
0100
1000
0100
,
0002
0003
0000
0000
0000
0000
0000
0000
2000
3000
0000
0000
0000
0000
0000
0000
,
0002
0003
0000
0000
2000
3000
0000
0000
2002
0000
0000
0000
0000
3003
0000
0000
,
1001
0000
0001
0100
0010
0000
0100
0001
,
0010
0100
0010
0100
0001
0100
0010
0000
,
0011
0000
0000
2000
0000
0000
3100
0000
2000
0000
3010
0000
2000
0000
3010
0000
,
1000
0000
0000
0002
0000
0000
0103
0000
0002
0000
0100
0000
0013
0000
0000
0000
,
0110
0000
1000
0100
0010
0000
0100
1000
,
0010
1000
0010
0100
1000
0100
0010
0000
,
1001
0000
1000
0200
0010
0300
0100
0020
,
0001
0030
0010
0002
1000
1000
0103
0000
,
1001
0000
1000
0100
0001
0000
0100
1000
,
0001
0100
1000
0100
0002
0000
1003
0000
,
1010
0000
0000
0002
0000
0000
0103
0000
0002
0000
0013
0000
0002
0000
0013
0000
,
0001
0000
0000
2000
0000
0000
3100
0000
2000
0000
0100
0000
3010
0000
0000
0000
,
1001
0000
0000
0000
0001
0000
0100
0000
1000
0000
0000
0100
0000
0000
0001
0000
,
1000
0100
0001
0100
1000
0001
1000
0000
,
1001
0000
0001
0200
0010
0300
0100
0020
,
1000
0030
0010
2000
0001
0001
3100
0000
,
0210
0000
0000
0302
0000
0000
0203
0000
,
0000
0000
0310
0001
1000
0000
0001
1000
,
0020
0000
0000
0032
0000
0000
0023
0000
,
0000
0000
0130
0001
0010
0000
0010
0001
,
0200
0000
0000
2300
0000
0000
3200
0000
,
0000
0000
0310
1000
0001
0000
1000
0001
,
0020
0000
0000
2030
0000
0000
3020
0000
,
0000
0000
0130
1000
0010
0000
1000
0010
,
0002
0000
0000
2003
0000
0000
3200
0000
,
0301
1000
0010
1000
0001
0000
1000
0100
,
0002
0000
0000
2003
0000
0000
3020
0000
,
0031
0100
0010
1000
0001
0000
0001
0010
,
2000
0000
0000
3002
0000
0000
0203
0000
,
1300
0001
0010
0001
1000
0000
0001
0100
,
2000
0000
0000
3200
0000
0000
0302
0000
,
1003
0010
0100
0001
2000
0000
0000
3001
,
2001
0000
0000
3200
0000
0000
0320
0000
,
0000
0000
0030
0000
0000
0000
0000
0001
,
0002
0000
0000
0203
0000
0000
0320
0000
,
0000
0000
0030
0000
1000
0000
0001
1000
,
0002
0000
0000
0023
0000
0000
0230
0000
,
0000
0000
0300
0000
0000
0000
0000
1000
,
2000
0000
0000
3020
0000
0000
0230
0000
,
0000
0000
0300
0000
0000
0001
1000
0000
,
2002
0000
0000
0000
,
0000
0000
0000
0000
,
3003
0000
0000
0000
;

//---------------dance-single - ----------------
#NOTEDATA:;
#CHARTNAME:;
#STEPSTYPE:dance-single;
#DESCRIPTION:;
#CHARTSTYLE:;
#DIFFICULTY:Medium;
#METER:8;
#RADARVALUES:0.289367,0.421260,0.205493,0.543087,0.000000,276.000000,248.000000,28.000000,74.000000,0.000000,0.000000,0.000000,0.000000,0.000000,0.289367,0.421260,0.205493,0.543087,0.000000,276.000000,248.000000,28.000000,74.000000,0.000000,0.000000,0.000000,0.000000,0.000000;
#CREDIT:;
#OFFSET:-0.000540;
#BPMS:0.000000=155.000000
;
#STOPS:;
#DELAYS:;
#WARPS:;
#TIMESIGNATURES:0.000000=4=4
;
#TICKCOUNTS:0.000000=4
;
#COMBOS:0.000000=1
;
#SPEEDS:0.000000=1.000000=0.000000=0
;
#SCROLLS:0.000000=1.000000
,64.000000=0.600000
,77.000000=0.625000
,78.000000=0.650000
,79.000000=0.675000
,80.000000=0.700000
,93.000000=0.725000
,94.000000=0.750000
,95.000000=0.775000
,96.000000=0.800000
,109.000000=0.825000
,110.000000=0.850000
,111.000000=0.875000
,112.000000=0.900000
,125.000000=0.925000
,126.000000=0.950000
,127.000000=0.975000
,128.000000=1.000000
,158.000000=0.000000
,159.000000=1.000000
,288.000000=0.966000
,289.500000=0.933000
,291.000000=0.900000
,296.000000=0.866000
,297.500000=0.833000
,299.000000=0.800000
,304.000000=0.766000
,305.500000=0.733000
,307.000000=0.700000
,312.000000=0.666000
,313.500000=0.633000
,315.000000=0.600000
,320.000000=0.300000
;
#FAKES:;
#LABELS:0.000000=Song Start
;
#NOTES:
0000
0000
0000
0000
,
0000
0000
0000
0000
,
0000
0000
0000
0000
,
0000
0000
0000
0000
,
2002
0000
0000
0000
,
0000
0000
0000
0000
,
3003
0000
0000
0000
,
1001
1000
0010
0100
,
0002
0000
0000
1003
0001
0000
1001
0000
,
0000
0001
0010
0100
,
1000
0000
0000
0001
1000
0000
1001
0000
,
0000
1000
0010
0100
,
0001
1000
0100
0110
,
0000
0001
0010
0100
,
1000
0000
0000
0001
0100
0000
0110
0000
,
2000
0000
0000
0000
3010
1000
0100
0000
,
0020
0000
0000
0000
,
0030
0000
0000
0000
,
0100
0000
0000
0010
0000
0000
0001
0000
,
0000
1000
0010
0100
,
0020
0000
0000
0000
,
0030
0000
0000
0000
,
0100
0000
0000
0010
0000
0000
1000
0000
,
0000
0001
0010
0100
,
0120
0000
0031
0100
,
0020
0000
0130
0010
,
2000
0000
0000
3100
0010
0000
0001
0000
,
1000
0010
0100
0001
,
2002
3003
1000
0100
,
0100
0000
0010
0000
0000
0001
0000
0000
,
0100
0000
0000
0010
1000
0000
1000
0000
,
0001
1000
0100
0010
,
0012
0000
0000
1003
0000
0001
0000
1000
,
0000
0001
0000
1000
0000
0001
0100
0010
,
2000
0000
0000
3001
0000
1000
0000
0001
,
0000
1000
0000
0001
0000
1000
0100
0010
,
0002
0203
0320
2030
,
3100
0010
0001
0000
0100
0010
1000
0000
,
0002
0003
0000
0000
0000
0000
0000
0000
2000
3000
0000
0000
0000
0000
0000
0000
,
0002
0003
0000
0000
2000
3000
0000
0000
0002
0000
0000
0000
0000
0003
0000
0000
,
1002
0000
0013
0100
0010
0000
0100
0000
,
0000
0100
0010
0000
0001
0000
0100
0000
,
2020
0000
3030
0000
0010
1000
0010
0000
,
1000
0000
0100
0000
0010
0001
0010
0000
,
2001
0000
3010
0100
0010
0000
0100
0000
,
0000
0100
0010
0000
1000
0000
0100
0000
,
0022
0000
0033
0000
1000
0010
1000
0000
,
0001
0010
0001
0000
0100
0010
0100
0000
,
2001
0000
3010
1000
0100
0000
1000
0000
,
0000
1000
0100
0000
0020
0000
0031
0000
,
0022
0000
0033
0000
0010
0001
0010
0000
,
0001
0000
0100
0000
0010
1000
0010
0000
,
1002
0000
0013
0001
0100
0000
0000
0000
,
0001
0100
0010
0000
0100
0010
1000
0000
,
2020
0000
3030
0000
0001
0010
0001
0000
,
1000
0010
1000
0000
0100
0010
0100
0000
,
0020
0000
0000
0032
0000
0000
2003
0000
,
0000
0000
3000
0010
1000
0000
0000
0001
,
0020
0000
0000
0230
0000
0000
2300
0000
,
0000
0000
3000
0001
0100
0010
0000
0100
,
0020
0000
0000
2030
0000
0000
3002
0000
,
0000
0000
0003
0010
0001
0000
0000
1000
,
0020
0000
0000
0230
0000
0000
0302
0000
,
0000
0000
0003
1000
0100
0010
0000
0001
,
2000
0000
3000
2020
0000
3030
0220
0000
,
0000
0000
0330
0010
1010
0000
0000
1000
,
0200
0000
0300
0022
0000
0033
2002
0000
,
0000
0000
3003
1000
0010
0100
0000
0100
,
0002
0000
0003
0022
0000
0033
0220
0000
,
0000
0000
0330
0010
0011
0000
0000
0001
,
2000
0000
3000
0220
0000
0330
2002
0000
,
0000
0000
3000
0000
0203
0000
0000
0310
,
1000
0000
0000
0100
0000
0000
2000
0000
,
0000
3000
0000
0000
,
0001
0000
0000
0100
0000
0000
0002
0000
,
0000
0003
1000
0000
,
0001
0000
0000
0010
0000
0000
0002
0000
,
0000
0003
0000
0000
,
1000
0000
0000
0010
0000
0000
2000
0000
,
0000
3000
0000
0000
,
2002
0000
0000
0000
,
0000
0000
0000
0000
,
3003
0000
0000
0000
;

//---------------dance-single - ----------------
#NOTEDATA:;
#CHARTNAME:;
#STEPSTYPE:dance-single;
#DESCRIPTION:;
#CHARTSTYLE:;
#DIFFICULTY:Easy;
#METER:5;
#RADARVALUES:0.185572,0.300900,0.110085,0.352273,0.000000,177.000000,162.000000,15.000000,48.000000,0.000000,0.000000,0.000000,0.000000,0.000000,0.185572,0.300900,0.110085,0.352273,0.000000,177.000000,162.000000,15.000000,48.000000,0.000000,0.000000,0.000000,0.000000,0.000000;
#CREDIT:;
#OFFSET:-0.000540;
#BPMS:0.000000=155.000000
;
#STOPS:;
#DELAYS:;
#WARPS:;
#TIMESIGNATURES:0.000000=4=4
;
#TICKCOUNTS:0.000000=4
;
#COMBOS:0.000000=1
;
#SPEEDS:0.000000=1.000000=0.000000=0
;
#SCROLLS:0.000000=1.000000
,64.000000=0.600000
,77.000000=0.625000
,78.000000=0.650000
,79.000000=0.675000
,80.000000=0.700000
,93.000000=0.725000
,94.000000=0.750000
,95.000000=0.775000
,96.000000=0.800000
,109.000000=0.825000
,110.000000=0.850000
,111.000000=0.875000
,112.000000=0.900000
,125.000000=0.925000
,126.000000=0.950000
,127.000000=0.975000
,128.000000=1.000000
,158.000000=0.000000
,159.000000=1.000000
,288.000000=0.966000
,289.500000=0.933000
,291.000000=0.900000
,296.000000=0.866000
,297.500000=0.833000
,299.000000=0.800000
,304.000000=0.766000
,305.500000=0.733000
,307.000000=0.700000
,312.000000=0.666000
,313.500000=0.633000
,315.000000=0.600000
,320.000000=0.300000
;
#FAKES:;
#LABELS:0.000000=Song Start
;
#NOTES:
// measure 0
0000
0000
0000
0000
,  // measure 1
0000
0000
0000
0000
,  // measure 2
0000
0000
0000
0000
,  // measure 3
0000
0000
0000
0000
,  // measure 4
2002
0000
0000
0000
,  // measure 5
0000
0000
0000
0000
,  // measure 6
3003
0000
0000
0000
,  // measure 7
1001
0000
0000
0001
,  // measure 8
2000
0000
3001
1000
,  // measure 9
0000
0001
0010
0000
,  // measure 10
0001
0000
1000
0010
,  // measure 11
0000
1000
0010
0000
,  // measure 12
1000
0000
0001
0010
,  // measure 13
0000
0100
1000
0000
,  // measure 14
0001
0000
1000
0010
,  // measure 15
0020
0000
0030
0100
,  // measure 16
0002
0000
0000
0000
,  // measure 17
0003
0000
0000
0000
,  // measure 18
0000
0000
0000
0000
,  // measure 19
0000
0001
0100
0010
,  // measure 20
2000
0000
0000
0000
,  // measure 21
3000
0000
0000
0000
,  // measure 22
0000
0000
0000
0000
,  // measure 23
0000
1000
0100
0010
,  // measure 24
0002
0000
0000
0000
,  // measure 25
1003
0000
0000
0000
,  // measure 26
0001
0000
0000
0000
,  // measure 27
1000
0001
0100
0010
,  // measure 28
2000
0000
0001
0000
,  // measure 29
3001
0000
1000
0000
,  // measure 30
1000
0000
0001
0000
,  // measure 31
0001
1000
0100
0010
,  // measure 32
0002
0000
0010
0000
,  // measure 33
0010
0000
0010
1003
,  // measure 34
2000
0000
0010
0000
,  // measure 35
0010
0000
0010
3001
,  // measure 36
0002
0000
0023
0000
,  // measure 37
0230
0000
2300
0000
,  // measure 38
3001
0000
1000
0000
,  // measure 39
0001
1000
1001
0000
,  // measure 40
0001
0100
0010
0000
,  // measure 41
0010
0100
0001
0010
,  // measure 42
0002
0003
0011
0000
,  // measure 43
2000
3000
1010
0000
,  // measure 44
1000
0100
0010
0000
,  // measure 45
0010
0100
1000
0010
,  // measure 46
1000
0000
2000
3100
,  // measure 47
0200
0310
0020
0031
,  // measure 48
1001
0000
0101
0000
,  // measure 49
1000
0100
0010
0100
,  // measure 50
2000
3000
1010
0000
,  // measure 51
0002
0003
0011
0000
,  // measure 52
1001
0000
1100
0000
,  // measure 53
0001
0100
0010
0100
,  // measure 54
0001
0000
0002
0103
,  // measure 55
0200
0310
0020
1030
,  // measure 56
0002
0000
0023
0000
,  // measure 57
0031
0010
0100
0000
,  // measure 58
0020
0000
0032
0000
,  // measure 59
1003
0001
1001
0000
,  // measure 60
2000
0000
3020
0000
,  // measure 61
1030
0010
0100
0000
,  // measure 62
0020
0000
2030
0000
,  // measure 63
3001
1000
1001
0000
,  // measure 64
0002
0000
0023
0000
,  // measure 65
1030
0010
1000
0010
,  // measure 66
0002
0000
0203
0000
,  // measure 67
0301
0001
0110
0000
,  // measure 68
2000
0000
3020
0000
,  // measure 69
0031
0010
0001
0010
,  // measure 70
2000
0000
3200
0000
,  // measure 71
0320
0000
0032
0000
,  // measure 72
2003
0000
0000
3000
,  // measure 73
0000
0000
0000
0000
,  // measure 74
0020
0000
0000
0030
,  // measure 75
0000
0000
0100
0000
,  // measure 76
0002
0000
0000
0003
,  // measure 77
0000
0000
0000
0000
,  // measure 78
0020
0000
0000
0030
,  // measure 79
0000
0000
0000
0000
,  // measure 80
2002
0000
0000
0000
,  // measure 81
0000
0000
0000
0000
,  // measure 82
3003
0000
0000
0000
;

//---------------dance-single - ----------------
#NOTEDATA:;
#CHARTNAME:;
#STEPSTYPE:dance-single;
#DESCRIPTION:;
#CHARTSTYLE:;
#DIFFICULTY:Beginner;
#METER:1;
#RADARVALUES:0.073390,0.146780,0.036695,0.139441,0.000000,70.000000,65.000000,5.000000,19.000000,0.000000,0.000000,0.000000,0.000000,0.000000,0.073390,0.146780,0.036695,0.139441,0.000000,70.000000,65.000000,5.000000,19.000000,0.000000,0.000000,0.000000,0.000000,0.000000;
#CREDIT:;
#OFFSET:-0.000540;
#BPMS:0.000000=155.000000
;
#STOPS:;
#DELAYS:;
#WARPS:;
#TIMESIGNATURES:0.000000=4=4
;
#TICKCOUNTS:0.000000=4
;
#COMBOS:0.000000=1
;
#SPEEDS:0.000000=1.000000=0.000000=0
;
#SCROLLS:0.000000=1.000000
;
#FAKES:;
#LABELS:0.000000=Song Start
;
#NOTES:
// measure 0
0000
0000
0000
0000
,  // measure 1
0000
0000
0000
0000
,  // measure 2
0000
0000
0000
0000
,  // measure 3
0000
0000
0000
0000
,  // measure 4
0010
0000
0000
0000
,  // measure 5
0000
0000
0000
0000
,  // measure 6
0000
0000
0000
0000
,  // measure 7
0010
0000
0000
0000
,  // measure 8
0000
0000
1000
0000
,  // measure 9
0000
0000
0100
0000
,  // measure 10
0000
0000
0010
0000
,  // measure 11
0000
0000
0001
0000
,  // measure 12
0000
0000
0010
0000
,  // measure 13
0000
0000
0100
0000
,  // measure 14
0000
0000
1000
0000
,  // measure 15
0000
0000
0000
0000
,  // measure 16
0002
0000
0000
0000
,  // measure 17
0003
0000
0000
0000
,  // measure 18
0000
0000
0000
0000
,  // measure 19
0000
0000
0000
0000
,  // measure 20
2000
0000
0000
0000
,  // measure 21
3000
0000
0000
0000
,  // measure 22
0000
0000
0000
0000
,  // measure 23
0000
0000
0000
0000
,  // measure 24
0002
0000
0000
0000
,  // measure 25
0003
0000
0000
0000
,  // measure 26
0010
0000
0000
0000
,  // measure 27
0000
0000
0000
0000
,  // measure 28
2000
0000
0000
0000
,  // measure 29
3000
0000
0000
0000
,  // measure 30
0010
0000
0000
0000
,  // measure 31
0000
0000
0000
0000
,  // measure 32
0001
0000
0000
0000
,  // measure 33
0001
0000
0000
0000
,  // measure 34
1000
0000
0000
0000
,  // measure 35
1000
0000
0000
0000
,  // measure 36
0100
0000
0000
0000
,  // measure 37
0010
0000
0000
0000
,  // measure 38
0200
0000
0000
0000
,  // measure 39
0000
0000
0300
0000
,  // measure 40
1001
0000
0000
0000
,  // measure 41
0010
0000
0000
0000
,  // measure 42
2000
0000
3000
0000
,  // measure 43
0020
0000
0030
0000
,  // measure 44
1001
0000
0000
0000
,  // measure 45
0010
0000
0000
0000
,  // measure 46
1000
0000
1000
0000
,  // measure 47
2000
0000
3000
0000
,  // measure 48
1001
0000
0000
0000
,  // measure 49
0010
0000
0000
0000
,  // measure 50
0002
0000
0003
0000
,  // measure 51
0020
0000
0030
0000
,  // measure 52
1001
0000
0000
0000
,  // measure 53
0010
0000
0000
0000
,  // measure 54
0001
0000
0001
0000
,  // measure 55
0002
0000
0003
0000
,  // measure 56
1000
0000
0000
0000
,  // measure 57
2000
0000
3000
0000
,  // measure 58
0010
0000
0000
0000
,  // measure 59
0020
0000
0030
0000
,  // measure 60
0100
0000
0000
0000
,  // measure 61
0200
0000
0300
0000
,  // measure 62
0001
0000
0000
0000
,  // measure 63
0002
0000
0003
0000
,  // measure 64
1000
0000
1000
0000
,  // measure 65
2000
0000
3000
0000
,  // measure 66
0100
0000
0100
0000
,  // measure 67
0200
0000
0300
0000
,  // measure 68
0010
0000
0010
0000
,  // measure 69
0020
0000
0030
0000
,  // measure 70
0001
0000
0001
0000
,  // measure 71
0002
0000
0003
0000
,  // measure 72
1000
0000
0000
0000
,  // measure 73
0000
0000
0000
0000
,  // measure 74
0010
0000
0000
0000
,  // measure 75
0000
0000
0000
0000
,  // measure 76
0100
0000
0000
0000
,  // measure 77
0000
0000
0000
0000
,  // measure 78
0001
0000
0000
0000
,  // measure 79
0000
0000
0000
0000
,  // measure 80
1001
0000
0000
0000
;
