#VERSION:0.83;
#TITLE:ひゅるりらぱっぱ;
#SUBTITLE:;
#ARTIST:tuki.;
#TITLETRANSLIT:HYURURIRAPAPPA;
#SUBTITLETRANSLIT:;
#ARTISTTRANSLIT:;
#GENRE:Japanesque Dance;
#ORIGIN:;
#CREDIT:;
#BANNER:HYURURIRAPAPPA.png;
#BACKGROUND:HYURURIRAPAPPA-bg.png;
#PREVIEWVID:;
#JACKET:HYURURIRAPAPPA-jacket.png;
#CDIMAGE:;
#DISCIMAGE:;
#LYRICSPATH:;
#CDTITLE:cdtitle.png;
#MUSIC:HYURURIRAPAPPA.ogg;
#OFFSET:1.401000;
#SAMPLESTART:49.341854;
#SAMPLELENGTH:10.971428;
#SELECTABLE:YES;
#BPMS:0.000=175.000;
#STOPS:;
#DELAYS:;
#WARPS:;
#TIMESIGNATURES:0.000=4=4;
#TICKCOUNTS:0.000=4;
#COMBOS:0.000=1;
#SPEEDS:0.000=1.000=0.000=0;
#SCROLLS:0.000=1.000;
#FAKES:;
#LABELS:0.000=Song Start;
#LASTSECONDHINT:85.683998;
#BGCHANGES:3.500=HYURURIRAPAPPA.mp4=1.000=1=0=1===CrossFade==,
99999=-nosongbg-=1.000=0=0=0 // don't automatically add -songbackground-
;
#KEYSOUNDS:;
#ATTACKS:
;

//---------------dance-single - ----------------
#NOTEDATA:;
#CHARTNAME:;
#STEPSTYPE:dance-single;
#DESCRIPTION:;
#CHARTSTYLE:;
#DIFFICULTY:Challenge;
#METER:15;
#RADARVALUES:0.740286,0.782040,0.390661,0.356191,0.482581,451.000000,417.000000,34.000000,31.000000,0.000000,0.000000,0.000000,0.000000,0.000000,0.740286,0.782040,0.390661,0.356191,0.482581,451.000000,417.000000,34.000000,31.000000,0.000000,0.000000,0.000000,0.000000,0.000000;
#CREDIT:;
#NOTES:
// measure 0
0000
0000
0000
0000
,  // measure 1
0000
0000
0000
0000
,  // measure 2
0000
0000
0000
0000
,  // measure 3
0000
0000
0000
0000
,  // measure 4
1000
0100
0020
0030
,  // measure 5
0001
0100
0020
0030
,  // measure 6
1000
0001
0020
0030
,  // measure 7
0100
1000
0002
0003
,  // measure 8
1000
0000
0000
0000
0010
0000
0000
0000
0200
0000
0000
0310
0000
0000
0100
0000
,  // measure 9
0001
0000
0000
0000
0010
0000
0000
0000
0200
0000
0000
0310
0000
0000
0100
0000
,  // measure 10
1000
0000
0000
0000
0001
0000
0000
0000
0200
0000
0000
0310
0000
0000
1000
0000
,  // measure 11
0001
0000
0010
0000
0100
0000
1000
0000
0001
0100
0001
0100
0010
1000
0010
1000
,  // measure 12
0001
0000
0000
0000
0000
0000
0000
0000
1000
0100
0010
0001
1000
0000
0001
0000
,  // measure 13
0200
0000
0000
0000
1000
0000
0000
0000
0301
0000
0000
0010
0000
0000
0100
0000
,  // measure 14
0000
0000
1000
0000
0001
0000
0000
0000
1000
0010
0100
0001
1000
0000
0001
0000
,  // measure 15
0020
0000
0000
0000
1000
0000
0000
0000
0031
0000
0000
0100
0000
0000
0010
0000
,  // measure 16
0000
0000
1000
0000
1000
0000
0000
0000
0001
0010
0001
0010
0100
1000
0001
1000
,  // measure 17
0200
0000
0000
0000
0001
0000
0000
0000
1300
0000
0000
0010
0000
0000
0100
0000
,  // measure 18
0000
0000
0001
0000
1000
0000
0000
0000
0001
0010
0100
1000
0001
0000
1000
0000
,  // measure 19
0020
0000
0000
0000
0001
0000
0000
0000
1030
0000
0000
0100
0000
0000
0010
0000
,  // measure 20
0000
0000
0001
0000
0001
0000
0000
0000
1000
0010
1000
0010
0100
0001
1000
0001
,  // measure 21
0010
0000
0100
0010
0100
0000
0010
0000
2000
0000
0000
0000
3010
0000
0100
0000
,  // measure 22
2000
0000
0000
3001
0100
0000
0010
0000
1000
0000
0001
0000
0010
0000
0100
0000
,  // measure 23
1000
1000
0001
0001
0100
1000
0100
0001
,  // measure 24
1000
0100
0001
0100
2000
0000
3000
0000
,  // measure 25
0010
0000
0100
0010
0100
0000
0010
0000
0002
0000
0000
0000
0013
0000
0100
0000
,  // measure 26
0001
0000
0000
0000
1000
0000
0000
0000
0100
0000
0000
0000
0010
0000
0000
0000
0002
0000
0000
0000
0020
0030
0000
0000
1003
0000
0000
0000
0001
0000
0000
0000
,  // measure 27
0200
0000
0000
0301
0100
0000
0010
0000
1000
0000
0001
0000
0010
0000
0100
0000
,  // measure 28
2000
0000
0000
0000
3000
0000
0000
0000
1001
0000
0000
1000
0010
0100
0001
1000
,  // measure 29
0100
0000
0000
0000
0100
0000
0000
0000
0011
0000
0000
1001
0000
0000
0101
0000
,  // measure 30
0000
0000
0110
0000
0110
0000
0000
0000
0101
0000
0000
1001
0000
0000
0001
0010
,  // measure 31
0100
0000
0000
0000
1000
0000
0000
0000
1010
0000
0000
0110
0000
0000
0101
0000
,  // measure 32
0000
0000
1001
0000
1001
0000
0000
0000
1000
0100
0010
0002
0000
0000
0103
0000
,  // measure 33
0100
0000
0000
0000
0100
0000
0000
0000
1010
0000
0000
1001
0000
0000
1100
0000
,  // measure 34
0000
0000
0110
0000
0110
0000
0000
0000
1100
0000
0000
1001
0000
0000
1000
0010
,  // measure 35
0100
0000
0000
0000
0001
0000
0000
0000
0011
0000
0000
0110
0000
0000
1100
0000
,  // measure 36
0000
0000
1010
0000
0102
0000
0000
0000
0013
0100
0010
0100
1000
0000
0000
0000
,  // measure 37
0001
0000
1000
0010
1000
0000
0010
0000
0002
0000
0000
0000
0013
0000
0100
0000
,  // measure 38
0001
0000
1000
0001
1000
0000
0100
0000
0002
0000
0000
0000
0103
0000
0010
0000
,  // measure 39
0001
0000
1000
0001
0100
0000
0010
0000
0002
0000
0000
0000
0013
0000
1000
0000
,  // measure 40
1000
0000
0001
0010
0100
0000
1000
0000
0001
0100
0010
1000
0001
0000
0000
0000
,  // measure 41
1000
0000
0001
0010
0001
0000
0010
0000
2000
0000
0000
0000
3010
0000
0100
0000
,  // measure 42
1000
0000
0001
0100
0001
0000
0100
0000
2000
0000
0000
0000
3100
0000
0010
0000
,  // measure 43
1000
0000
0001
1000
0100
0000
0010
0000
2000
0000
0000
0000
3010
0000
0001
0000
,  // measure 44
1000
0000
1000
0000
0010
0000
0100
0000
0001
0010
0001
0010
0100
1000
0100
1000
,  // measure 45
0001
0000
0100
0000
1000
0000
0100
0000
0002
0000
0000
0000
1003
0000
0010
1000
,  // measure 46
0100
0001
1000
0010
0001
0000
0011
0000
,  // measure 47
1000
0000
0010
0000
0001
0000
0010
0000
2000
0000
0000
0000
3010
0000
0100
0001
,  // measure 48
0010
0000
0100
0000
1000
0000
0010
0000
0100
0001
1000
0001
0010
0000
0100
0000
,  // measure 49
1000
0000
0100
0000
0001
0000
0100
0000
2000
0000
0000
0000
3100
0000
0010
0001
,  // measure 50
0100
1000
0001
0010
1000
0000
1010
0000
,  // measure 51
0001
0000
0010
0000
1000
0000
0010
0000
0002
0000
0000
0000
0013
0000
0100
1000
,  // measure 52
0010
0000
0100
0000
0001
0000
0010
0000
0100
1000
0100
1000
0001
0100
0001
0100
,  // measure 53
0010
0000
0100
0000
1000
0000
0100
0000
0010
0000
0000
0100
0000
0000
0101
0000
,  // measure 54
0000
0000
1000
0000
1000
0000
0010
0000
0100
0001
1000
0001
0010
0000
0100
0000
,  // measure 55
0100
0000
0010
0000
1000
0000
0010
0000
0100
0000
0000
0010
0000
0000
0011
0000
,  // measure 56
0000
0000
1000
0000
1000
0000
0001
0000
0100
0010
0100
0010
1000
0001
1000
0001
,  // measure 57
0010
0000
0100
0000
0001
0000
0100
0000
0010
0000
0000
0100
0000
0000
1100
0000
,  // measure 58
0000
0000
0001
0000
0001
0000
0010
0000
0100
1000
0001
1000
0010
0000
0100
0000
,  // measure 59
0100
0000
0010
0000
0001
0000
0010
0000
0100
0000
0000
0010
0000
0000
1010
0000
,  // measure 60
0000
0000
0001
0000
0001
0000
0010
0000
0100
1000
0001
0100
0010
1000
0010
1000
,  // measure 61
0001
0000
0000
0000
0010
0000
0000
0000
0110
0000
0000
0110
0000
0000
1001
0000
;

//---------------dance-single - ----------------
#NOTEDATA:;
#CHARTNAME:;
#STEPSTYPE:dance-single;
#DESCRIPTION:;
#CHARTSTYLE:;
#DIFFICULTY:Hard;
#METER:13;
#RADARVALUES:0.561370,0.568756,0.195330,0.436621,0.109155,342.000000,325.000000,17.000000,38.000000,0.000000,0.000000,0.000000,0.000000,0.000000,0.561370,0.568756,0.195330,0.436621,0.109155,342.000000,325.000000,17.000000,38.000000,0.000000,0.000000,0.000000,0.000000,0.000000;
#CREDIT:;
#NOTES:
// measure 0
0000
0000
0000
0000
,  // measure 1
0000
0000
0000
0000
,  // measure 2
0000
0000
0000
0000
,  // measure 3
0000
0000
0000
0000
,  // measure 4
0001
0100
0020
0030
,  // measure 5
1000
0100
0020
0030
,  // measure 6
0001
1000
0020
0030
,  // measure 7
0100
0001
2000
3000
,  // measure 8
0001
0000
0000
0000
0010
0000
0000
0000
0200
0000
0000
0310
0000
0000
0100
0000
,  // measure 9
1000
0000
0000
0000
0010
0000
0000
0000
0200
0000
0000
0310
0000
0000
0100
0000
,  // measure 10
0001
0000
0000
0000
1000
0000
0000
0000
0200
0000
0000
0310
0000
0000
0001
0000
,  // measure 11
1000
0010
0100
0001
2000
0000
0000
0000
,  // measure 12
3000
0000
0000
0000
0001
0010
0100
1000
,  // measure 13
0002
0000
0000
0000
0010
0000
0000
0000
1003
0000
0000
0010
0000
0000
0100
0000
,  // measure 14
0000
0001
0010
0000
0100
1000
0010
0100
,  // measure 15
0002
0000
0000
0000
0100
0000
0000
0000
1003
0000
0000
0100
0000
0000
0010
0000
,  // measure 16
0000
0001
0001
0000
1000
0010
0100
0001
,  // measure 17
2000
0000
0000
0000
0010
0000
0000
0000
3001
0000
0000
0010
0000
0000
0100
0000
,  // measure 18
0000
1000
0010
0000
0100
0001
0010
0100
,  // measure 19
2000
0000
0000
0000
0100
0000
0000
0000
3001
0000
0000
0100
0000
0000
0010
0000
,  // measure 20
0000
1000
1000
0000
0001
0010
0100
1000
,  // measure 21
0001
0100
0001
0100
2000
3000
1000
0100
,  // measure 22
0002
0003
1000
0010
0100
0001
1000
0000
,  // measure 23
0001
0010
0100
0000
1000
0010
0100
0000
,  // measure 24
0001
0010
0001
1000
0020
0000
0030
0000
,  // measure 25
1000
0100
1000
0100
0002
0003
0001
0100
,  // measure 26
2000
0000
0000
0000
3000
0000
0000
0000
0001
0000
0000
0000
0010
0000
0000
0000
0100
0000
0000
0000
2000
3000
0000
0000
0001
0000
0000
0000
0100
0000
0000
0000
,  // measure 27
0020
0000
0230
0000
0310
1000
0100
1000
,  // measure 28
0002
0000
0003
0000
1000
0010
0100
0001
,  // measure 29
1001
0000
0000
0000
1001
0000
0000
0000
0001
0000
0000
0010
0000
0000
0100
0000
,  // measure 30
0000
0000
0010
0000
0010
0000
0000
0000
0100
0000
0000
0010
0000
0000
0001
0000
,  // measure 31
1001
0000
0000
0000
0101
0000
0000
0000
0100
0000
0000
0001
0000
0000
0010
0000
,  // measure 32
0000
0000
0100
0000
0100
0000
0000
0000
1000
0000
0001
1000
0000
0000
0001
0000
,  // measure 33
1001
0000
0000
0000
1001
0000
0000
0000
1000
0000
0000
0010
0000
0000
0100
0000
,  // measure 34
0000
0000
0010
0000
0010
0000
0000
0000
0100
0000
0000
0010
0000
0000
1000
0000
,  // measure 35
1001
0000
0000
0000
1100
0000
0000
0000
0100
0000
0000
1000
0000
0000
0010
0000
,  // measure 36
0000
0100
0002
0000
0013
0100
1000
0000
,  // measure 37
0001
0100
0001
0100
2000
0000
3100
0001
,  // measure 38
1000
0100
0010
0100
0002
0000
0103
1000
,  // measure 39
0010
1000
0100
0010
2000
0000
3010
0001
,  // measure 40
1000
0001
0100
0010
1000
0000
1001
0000
,  // measure 41
1000
0100
1000
0100
0002
0000
0103
1000
,  // measure 42
0001
0100
0010
0100
2000
0000
3100
0001
,  // measure 43
0010
0001
0100
0010
0002
0000
0013
1000
,  // measure 44
0001
1000
0100
0010
0001
0000
1001
0000
,  // measure 45
0001
0100
0001
0100
2000
0000
3001
0010
,  // measure 46
1000
0100
0001
0100
1000
0000
1001
0000
,  // measure 47
1000
0010
1000
0010
0002
0000
1003
0100
,  // measure 48
0001
0010
0100
1000
0000
2200
0000
3300
,  // measure 49
1000
0100
1000
0100
0002
0000
1003
0010
,  // measure 50
0001
0100
1000
0100
0001
0000
1001
0000
,  // measure 51
0001
0010
0001
0010
2000
0000
3001
0100
,  // measure 52
1000
0010
0100
0001
1000
0100
0010
0000
,  // measure 53
0210
0000
0000
0000
0001
0000
0000
0000
1300
0000
0000
0010
0000
0000
0100
0000
,  // measure 54
0000
0001
1000
0000
0100
0010
0001
1000
,  // measure 55
0020
0000
0000
0000
0001
0000
0000
0000
1030
0000
0000
0100
0000
0000
0010
0000
,  // measure 56
0000
0001
0001
0000
0010
0001
1000
0001
,  // measure 57
0200
0000
0000
0000
1000
0000
0000
0000
0301
0000
0000
0010
0000
0000
0100
0000
,  // measure 58
0000
1000
0001
0000
0100
0010
1000
0001
,  // measure 59
0020
0000
0000
0000
1000
0000
0000
0000
0031
0000
0000
0100
0000
0000
0010
0000
,  // measure 60
0000
1000
1000
0000
0001
0010
1000
0001
,  // measure 61
0100
0000
0000
0000
1000
0000
0000
0000
0110
0000
0000
0110
0000
0000
1001
0000
;

//---------------dance-single - ----------------
#NOTEDATA:;
#CHARTNAME:;
#STEPSTYPE:dance-single;
#DESCRIPTION:;
#CHARTSTYLE:;
#DIFFICULTY:Medium;
#METER:10;
#RADARVALUES:0.454677,0.497662,0.103410,0.620461,0.051705,277.000000,268.000000,9.000000,54.000000,0.000000,0.000000,0.000000,0.000000,0.000000,0.454677,0.497662,0.103410,0.620461,0.051705,277.000000,268.000000,9.000000,54.000000,0.000000,0.000000,0.000000,0.000000,0.000000;
#CREDIT:;
#NOTES:
// measure 0
0000
0000
0000
0000
,  // measure 1
0000
0000
0000
0000
,  // measure 2
0000
0000
0000
0000
,  // measure 3
0000
0000
0000
0000
,  // measure 4
1000
0100
0020
0030
,  // measure 5
0001
0100
0020
0030
,  // measure 6
1000
0001
0020
0030
,  // measure 7
0100
1000
0002
0003
,  // measure 8
1000
0000
0010
0000
0200
0000
0301
1000
,  // measure 9
0001
0000
0010
0000
0200
0000
1300
0001
,  // measure 10
1000
0000
0001
0000
0200
0000
0310
1000
,  // measure 11
0001
1000
2002
0000
,  // measure 12
3003
0000
0000
0000
0001
1000
0001
0000
,  // measure 13
1000
0000
0000
0000
0100
0000
0000
0000
0010
0000
0000
0001
0000
0000
1000
0000
,  // measure 14
0000
0001
0100
0000
0010
0100
0010
0000
,  // measure 15
1000
0000
0000
0000
0010
0000
0000
0000
0100
0000
0000
0001
0000
0000
1000
0000
,  // measure 16
0000
0001
0010
0000
0010
0100
1000
0000
,  // measure 17
0001
0000
0000
0000
0100
0000
0000
0000
0010
0000
0000
1000
0000
0000
0001
0000
,  // measure 18
0000
1000
0100
0000
0010
0100
0010
0000
,  // measure 19
0001
0000
0000
0000
0010
0000
0000
0000
0100
0000
0000
1000
0000
0000
0001
0000
,  // measure 20
0000
1000
0010
0000
0010
0100
0001
0000
,  // measure 21
2000
0010
3001
0000
,  // measure 22
1000
0100
0010
0001
,  // measure 23
2000
0100
3002
0100
,  // measure 24
1003
0001
1000
0000
0002
0000
0003
0000
,  // measure 25
0002
0010
1003
0000
,  // measure 26
0001
0100
0010
1000
,  // measure 27
0001
0000
0001
0000
0010
0100
1000
0000
,  // measure 28
2000
0000
3000
0000
0010
0100
0001
0000
,  // measure 29
2002
0000
3003
1000
0200
0000
0010
0000
,  // measure 30
0001
0000
0000
0310
0200
0000
0010
0000
,  // measure 31
2300
0000
0000
3001
0200
0000
0320
0000
,  // measure 32
0030
1000
0200
0000
0310
0001
1000
0000
,  // measure 33
2002
0000
3003
0001
0200
0000
0010
0000
,  // measure 34
1000
0000
0000
0310
0200
0000
0010
0000
,  // measure 35
0302
2003
3200
0320
,  // measure 36
0032
1000
1003
0000
2002
0000
3003
0000
,  // measure 37
1000
0010
2000
0000
0010
0000
3100
0000
,  // measure 38
0010
0001
2000
0000
0001
0000
3010
0000
,  // measure 39
0100
0010
0200
0000
1000
0000
0310
0000
,  // measure 40
1000
0010
0100
0001
2000
0000
3000
0000
,  // measure 41
0001
0010
0002
0000
0010
0000
0103
0000
,  // measure 42
0010
1000
0002
0000
1000
0000
0013
0000
,  // measure 43
0100
0010
0200
0000
0001
0000
0310
0000
,  // measure 44
0001
0010
0100
1000
0002
0000
0003
0000
,  // measure 45
0001
0100
0001
0100
0020
0000
1030
0010
,  // measure 46
1000
0000
0010
1000
0100
0000
0110
0000
,  // measure 47
0001
0010
0001
0010
0200
0000
1300
0001
,  // measure 48
0100
0000
0010
1000
0000
2002
0000
3003
,  // measure 49
1000
0100
1000
0100
0020
0000
0031
0010
,  // measure 50
0001
0000
0010
0001
0100
0000
0110
0000
,  // measure 51
1000
0010
1000
0010
0200
0000
0301
1000
,  // measure 52
0100
0000
0010
0001
0000
2002
0000
3003
,  // measure 53
0002
0000
0000
0000
0010
0000
0000
0000
1003
0000
0000
0010
0000
0000
0100
0000
,  // measure 54
0000
0100
0001
0000
0010
0100
1000
0000
,  // measure 55
0002
0000
0000
0000
1000
0000
0000
0000
0103
0000
0000
0010
0000
0000
1000
0000
,  // measure 56
0000
0001
0010
0000
0100
1000
0001
0000
,  // measure 57
2000
0000
0000
0000
0010
0000
0000
0000
3001
0000
0000
0010
0000
0000
0100
0000
,  // measure 58
0000
0100
1000
0000
0001
0100
0010
0000
,  // measure 59
2000
0000
0000
0000
0001
0000
0000
0000
3100
0000
0000
0010
0000
0000
0001
0000
,  // measure 60
0000
1000
0010
0000
0100
0001
1000
0001
,  // measure 61
0010
0000
0000
0000
0000
0000
0000
0000
0100
0000
0000
0010
0000
0000
1001
0000
;

//---------------dance-single - ----------------
#NOTEDATA:;
#CHARTNAME:;
#STEPSTYPE:dance-single;
#DESCRIPTION:;
#CHARTSTYLE:;
#DIFFICULTY:Easy;
#METER:7;
#RADARVALUES:0.374247,0.391020,0.137880,0.413641,0.000000,228.000000,216.000000,12.000000,36.000000,0.000000,0.000000,0.000000,0.000000,0.000000,0.374247,0.391020,0.137880,0.413641,0.000000,228.000000,216.000000,12.000000,36.000000,0.000000,0.000000,0.000000,0.000000,0.000000;
#CREDIT:;
#NOTES:
// measure 0
0000
0000
0000
0000
,  // measure 1
0000
0000
0000
0000
,  // measure 2
0000
0000
0000
0000
,  // measure 3
0000
0000
0000
0000
,  // measure 4
0001
0100
0020
0030
,  // measure 5
1000
0100
0020
0030
,  // measure 6
0001
1000
0020
0030
,  // measure 7
0100
0001
2000
3000
,  // measure 8
0001
0010
0200
1300
,  // measure 9
1000
0010
0200
0301
,  // measure 10
0001
1000
0200
0310
,  // measure 11
0001
1000
2002
0000
,  // measure 12
3003
0000
0000
0000
0001
1000
0001
0000
,  // measure 13
1000
0010
0100
0010
,  // measure 14
1000
0000
0000
0000
0010
1000
0010
0000
,  // measure 15
1000
0100
0010
0100
,  // measure 16
1000
0000
0000
0000
1000
0001
1000
0000
,  // measure 17
0001
0010
0100
0010
,  // measure 18
0001
0000
0000
0000
0010
0001
0010
0000
,  // measure 19
0001
0100
0010
0100
,  // measure 20
0001
0000
0000
0000
0001
1000
0001
0000
,  // measure 21
1000
0100
0020
0030
,  // measure 22
0100
0010
0001
1000
,  // measure 23
0001
0001
0100
0100
,  // measure 24
0010
1000
0002
0003
,  // measure 25
0001
0100
0020
0030
,  // measure 26
0100
0010
1000
0000
,  // measure 27
0001
0001
1000
1000
,  // measure 28
0200
0000
0300
0000
,  // measure 29
1002
0000
0000
0103
0010
0000
0100
0000
,  // measure 30
0002
0000
0000
0013
0100
0000
0010
0000
,  // measure 31
0002
0000
0000
0103
0010
0000
1000
0000
,  // measure 32
0000
2000
0000
0000
3000
0000
0000
0000
,  // measure 33
2001
0000
0000
3100
0010
0000
0100
0000
,  // measure 34
2000
0000
0000
3010
0100
0000
0010
0000
,  // measure 35
2000
3002
0023
0230
,  // measure 36
2300
0000
3001
1001
,  // measure 37
1000
0010
0001
0010
,  // measure 38
1000
0100
0001
0100
,  // measure 39
1000
1000
0001
0100
,  // measure 40
0010
1000
0010
0000
2002
0000
3003
0000
,  // measure 41
0001
0010
1000
0010
,  // measure 42
0001
0100
1000
0100
,  // measure 43
0001
0001
1000
0100
,  // measure 44
0010
0001
0010
0000
2002
0000
3003
0000
,  // measure 45
0002
0100
1003
0100
,  // measure 46
0010
0100
0010
0000
0001
0000
0011
0000
,  // measure 47
0002
0010
1003
0010
,  // measure 48
0100
0000
0001
1000
0000
2002
0000
3003
,  // measure 49
2000
0100
3001
0100
,  // measure 50
0010
0100
0010
0000
1000
0000
1010
0000
,  // measure 51
2000
0010
3001
0010
,  // measure 52
0100
0000
1000
0001
0000
2002
0000
3003
,  // measure 53
1000
0010
0001
0010
,  // measure 54
1000
0000
0000
0000
0010
1000
0010
0000
,  // measure 55
1000
0100
0001
0100
,  // measure 56
1000
0000
0000
0000
1000
0001
1000
0000
,  // measure 57
0001
0010
1000
0010
,  // measure 58
0001
0000
0000
0000
0010
0001
0010
0000
,  // measure 59
0001
0100
1000
0100
,  // measure 60
0001
0000
0000
0000
1001
0000
0001
1000
,  // measure 61
0100
0000
0000
0000
0010
0000
0000
1001
;

//---------------dance-single - ----------------
#NOTEDATA:;
#CHARTNAME:;
#STEPSTYPE:dance-single;
#DESCRIPTION:;
#CHARTSTYLE:;
#DIFFICULTY:Beginner;
#METER:3;
#RADARVALUES:0.180558,0.248831,0.011490,0.160860,0.000000,110.000000,109.000000,1.000000,14.000000,0.000000,0.000000,0.000000,0.000000,0.000000,0.180558,0.248831,0.011490,0.160860,0.000000,110.000000,109.000000,1.000000,14.000000,0.000000,0.000000,0.000000,0.000000,0.000000;
#CREDIT:;
#NOTES:
// measure 0
0000
0000
0000
0000
,  // measure 1
0000
0000
0000
0000
,  // measure 2
0000
0000
0000
0000
,  // measure 3
0000
0000
0000
0000
,  // measure 4
0002
0000
0003
0000
,  // measure 5
0200
0000
0300
0000
,  // measure 6
0020
0000
0030
0000
,  // measure 7
2000
0000
3000
0000
,  // measure 8
0001
0000
0001
0000
,  // measure 9
1000
0000
1000
0000
,  // measure 10
0100
0000
0100
0000
,  // measure 11
0010
0000
0002
0000
,  // measure 12
0003
0000
0000
0000
,  // measure 13
1000
0000
0010
0000
,  // measure 14
0100
0000
0100
0000
,  // measure 15
0001
0000
0010
0000
,  // measure 16
0100
0000
0100
0000
,  // measure 17
1000
0000
0001
0000
,  // measure 18
0100
0000
0100
0000
,  // measure 19
0010
0000
1000
0000
,  // measure 20
0001
0000
0001
0000
,  // measure 21
0020
0000
0030
0000
,  // measure 22
0002
0000
0003
0000
,  // measure 23
1000
0000
1000
0000
,  // measure 24
0001
0000
0100
0000
,  // measure 25
0020
0000
0030
0000
,  // measure 26
2000
0000
3000
0000
,  // measure 27
0001
0000
1000
0000
,  // measure 28
0200
0000
0300
0000
,  // measure 29
1000
0000
1000
0000
,  // measure 30
0010
0000
0010
0000
,  // measure 31
1000
0000
0100
0000
,  // measure 32
0020
0000
0030
0000
,  // measure 33
0001
0000
0001
0000
,  // measure 34
0010
0000
0010
0000
,  // measure 35
0001
0000
0100
0000
,  // measure 36
0020
0000
0030
0000
,  // measure 37
1000
0000
0010
0000
,  // measure 38
0100
0000
0001
0000
,  // measure 39
0010
0000
0100
0000
,  // measure 40
1000
1000
1000
0000
,  // measure 41
0001
0000
0010
0000
,  // measure 42
0100
0000
1000
0000
,  // measure 43
0010
0000
0100
0000
,  // measure 44
0001
0001
0001
0000
,  // measure 45
1000
1000
1000
0000
,  // measure 46
0010
0000
0010
0000
,  // measure 47
1000
1000
1000
0000
,  // measure 48
0100
0000
1000
0000
,  // measure 49
0001
0001
0001
0000
,  // measure 50
0100
0000
0100
0000
,  // measure 51
0001
0001
0001
0000
,  // measure 52
0010
0000
0001
0000
,  // measure 53
0100
0000
0010
0000
,  // measure 54
1000
0000
1000
0000
,  // measure 55
0100
0000
0010
0000
,  // measure 56
0001
0000
0001
0000
,  // measure 57
1000
0000
0010
0000
,  // measure 58
0100
0000
0100
0000
,  // measure 59
0001
0000
0010
0000
,  // measure 60
0100
0000
0100
0100
,  // measure 61
0000
0000
0000
0000
2002
0000
0000
3003
;
