#VERSION:0.83;
#TITLE:ハオ;
#SUBTITLE:;
#ARTIST:DECO*27 ft. 初音ミク;
#TITLETRANSLIT:HAO;
#SUBTITLETRANSLIT:;
#ARTISTTRANSLIT:DECO*27 ft. Hatsune Miku;
#GENRE:Vocaloid Rock;
#ORIGIN:;
#CREDIT:;
#BANNER:HAO.png;
#BACKGROUND:HAO-bg.png;
#PREVIEWVID:;
#JACKET:HAO-jacket.png;
#CDIMAGE:;
#DISCIMAGE:;
#LYRICSPATH:;
#CDTITLE:cdtitle.png;
#MUSIC:HAO.ogg;
#OFFSET:-1.735620;
#SAMPLESTART:38.553799;
#SAMPLELENGTH:10.909092;
#SELECTABLE:YES;
#BPMS:0.000=176.000;
#STOPS:;
#DELAYS:;
#WARPS:;
#TIMESIGNATURES:0.000=4=4;
#TICKCOUNTS:0.000=4;
#COMBOS:0.000=1;
#SPEEDS:0.000=1.000=0.000=0;
#SCROLLS:0.000=1.000;
#FAKES:;
#LABELS:0.000=Song Start;
#BGCHANGES:-6.250=HAO.mp4=1.000=1=0=1===CrossFade==,
99999=-nosongbg-=1.000=0=0=0 // don't automatically add -songbackground-
;
#KEYSOUNDS:;
#ATTACKS:
;

//---------------dance-single - ----------------
#NOTEDATA:;
#CHARTNAME:;
#STEPSTYPE:dance-single;
#DESCRIPTION:;
#CHARTSTYLE:;
#DIFFICULTY:Challenge;
#METER:13;
#RADARVALUES:0.636751,0.665586,0.551597,0.400352,0.066725,501.000000,439.000000,62.000000,45.000000,4.000000,0.000000,0.000000,0.000000,0.000000,0.636751,0.665586,0.551597,0.400352,0.066725,501.000000,439.000000,62.000000,45.000000,4.000000,0.000000,0.000000,0.000000,0.000000;
#CREDIT:;
#OFFSET:-1.735620;
#BPMS:0.000000=176.000000
;
#STOPS:;
#DELAYS:;
#WARPS:;
#TIMESIGNATURES:0.000000=4=4
;
#TICKCOUNTS:0.000000=4
;
#COMBOS:0.000000=1
;
#SPEEDS:0.000000=1.000000=0.000000=0
;
#SCROLLS:0.000000=1.000000
,103.500000=0.000000
,105.000000=1.000000
,207.500000=0.000000
,209.000000=1.000000
,308.000000=0.000000
,311.000000=1.000000
;
#FAKES:;
#LABELS:0.000000=Song Start
;
#NOTES:
0000
0000
0000
0000
,
0000
0000
0000
0000
,
0000
0000
0000
0000
,
0001
0010
0100
1000
0001
0010
0100
0001
,
0000
0100
0010
0001
0011
0000
1001
0000
,
1000
0010
0100
0001
1000
0010
0100
1000
,
0000
0100
0010
1000
1010
0000
1001
0000
,
1000
0100
0010
0001
1000
0100
0010
1000
,
0000
0010
0100
1000
1100
0000
1001
0000
,
1000
0010
0100
0010
0001
0010
0100
0010
,
1010
0000
1001
0000
0011
1000
1000
0000
,
0001
0100
0010
0100
0002
0000
1000
1000
,
0000
0013
0100
0010
0001
0000
0011
0000
,
1001
0000
0000
0001
0001
0000
0100
0100
,
0000
0010
1000
0100
0000
0010
0001
0000
,
1000
0100
0010
0100
2000
0000
0001
0001
,
0000
3010
0100
0010
1000
0000
1010
0000
,
1001
0000
0000
1000
1000
0000
0100
0100
,
0000
0000
0010
0000
0001
0000
1000
0000
0000
0000
0001
1000
0001
0000
1000
0001
,
2000
0000
0000
0010
0000
0000
0001
0000
0001
0000
0000
0000
3100
0000
0010
0000
,
0002
0000
0000
0010
0000
0000
1000
0000
1003
0000
0000
0000
1010
0000
0000
0000
,
0000
0000
0001
0100
0001
0000
0100
0000
1000
0000
0100
0000
0001
0000
1000
0000
,
0001
0000
1000
0100
1000
0000
0100
0000
0001
0000
0100
0000
1000
0000
0000
0000
,
1002
0000
0000
0010
0000
0000
1000
0000
1000
0000
0000
0000
0103
0000
0010
0000
,
2000
0000
0000
0010
0000
0000
0001
0000
3001
0000
0000
0000
0011
0000
0000
0000
,
1000
0000
0001
0000
1000
0010
0100
0001
,
0000
0000
0000
0000
0000
0000
0000
0000
2002
0000
3003
0000
0001
0000
1000
0001
,
1000
0100
0010
0100
0001
0100
0010
0100
,
1000
1000
0000
1001
0000
0001
0001
0100
,
0010
0100
0010
0002
0000
0013
0100
0010
,
2010
3010
0012
0013
,
0001
0100
0010
0100
1000
0100
0010
0100
,
0001
0001
0000
1001
0000
1000
1000
0100
,
0010
0100
0010
2000
0000
3010
0100
0010
,
0011
0000
1010
0000
0011
0000
1000
0001
,
0200
0000
0010
0320
0000
1000
1030
0000
,
2020
0000
3030
0000
0001
0000
0001
1000
,
0200
0000
0010
0320
0000
0001
0031
0000
,
0022
0000
0000
0000
0033
0000
0000
0000
1000
0001
1000
0001
1000
0000
0000
0000
,
1002
0000
0103
0000
2001
0000
3100
1000
,
0000
0001
0100
0010
1000
0000
0100
0010
,
0012
0000
0000
1000
2003
0000
0000
0010
,
3020
0000
0000
0100
0230
0000
0000
0001
,
0002
0000
0000
0300
,
0003
0000
0000
0000
,
1000
0000
1000
0000
1000
0000
0001
0010
,
0100
1000
0000
1100
0000
0001
0001
0000
,
0100
0000
0100
0000
0100
0000
0010
0100
,
0001
1000
0100
0010
0001
0010
0100
1000
,
0001
0000
0001
0000
0001
0000
1000
0010
,
0100
0001
0000
0101
0000
1000
1000
0000
,
0001
1000
0001
0020
0000
0100
0130
0110
,
0000
0000
0000
0000
0000
0000
0000
0000
2002
0000
3003
0000
1000
0000
0001
1000
,
0001
0100
1000
0100
0010
0100
1000
0100
,
0001
0001
0000
1001
0000
1000
1000
0001
,
0010
0001
0010
2000
0000
3010
0100
0010
,
0012
0013
2010
3001
,
1000
0100
0001
0100
0010
0100
0001
0100
,
1000
1000
0000
1001
0000
0001
0001
1000
,
0010
1000
0010
0002
0000
0013
0100
0010
,
1010
0011
1010
0001
,
1002
0000
0010
2003
0000
0010
3002
0000
,
0010
2003
0000
0010
3001
0000
1001
0000
,
1002
0000
0010
2003
0000
3001
0100
0010
,
2010
0000
3001
0000
0012
0000
1003
0001
,
1000
0010
0001
0010
0100
0010
0001
0010
,
1000
1000
0000
1001
0000
0001
0001
1000
,
0100
1000
0100
0002
0000
0103
0010
0100
,
1100
0000
0000
0000
0101
0000
0000
0000
1001
0000
1000
0001
1000
0000
0000
0000
,
0001
0100
0010
0100
1000
0100
0010
0010
,
0010
0100
1000
0100
0101
0000
1010
0000
,
0001
0000
1000
0100
0010
0000
0100
0000
0001
0000
0100
0000
0010
0000
0010
0000
,
0010
0100
0001
0100
1100
0000
0011
0000
,
0001
0000
1000
0010
0100
0000
0010
0000
0001
0000
0010
0000
0100
0000
0100
0000
,
0100
0010
0001
0010
1010
0000
0101
0000
,
0001
0010
1000
0010
0001
0100
1000
0100
,
0101
1100
0101
2002
,
3003
0000
0000
0000
,
0011
1010
0011
MMMM
;

//---------------dance-single - ----------------
#NOTEDATA:;
#CHARTNAME:;
#STEPSTYPE:dance-single;
#DESCRIPTION:;
#CHARTSTYLE:;
#DIFFICULTY:Hard;
#METER:11;
#RADARVALUES:0.536345,0.525462,0.462629,0.346972,0.017793,422.000000,370.000000,52.000000,39.000000,4.000000,0.000000,0.000000,0.000000,0.000000,0.536345,0.525462,0.462629,0.346972,0.017793,422.000000,370.000000,52.000000,39.000000,4.000000,0.000000,0.000000,0.000000,0.000000;
#CREDIT:;
#OFFSET:-1.735620;
#BPMS:0.000000=176.000000
;
#STOPS:;
#DELAYS:;
#WARPS:;
#TIMESIGNATURES:0.000000=4=4
;
#TICKCOUNTS:0.000000=4
;
#COMBOS:0.000000=1
;
#SPEEDS:0.000000=1.000000=0.000000=0
;
#SCROLLS:0.000000=1.000000
,103.500000=0.000000
,105.000000=1.000000
,207.500000=0.000000
,209.000000=1.000000
,308.000000=0.000000
,311.000000=1.000000
;
#FAKES:;
#LABELS:0.000000=Song Start
;
#NOTES:
// measure 0
0000
0000
0000
0000
,  // measure 1
0000
0000
0000
0000
,  // measure 2
0000
0000
0000
0000
,  // measure 3
1000
0000
0100
0000
0010
0000
0100
0001
,  // measure 4
0000
0100
0010
0100
1000
0000
1001
0000
,  // measure 5
0001
0000
0100
0000
0010
0000
0100
1000
,  // measure 6
0000
0100
0010
0100
0001
0000
1001
0000
,  // measure 7
0001
0000
0010
0000
0100
0000
0010
1000
,  // measure 8
0000
0010
0100
0010
0001
0000
1001
0000
,  // measure 9
1000
0010
0100
0000
0001
0010
0100
0000
,  // measure 10
0011
1001
1010
0000
,  // measure 11
0001
0100
0001
0000
1000
0000
0001
0010
,  // measure 12
0000
0001
0010
0001
1000
0000
0001
0000
,  // measure 13
0101
0000
0000
1000
0100
0000
0010
0001
,  // measure 14
0000
0100
0010
1000
0000
0000
1001
0000
,  // measure 15
1000
0100
1000
0000
0001
0000
1000
0010
,  // measure 16
0000
1000
0010
1000
0001
0000
1000
0000
,  // measure 17
1100
0000
0000
0001
0100
0000
0010
1000
,  // measure 18
0000
0100
0010
0001
0000
1001
0000
0001
,  // measure 19
0100
0000
0000
0001
0000
0000
0100
0000
0010
0000
0000
0000
1010
0000
0000
0000
,  // measure 20
0001
0000
0000
0010
0000
0000
0001
0000
0010
0000
0000
0000
1100
0000
0000
0000
,  // measure 21
0000
0001
0001
0000
0100
0010
1000
0000
,  // measure 22
0010
0100
0010
0100
0001
0000
1000
0000
,  // measure 23
0100
0000
0000
1000
0000
0000
0100
0000
0010
0000
0000
0000
0011
0000
0000
0000
,  // measure 24
1000
0000
0000
0010
0000
0000
1000
0000
0010
0000
0000
0000
0101
0000
0000
0000
,  // measure 25
1000
0000
0001
0000
1000
0100
0010
0001
,  // measure 26
0000
0000
0000
0000
1000
0001
0100
0010
,  // measure 27
1000
0000
0101
0000
1010
0000
0001
0010
,  // measure 28
0100
0020
0000
1030
0000
0010
0001
0000
,  // measure 29
1000
0010
1000
0020
0000
0130
0010
1000
,  // measure 30
0100
0012
0103
2010
,  // measure 31
3001
0000
1100
0000
0011
0000
1000
0010
,  // measure 32
0100
0020
0000
0031
0000
0010
1000
0000
,  // measure 33
0001
0010
0001
0020
0000
0130
0010
0001
,  // measure 34
0100
0000
0110
0000
1001
0000
0000
1000
,  // measure 35
0100
0000
1000
0100
0000
0010
0001
0000
,  // measure 36
0022
0000
0033
0000
1000
0000
1000
0001
,  // measure 37
0100
0000
0001
0100
0000
0010
1000
0000
,  // measure 38
2020
0000
3030
0000
0001
1000
0001
0000
,  // measure 39
1002
0000
0013
0000
2001
0000
3010
1000
,  // measure 40
0000
0001
0010
0001
0010
0000
0100
0010
,  // measure 41
0002
0000
0000
1000
2003
0000
0000
0010
,  // measure 42
3020
0000
0000
0100
0230
0000
0000
0001
,  // measure 43
0002
0000
0000
0300
,  // measure 44
0003
0000
0000
0000
,  // measure 45
1000
0000
1000
0000
1000
0000
0001
0010
,  // measure 46
0100
2000
0000
3001
0000
0000
0101
0000
,  // measure 47
1000
0000
1000
0000
1000
0000
0010
1000
,  // measure 48
0001
1000
0100
0000
0010
0001
1000
0000
,  // measure 49
0001
0000
0001
0000
0001
0000
1000
0010
,  // measure 50
0100
0002
0000
1003
0000
0000
1100
0000
,  // measure 51
0001
0010
0001
0020
0000
0130
1000
0010
,  // measure 52
0000
0000
0000
0000
1000
0010
0100
0001
,  // measure 53
0010
0000
1100
0000
0011
0000
1000
0010
,  // measure 54
0001
0020
0000
0031
0000
0010
1000
0000
,  // measure 55
0001
1000
0001
0020
0000
0130
0010
0001
,  // measure 56
0100
2010
3100
0012
,  // measure 57
1003
0000
0101
0000
1010
0000
0001
0010
,  // measure 58
1000
0020
0000
1030
0000
0010
0001
0000
,  // measure 59
1000
0001
1000
0020
0000
0130
0010
1000
,  // measure 60
0100
0110
1001
2000
,  // measure 61
3020
0000
0100
0230
0000
0001
0302
0000
,  // measure 62
1000
2003
0000
0100
3100
0000
0011
0000
,  // measure 63
2100
0000
0001
3002
0000
1003
0010
0100
,  // measure 64
0001
0012
1003
2010
,  // measure 65
3001
0000
0011
0000
1100
0000
0001
0100
,  // measure 66
1000
0200
0000
1300
0000
0100
0001
0000
,  // measure 67
1000
0001
1000
0200
0000
0310
0100
1000
,  // measure 68
0010
0110
1001
0000
,  // measure 69
1000
0000
0100
0000
0010
0100
0010
1000
,  // measure 70
0000
0010
1000
0010
0001
0000
0011
0000
,  // measure 71
0001
0000
0100
0000
0010
0100
0010
0001
,  // measure 72
0000
0010
0001
0010
1000
0000
1010
0000
,  // measure 73
0001
0000
0010
0000
0100
0010
0100
0001
,  // measure 74
0000
0100
0001
0100
1000
0000
1100
0000
,  // measure 75
0001
0100
1000
0100
0002
0000
0103
0001
,  // measure 76
0010
0110
1001
0020
,  // measure 77
0030
0000
0000
0000
,  // measure 78
1001
0110
1001
MMMM
;

//---------------dance-single - ----------------
#NOTEDATA:;
#CHARTNAME:;
#STEPSTYPE:dance-single;
#DESCRIPTION:;
#CHARTSTYLE:;
#DIFFICULTY:Medium;
#METER:7;
#RADARVALUES:0.416875,0.490432,0.435939,0.160141,0.000000,328.000000,279.000000,49.000000,18.000000,4.000000,0.000000,0.000000,0.000000,0.000000,0.416875,0.490432,0.435939,0.160141,0.000000,328.000000,279.000000,49.000000,18.000000,4.000000,0.000000,0.000000,0.000000,0.000000;
#CREDIT:;
#OFFSET:-1.735620;
#BPMS:0.000000=176.000000
;
#STOPS:;
#DELAYS:;
#WARPS:;
#TIMESIGNATURES:0.000000=4=4
;
#TICKCOUNTS:0.000000=4
;
#COMBOS:0.000000=1
;
#SPEEDS:0.000000=1.000000=0.000000=0
;
#SCROLLS:0.000000=1.000000
,103.500000=0.000000
,105.000000=1.000000
,207.500000=0.000000
,209.000000=1.000000
,308.000000=0.000000
,311.000000=1.000000
;
#FAKES:;
#LABELS:0.000000=Song Start
;
#NOTES:
0000
0000
0000
0000
,
0000
0000
0000
0000
,
0000
0000
0000
0000
,
1000
0100
0010
0001
,
1000
0100
0011
1001
,
0001
0100
0010
1000
,
0001
0100
1010
1001
,
0001
0010
0100
1000
,
0001
0010
1100
1001
,
1000
0010
0001
0010
,
1010
0101
1010
0000
,
0001
0001
0010
0001
,
1000
1000
0010
1000
,
0100
0000
0000
0000
0100
0000
0000
0010
,
0000
0001
0000
1000
0000
0000
0001
0000
,
1000
1000
0010
1000
,
0001
0001
0010
0001
,
0100
0000
0000
0000
0100
0000
0000
0010
,
0000
1000
0000
0001
0000
0000
1001
0000
,
0001
0010
2000
3000
,
1000
0010
0001
0001
,
0000
0001
0100
0000
0001
0000
0001
0000
,
1000
0100
1000
0000
0001
0000
0001
0000
,
1000
0010
0002
0003
,
0001
0010
1000
1000
,
0001
0000
1000
0000
0100
0000
0000
0110
,
0000
0000
2002
3003
,
1000
0010
0001
0010
,
1000
0010
0000
1001
0000
0000
1000
0001
,
1000
0100
0010
0001
,
1000
1010
1000
1010
,
0001
0010
1000
0010
,
0001
0010
0000
1001
0000
0000
0001
1000
,
0001
0100
0010
1000
,
1100
0011
1100
0000
,
0001
0100
0010
1000
,
2020
3030
0001
0001
,
1000
0100
0010
0001
,
0022
0033
1000
1000
,
0001
0000
0100
0010
1000
0000
0001
0000
,
1000
0000
0100
0010
0001
0000
0010
0000
,
0012
0000
2003
0000
,
3020
0000
0230
0000
,
0002
0000
0000
0300
,
0003
0000
0000
0000
,
0001
0001
0001
0010
,
0100
0010
0000
0100
0000
0000
0000
0000
,
0010
0010
0010
0001
,
2000
0010
3002
0010
,
1003
1000
1000
0010
,
0100
0010
0000
0100
0000
0000
0000
0000
,
0001
0000
1000
0000
0100
0000
0000
0110
,
0000
0000
2002
3003
,
0001
0010
1000
0001
,
0100
1000
0000
1001
0000
0000
0001
1000
,
0001
0100
0010
1000
,
0001
0011
0001
0011
,
1000
0010
0001
1000
,
0100
0001
0000
1001
0000
0000
1000
0001
,
1000
0100
0010
0001
,
0101
1010
0101
0000
,
0001
0010
1000
0100
,
0001
1000
0001
0001
,
1000
0010
0001
0100
,
1000
1010
0001
0011
,
1000
0100
0001
1000
,
0010
0001
0000
1001
0000
0000
0001
1000
,
0001
0100
0010
1000
,
1001
0110
1001
0000
,
1000
0000
0100
0000
0010
0000
0001
1000
,
0001
0100
1010
0011
,
0001
0000
0100
0000
0010
0000
1000
0001
,
1000
0100
0011
1010
,
0001
0000
0010
0000
0100
0000
1000
0001
,
1000
0010
0101
1100
,
1000
0010
0001
0010
,
1001
0110
1001
0020
,
0030
0000
0000
0000
,
1001
0110
1001
MMMM
;

//---------------dance-single - ----------------
#NOTEDATA:;
#CHARTNAME:;
#STEPSTYPE:dance-single;
#DESCRIPTION:;
#CHARTSTYLE:;
#DIFFICULTY:Easy;
#METER:5;
#RADARVALUES:0.284695,0.314277,0.115657,0.195728,0.000000,224.000000,211.000000,13.000000,22.000000,0.000000,0.000000,0.000000,0.000000,0.000000,0.284695,0.314277,0.115657,0.195728,0.000000,224.000000,211.000000,13.000000,22.000000,0.000000,0.000000,0.000000,0.000000,0.000000;
#CREDIT:;
#OFFSET:-1.735620;
#BPMS:0.000000=176.000000
;
#STOPS:;
#DELAYS:;
#WARPS:;
#TIMESIGNATURES:0.000000=4=4
;
#TICKCOUNTS:0.000000=4
;
#COMBOS:0.000000=1
;
#SPEEDS:0.000000=1.000000=0.000000=0
;
#SCROLLS:0.000000=1.000000
,308.000000=0.000000
,311.000000=1.000000
;
#FAKES:;
#LABELS:0.000000=Song Start
;
#NOTES:
0000
0000
0000
0000
,
0000
0000
0000
0000
,
0000
0000
0000
0000
,
1000
1000
0100
0000
,
0010
0000
0001
1000
,
0001
0001
0100
0000
,
0010
0000
1000
0001
,
1000
1000
0100
0000
,
0010
0000
0001
1000
,
0001
0001
0100
0000
,
0010
0010
0010
0000
,
0100
0001
1000
0000
,
1000
0000
1000
0001
,
0010
0000
0010
0000
,
0100
0100
1000
0000
,
0100
1000
0001
0000
,
0001
0000
0001
1000
,
0010
0000
0010
0000
,
0100
0100
0001
0000
,
1000
0010
2000
3000
,
0001
0010
0001
0001
,
0000
1000
1000
0000
,
1000
0010
0100
0000
,
0001
0010
0002
0003
,
1000
0010
1000
1000
,
0001
0001
0010
0000
,
1001
0000
0000
0000
,
1000
0010
0001
0010
,
1000
0000
1000
0000
,
0001
1000
0200
0300
,
1001
0000
1001
0000
,
0001
0010
1000
0010
,
0001
0000
0001
0000
,
1000
0001
0200
0300
,
0010
0010
0010
0000
,
1000
0000
0010
0000
,
2020
3030
0001
0001
,
0001
0000
0010
0000
,
0022
0033
1000
1000
,
0000
0001
0001
0100
,
0010
1000
1000
0000
,
0002
0000
0023
0000
,
0230
0000
2300
0000
,
0002
0000
0000
3000
,
0003
0000
0000
0000
,
1000
0010
1000
0010
,
0100
0000
0100
0000
,
0010
0100
0001
1000
,
0100
0000
0010
0000
,
0001
0010
0001
0010
,
0100
0000
0100
0000
,
1000
0000
0010
0000
0200
0000
0000
0300
,
0000
0000
0000
0000
,
0001
0010
0100
0010
,
1000
0000
0010
0000
,
0100
0010
0002
0003
,
1001
0000
1001
0000
,
1000
0010
0100
0010
,
0001
0000
0010
0000
,
0100
0010
2000
3000
,
0001
0001
0001
0000
,
2000
0100
3100
0000
,
0002
0100
0103
0000
,
2000
0100
3100
0000
,
1001
0000
1001
0000
,
0001
0100
0010
0100
,
1000
0000
0100
0000
,
0010
0100
0002
0003
,
1000
1000
1000
0000
,
0001
0010
0100
0000
,
0100
0010
0001
0001
,
1000
0010
0100
0000
,
0100
0010
1000
1000
,
0001
0010
0100
0000
,
0100
0010
0001
0001
,
1000
0010
0100
0000
,
0010
0010
0010
2002
,
3003
0000
0000
0000
,
1001
1001
1001
0000
;

//---------------dance-single - ----------------
#NOTEDATA:;
#CHARTNAME:;
#STEPSTYPE:dance-single;
#DESCRIPTION:;
#CHARTSTYLE:;
#DIFFICULTY:Beginner;
#METER:2;
#RADARVALUES:0.138535,0.209518,0.053380,0.026690,0.000000,109.000000,103.000000,6.000000,3.000000,0.000000,0.000000,0.000000,0.000000,0.000000,0.138535,0.209518,0.053380,0.026690,0.000000,109.000000,103.000000,6.000000,3.000000,0.000000,0.000000,0.000000,0.000000,0.000000;
#CREDIT:;
#OFFSET:-1.735620;
#BPMS:0.000000=176.000000
;
#STOPS:;
#DELAYS:;
#WARPS:;
#TIMESIGNATURES:0.000000=4=4
;
#TICKCOUNTS:0.000000=4
;
#COMBOS:0.000000=1
;
#SPEEDS:0.000000=1.000000=0.000000=0
;
#SCROLLS:0.000000=1.000000
;
#FAKES:;
#LABELS:0.000000=Song Start
;
#NOTES:
0000
0000
0000
0000
,
0000
0000
0000
0000
,
0000
0000
0000
0000
,
1000
0000
0000
0000
,
1000
0000
1000
0000
,
0001
0000
0000
0000
,
0001
0000
0001
0000
,
1000
0000
0000
0000
,
1000
0000
1000
0000
,
0001
0000
0000
0000
,
0001
0000
1000
0000
,
0001
0000
0000
0000
,
0001
0000
0000
0000
,
0010
0000
0010
0000
,
0010
0000
0000
0000
,
1000
0000
0000
0000
,
1000
0000
0000
0000
,
0010
0000
0010
0000
,
0010
0000
0000
0000
,
0001
0000
0000
0000
,
1000
0000
0000
0000
,
0001
0000
0100
0000
,
0001
0000
0000
0000
,
1000
0000
0000
0000
,
0001
0000
0000
0000
,
1000
0000
0100
0000
,
1000
0000
0000
0000
,
0010
0000
0010
0000
,
0010
0000
0000
0000
,
1000
0000
1000
0000
,
1001
0000
0000
0000
,
0010
0000
0010
0000
,
0010
0000
0000
0000
,
0001
0000
0001
0000
,
1001
0000
0000
0000
,
0002
0000
0000
0000
,
0003
0000
0000
0000
,
2000
0000
0000
0000
,
3000
0000
0000
0000
,
0001
0000
0000
0000
,
0010
0000
0000
0000
,
0100
0000
0000
0000
,
1000
0000
0000
0000
,
0002
0000
0000
0000
,
0003
0000
0000
0000
,
1000
0000
1000
0000
,
1000
0000
0000
0000
,
0001
0000
0001
0000
,
0001
0000
0000
0000
,
1000
0000
1000
0000
,
1000
0000
0000
0000
,
0001
0000
1000
0000
,
0001
0000
0000
0000
,
0010
0000
0010
0000
,
0010
0000
0000
0000
,
0001
0000
1000
0000
,
1001
0000
0000
0000
,
0010
0000
0010
0000
,
0010
0000
0000
0000
,
1000
0000
0001
0000
,
1001
0000
0000
0000
,
1000
0000
1000
0000
,
0001
0000
0001
0000
,
1000
0000
1000
0000
,
1001
0000
0000
0000
,
0100
0000
0100
0000
,
0100
0000
0000
0000
,
0001
0000
1000
0000
,
1001
0000
0000
0000
,
0001
0000
0000
0000
,
0010
0000
0001
0000
,
1000
0000
0000
0000
,
0010
0000
1000
0000
,
0001
0000
0000
0000
,
0100
0000
0001
0000
,
1000
0000
0000
0000
,
0100
0000
0100
0000
,
0000
0000
0000
0000
,
0100
0100
0100
0000
;
