#VERSION:0.83;
#TITLE:Grave Consequence;
#SUBTITLE:;
#ARTIST:Tsukasa;
#TITLETRANSLIT:;
#SUBTITLETRANSLIT:;
#ARTISTTRANSLIT:;
#GENRE:Drum & Bass;
#ORIGIN:;
#CREDIT:;
#BANNER:Grave Consequence.png;
#BACKGROUND:Grave Consequence-bg.png;
#PREVIEWVID:;
#JACKET:Grave Consequence-jacket.png;
#CDIMAGE:;
#DISCIMAGE:;
#LYRICSPATH:;
#CDTITLE:cdtitle.png;
#MUSIC:Grave Consequence.ogg;
#OFFSET:0.976333;
#SAMPLESTART:11.023667;
#SAMPLELENGTH:10.666665;
#SELECTABLE:YES;
#BPMS:0.000=180.000,
131.000=90.000,
163.000=180.000,
231.000=90.000;
#STOPS:34.750=0.333;
#DELAYS:;
#WARPS:;
#TIMESIGNATURES:0.000=4=4;
#TICKCOUNTS:0.000=4;
#COMBOS:0.000=1;
#SPEEDS:0.000=1.000=0.000=0;
#SCROLLS:0.000=1.000,
162.875=0.500,
163.000=0.250,
163.500=0.400,
164.000=0.550,
164.500=0.700,
165.000=0.850,
165.500=1.000;
#FAKES:;
#LABELS:0.000=Song Start;
#BGCHANGES:4.000=Grave Consequence.mp4=1.000=1=0=1===CrossFade==,
247.000=Grave Consequence-bg.png=1.000=1=0=1===CrossFade==,
99999=-nosongbg-=1.000=0=0=0 // don't automatically add -songbackground-
;
#KEYSOUNDS:;
#ATTACKS:
;

//---------------dance-single - ----------------
#NOTEDATA:;
#CHARTNAME:;
#STEPSTYPE:dance-single;
#DESCRIPTION:;
#CHARTSTYLE:;
#DIFFICULTY:Challenge;
#METER:15;
#RADARVALUES:0.693529,0.886649,0.386395,0.723252,0.757929,490.000000,451.000000,39.000000,73.000000,43.000000,0.000000,0.000000,0.000000,0.000000,0.693529,0.886649,0.386395,0.723252,0.757929,490.000000,451.000000,39.000000,73.000000,43.000000,0.000000,0.000000,0.000000,0.000000;
#CREDIT:;
#NOTES:
// measure 0
0000
0000
0000
0000
,  // measure 1
0000
0000
0000
0000
,  // measure 2
0000
0000
0000
0000
,  // measure 3
0000
0000
0000
0000
,  // measure 4
0000
0000
0000
0000
,  // measure 5
1000
0000
0100
0010
0000
0100
0010
0011
,  // measure 6
0000
0000
0000
1000
1000
1000
0010
0100
,  // measure 7
0001
0000
0100
0010
0000
0100
0010
1010
,  // measure 8
0001
0000
1000
0001
1000
0000
0001
0000
0110
0000
0000
1001
1000
0000
0100
0000
,  // measure 9
0010
0000
0001
0000
0010
MM0M
0010
0000
2000
0000
0000
0000
0001
0000
0000
0000
,  // measure 10
3010
1000
0001
1000
0010
0000
1000
0000
0010
MM0M
0010
0000
0002
0000
0000
0000
,  // measure 11
1003
0100
1000
0100
0001
0100
1000
0001
,  // measure 12
0001
0100
0010
1000
1000
1000
0001
0100
,  // measure 13
0010
0000
1000
0000
0010
MM0M
0010
0000
0002
0000
0000
0000
1000
0000
0000
0000
,  // measure 14
0013
0001
1000
0001
0010
0000
0001
0000
0010
MM0M
0010
0000
2000
0000
0000
0000
,  // measure 15
3001
0100
0001
0100
1000
0100
0001
0010
,  // measure 16
0010
0000
0100
0000
1000
0000
0010
0000
1000
0010
0000
0100
0001
0000
0010
0000
,  // measure 17
0001
0000
0100
0000
0010
MM0M
0010
0000
0200
0000
0000
0000
1000
0000
0000
0000
,  // measure 18
0310
0001
1000
0001
0100
0000
0001
0000
0010
MM0M
0010
0000
1000
0010
2000
0000
,  // measure 19
0000
3200
0000
0000
0320
0000
0000
0032
0000
0000
0203
0000
0310
0000
1000
0000
,  // measure 20
1000
0100
0010
0001
0001
0001
1000
0010
,  // measure 21
1000
0000
0100
0000
0010
MM0M
0010
0000
0200
0000
0000
0000
0001
0000
0000
0000
,  // measure 22
0310
1000
0001
1000
0100
0000
1000
0000
0010
MM0M
0010
0000
0001
0010
0002
0000
,  // measure 23
0000
0203
0000
0000
0320
0000
0000
2030
0000
0000
3200
0000
0310
0000
0001
0000
,  // measure 24
0100
0001
0100
0010
0220
0330
2001
0000
,  // measure 25
0010
0000
0000
0001
0000
0001
0000
0000
0010
0000
0000
0000
3100
0000
0010
0000
,  // measure 26
0100
0000
0001
0000
0000
0000
0001
0000
0100
0000
1000
0000
0001
0010
0002
0000
,  // measure 27
0000
0203
0000
0000
0320
0000
0000
2030
0000
0000
3200
0000
0310
0000
0001
0000
,  // measure 28
1000
0001
0000
0100
0100
0100
0002
0000
,  // measure 29
0010
0000
0000
1000
0000
1000
0000
0000
0010
0000
0000
0000
0103
0000
0010
0000
,  // measure 30
0100
0000
1000
0000
0000
0000
1000
0000
0100
0000
0001
0000
1000
0010
2000
0000
,  // measure 31
0000
3200
0000
0000
0320
0000
0000
0032
0000
0000
0203
0000
0310
0000
1000
0000
,  // measure 32
0002
0000
0023
0000
0230
0000
0010
0000
0010
0000
0310
0000
0210
0000
0000
2300
,  // measure 33
0000
0010
0001
0002
0000
0000
0000
0000
3003
0001
1000
0001
0200
0000
0000
0302
,  // measure 34
0000
0010
1000
2000
0000
0000
0000
0000
3003
0001
1000
0100
0000
0110
0000
0012
,  // measure 35
0000
0000
1000
0000
0100
0000
0200
0000
0000
0000
0000
0000
0000
0000
0000
0000
0303
0000
0100
0000
0010
0000
0100
0000
0000
0000
0001
0000
0000
0101
0000
0000
,  // measure 36
1000
0000
0000
1100
0000
0000
0001
0000
1000
0010
1000
0000
0000
1001
0000
0000
0001
0010
0001
0000
1000
0000
0001
0000
0201
0000
0000
0000
0000
0000
0320
0000
,  // measure 37
0000
1000
0100
0200
0000
0000
0000
0000
0330
1000
0001
1000
0200
0000
0000
0320
,  // measure 38
0000
0000
0000
0001
0000
0000
0100
0000
0000
0200
0000
0000
0000
0000
0000
0000
0000
0000
0330
0000
0000
0100
0000
0000
0010
0000
0001
0000
1000
0000
0010
0000
0100
0000
0010
0000
0000
0000
0000
0110
0000
0000
0000
0000
0000
2010
0000
0000
,  // measure 39
0000
0000
0001
0000
0100
0000
0200
0000
0000
0000
0000
0000
0000
0000
0000
0000
3300
0000
0100
0000
0010
0000
0100
0000
0000
0000
1000
0000
0000
1100
0000
0000
,  // measure 40
0001
0000
0000
0101
0000
0000
1000
0000
0001
0010
0100
0000
1000
0010
0000
0100
0000
0001
1000
0000
0001
1000
0001
2000
0000
0000
0000
0000
0000
0000
0000
0000
,  // measure 41
0000
0000
0000
0001
0001
3001
1002
0013
,  // measure 42
0100
0120
0000
0001
0100
0230
0000
1000
,  // measure 43
0010
0000
0320
0000
0000
0000
0031
1000
0100
M0MM
0100
0000
0001
0100
0001
0000
,  // measure 44
0100
0010
0100
0000
0010
1000
0010
0000
1000
0001
1000
0000
0100
0010
0001
0000
,  // measure 45
0100
0010
1000
0000
0100
0010
0001
0000
1000
0010
0100
0001
2000
0000
3001
0000
,  // measure 46
0010
0012
0000
1000
0010
2003
0000
0001
,  // measure 47
0010
0000
3002
0000
0000
0000
1003
0001
0010
MM0M
0010
0000
1000
0010
2000
0000
,  // measure 48
0000
3020
0000
0000
0230
0000
0000
0302
0000
0000
0023
0000
0130
0000
0010
MM0M
,  // measure 49
0010
0000
0100
0000
0001
0000
1000
0100
0010
0000
0001
0000
2001
0000
3010
0000
,  // measure 50
0100
0120
0000
1000
0100
0230
0000
0001
,  // measure 51
0010
0000
0320
0000
0000
0000
1030
0001
0100
M0MM
0100
0000
1000
0100
1000
0000
,  // measure 52
0100
0010
0100
0000
0010
0001
0010
0000
0001
1000
0001
0000
0100
0010
1000
0000
,  // measure 53
0100
0010
0001
0000
0100
0010
1000
0000
0001
0010
0100
1000
0002
0000
1003
0000
,  // measure 54
0010
2010
0000
0001
0010
3002
0000
1000
,  // measure 55
0010
0000
2003
0000
0000
0000
3001
1000
0010
MM0M
0010
0000
0001
0000
0011
0000
,  // measure 56
0000
0101
0000
0000
1100
0000
0000
1010
0000
0000
1100
0000
0000
0101
0000
0000
,  // measure 57
0011
0000
0000
0101
0000
0000
1100
0000
1000
0010
0100
0001
2000
0000
0000
0000
,  // measure 58
0000
0000
0000
0000
0000
0000
0000
0000
0000
0000
0000
0000
0000
0000
0000
0000
0000
0000
0010
0000
0000
0000
3001
1000
0001
0000
0000
1100
0000
0000
0101
0000
,  // measure 59
0000
1001
0000
1001
0000
0000
0000
MMMM
0000
1010
0000
0110
1002
0000
0000
0000
,  // measure 60
0000
0000
0000
0000
0000
0000
0000
0000
0000
0000
0000
0000
0000
0000
0000
0000
0000
0000
0010
0000
1000
0000
1003
0000
0000
0000
0001
0000
0000
0100
0000
0000
,  // measure 61
0010
0000
0000
1000
0000
0000
0100
0000
0000
0010
0001
0000
1000
0000
0000
0001
0000
0000
1000
0000
0010
0100
0000
0100
0000
0000
0000
0000
0000
0000
0000
0000
;

//---------------dance-single - ----------------
#NOTEDATA:;
#CHARTNAME:;
#STEPSTYPE:dance-single;
#DESCRIPTION:;
#CHARTSTYLE:;
#DIFFICULTY:Hard;
#METER:13;
#RADARVALUES:0.564731,0.703205,0.237781,0.475563,0.411164,399.000000,375.000000,24.000000,48.000000,44.000000,0.000000,0.000000,0.000000,0.000000,0.564731,0.703205,0.237781,0.475563,0.411164,399.000000,375.000000,24.000000,48.000000,44.000000,0.000000,0.000000,0.000000,0.000000;
#CREDIT:;
#OFFSET:0.976333;
#BPMS:0.000000=180.000000
,131.000000=90.000000
,163.000000=180.000000
,231.000000=90.000000
;
#STOPS:34.750000=0.333334
;
#DELAYS:;
#WARPS:;
#TIMESIGNATURES:0.000000=4=4
;
#TICKCOUNTS:0.000000=4
;
#COMBOS:0.000000=1
;
#SPEEDS:0.000000=1.000000=0.000000=0
;
#SCROLLS:0.000000=1.000000
,162.875000=0.500000
,163.000000=0.250000
,163.500000=0.400000
,164.000000=0.550000
,164.500000=0.700000
,165.000000=0.850000
,165.500000=1.000000
;
#FAKES:;
#LABELS:0.000000=Song Start
;
#NOTES:
0000
0000
0000
0000
,
0000
0000
0000
0000
,
0000
0000
0000
0000
,
0000
0000
0000
0000
,
0000
0000
0000
0000
,
1001
0000
0000
0011
0000
0000
1100
0000
,
0000
0000
0000
0001
1000
0001
0000
0000
,
1001
0000
0000
1010
0000
0000
0101
0000
,
0002
0000
0000
0000
0013
0000
0100
0000
0110
0000
0000
1001
2000
0000
0000
0000
,
3010
1000
0001
1000
0010
MM00
0012
0000
,
1003
0001
0010
0M0M
0010
1000
0002
0000
,
1003
0100
1000
0100
0001
0100
1000
0000
,
0001
0100
0010
1000
1000
1000
0002
0000
,
0013
0001
1000
0001
0010
0M0M
2010
0000
,
3001
1000
0010
MM00
0010
0001
2000
0000
,
3001
0100
0001
0100
1000
0100
0001
1000
,
0010
1000
0001
0010
0001
0000
1002
0000
,
0103
0001
0010
0001
0100
00MM
2100
0000
,
3100
1000
0010
MM00
0010
0001
0200
0001
,
0000
0010
0000
0000
1000
0000
0000
0010
0000
0000
0001
0000
0301
0000
0000
0000
,
1000
0100
0010
0001
0001
0001
2000
0000
,
3100
1000
0010
1000
0100
M0M0
0102
0000
,
0103
0001
0010
0M0M
0010
1000
0200
1000
,
0000
0010
0000
0000
0001
0000
0000
0010
0000
0000
1000
0000
1300
0000
0001
0000
,
0100
0010
1000
0000
0220
0330
2001
0000
,
0010
0000
3001
0002
0010
0000
1003
0010
,
1000
0000
0010
0100
0001
0000
0020
0001
,
0000
0100
0000
0000
1000
0000
0000
0100
0000
0000
0001
0000
0031
0000
0010
0000
,
0001
1000
0010
1000
1000
1000
0002
0000
,
0010
0000
1003
2000
0010
0000
3001
0010
,
0001
0000
0010
0100
1000
0000
0020
1000
,
0000
0100
0000
0000
0001
0000
0000
0100
0000
0000
1000
0000
1030
0000
0010
0000
,
0100
0000
0002
0000
0000
0000
2003
3000
0002
0003
2000
3000
1002
0000
0000
0103
,
0000
0001
0100
0010
0000
0000
0000
0000
0000
0001
1000
0001
2000
0000
0000
3100
,
0000
1000
0100
0010
0000
0000
0000
0000
0000
1000
0001
1000
0000
0010
0000
0010
,
0000
0000
0100
0000
0001
0000
0010
0000
0000
0000
0000
0000
0000
0000
0000
0000
0000
0000
1000
0000
0010
0000
0100
0000
0001
0000
1000
0000
0000
0100
0000
0000
,
1000
0000
0000
0100
0000
0000
0010
0000
0001
0000
0100
0000
0000
0001
0000
0000
0100
0000
0010
0000
1000
0000
0001
0000
2001
0000
0000
0000
0000
0000
3100
0000
,
0000
1000
0100
0001
0000
0000
0000
0000
0000
1000
0001
1000
0002
0000
0000
0103
,
0000
0001
0100
1000
0000
0000
0000
0001
0101
0000
1100
0000
0000
0010
0000
0010
,
0000
0000
0100
0000
1000
0000
0010
0000
0000
0000
0000
0000
0000
0000
0000
0000
0000
0000
0001
0000
0100
0000
0010
0000
1000
0000
0001
0000
0000
0010
0000
0000
,
0001
0000
0000
0010
0000
0000
0100
0000
1000
0000
0010
0000
0000
0100
0000
0000
0001
0000
0010
0000
0100
0000
2000
0000
0000
0000
0000
0000
0000
0000
0000
0000
,
0000
0000
0000
0001
0001
3001
1000
0100
,
1000
0020
MM30
0010
0001
0020
0M3M
0010
,
1000
0020
MM30
0010
0100
1000
0001
0100
,
0001
0100
1000
0100
1000
0100
0001
0010
,
1000
0010
0001
0100
1000
0100
0001
1000
,
0001
0020
MM30
0010
1000
0200
03MM
0100
,
0001
0020
MM30
0010
1000
0001
0020
0001
,
0000
0100
0000
0000
1000
0000
0000
0100
0000
0000
0001
0000
0031
0000
0100
0000
,
0010
1000
0100
0010
0001
0000
0001
0100
,
0001
0020
0M3M
0010
1000
0020
MM30
0010
,
0001
0020
0M3M
0010
0100
0001
1000
0100
,
1000
0100
0001
0100
0001
0100
1000
0010
,
0001
0010
1000
0100
0001
0100
1000
0001
,
1000
0020
0M3M
0010
0001
0200
M3M0
0100
,
1000
0020
0M3M
0010
0001
1000
0000
1020
,
0000
0100
0000
0000
1030
0000
0000
0021
0000
0000
0100
0000
0000
0031
0000
0000
,
1020
0000
0000
0100
0000
0000
1030
0000
0001
1000
0000
0001
0020
0000
0000
0000
,
0000
0000
0000
0000
0000
0000
0000
0000
0000
0000
0000
0000
0000
0000
0000
0000
0000
0000
0130
0000
0000
0000
0010
0000
0010
0000
0000
0100
0000
0000
0010
0000
,
0000
1100
0000
1001
0000
0000
0000
MMMM
0000
1000
0000
0001
0200
0000
0000
0000
,
0000
0000
0000
0000
0000
0000
0000
0000
0000
0000
0000
0000
0000
0000
0000
0000
0000
0000
0310
0000
0100
0000
0010
0000
0000
0000
1000
0000
0000
0010
0000
0000
,
1000
0000
0000
0001
0000
0000
0010
0000
0000
0001
0000
0000
1000
0000
0000
0010
0000
0000
0100
0000
0001
0000
0000
0001
0000
0000
0000
0000
0000
0000
0000
0000
;

//---------------dance-single - ----------------
#NOTEDATA:;
#CHARTNAME:;
#STEPSTYPE:dance-single;
#DESCRIPTION:;
#CHARTSTYLE:;
#DIFFICULTY:Medium;
#METER:10;
#RADARVALUES:0.372241,0.426521,0.148613,0.574639,0.133752,263.000000,248.000000,15.000000,58.000000,12.000000,0.000000,0.000000,0.000000,0.000000,0.372241,0.426521,0.148613,0.574639,0.133752,263.000000,248.000000,15.000000,58.000000,12.000000,0.000000,0.000000,0.000000,0.000000;
#CREDIT:;
#OFFSET:0.976333;
#BPMS:0.000000=180.000000
,132.000000=90.000000
,166.000000=180.000000
,230.000000=90.000000
;
#STOPS:;
#DELAYS:;
#WARPS:;
#TIMESIGNATURES:0.000000=4=4
;
#TICKCOUNTS:0.000000=4
;
#COMBOS:0.000000=1
;
#SPEEDS:0.000000=1.000000=0.000000=0
;
#SCROLLS:0.000000=1.000000
;
#FAKES:;
#LABELS:0.000000=Song Start
;
#NOTES:
0000
0000
0000
0000
,
0000
0000
0000
0000
,
0000
0000
0000
0000
,
0000
0000
0000
0000
,
0000
0000
0000
0000
,
1001
0000
0000
0010
0000
0000
0010
0000
,
0000
0000
0010
0000
,
1001
0000
0000
0100
0000
0000
0100
0000
,
0010
0000
0000
0000
0110
0000
0000
0000
2002
0000
0000
3003
0000
0000
0000
0000
,
1000
0000
0010
0M00
0010
0001
0010
0000
,
0001
0000
0100
0001
0100
00M0
0100
0000
,
1000
0000
0010
0000
1000
0010
0100
0000
,
0001
1000
0100
0000
0010
0100
0010
0000
,
0001
0000
0010
0M00
0010
1000
0010
0000
,
1000
0000
0100
1000
0100
00M0
0100
0000
,
0001
0000
0010
0000
0001
0010
0100
0000
,
1000
0001
0100
0010
1000
0000
1001
0000
,
0001
0000
0100
00M0
0100
1000
0010
0000
,
1000
0000
0010
1000
0100
00M0
0100
0000
,
0002
0010
1000
0010
,
1003
0001
0100
0000
0010
0100
0010
0000
,
1000
0000
0100
00M0
0100
0001
0010
0000
,
0001
0000
0010
0001
0100
00M0
0100
0000
,
2000
0010
0001
0010
,
3100
0010
0100
0010
0100
0000
0110
0000
,
2001
0000
3020
0000
,
1030
0010
1000
0000
0001
0000
0000
0000
,
2000
3200
0320
0032
,
0103
0010
1000
0000
0010
0000
0000
0000
,
1002
0000
0023
0000
,
0031
0010
0001
0000
1000
0000
0000
0000
,
0002
0203
0320
2030
,
3100
0010
0100
0020
0000
0000
0130
0000
,
2001
0000
0000
0100
0000
0000
3001
0000
0000
0000
0000
0000
0000
0000
0100
0000
,
0002
0000
0000
0100
0000
0000
1003
0000
0000
0000
0000
0000
0000
0000
0100
0000
,
0000
1000
0000
1000
0000
0000
0010
0000
0000
0000
0000
0000
0000
0100
0010
0100
,
0000
2002
0000
0000
0000
0000
0000
0000
0000
0000
0000
0000
3003
1000
0001
1000
,
0002
0000
0000
0100
0000
0000
0013
0000
0000
0000
0000
0000
0000
0000
0100
0000
,
2000
0000
0000
0100
0000
0000
3010
0000
0000
0000
0000
0000
0110
0000
0110
0000
,
0000
0001
0000
0001
0000
0000
0010
0000
0000
0000
0000
0000
0000
0100
0010
0100
,
0000
2002
0000
0000
0000
0000
0000
0000
0000
0000
0000
0000
3003
0001
0100
0010
,
2000
0000
0000
0000
3000
1000
0100
0010
0002
0000
0000
0000
0000
0000
0013
0000
,
0M00
0010
1000
0020
0000
1030
0010
2000
,
0000
0100
3100
0000
2000
0000
3200
0000
,
0302
0000
0103
1000
0020
0000
0032
0000
,
0023
0000
1030
0100
0020
0000
0000
0130
,
000M
0100
0010
2000
0000
3001
1000
0200
,
0000
0010
0310
0000
0002
0000
0010
0000
,
1000
0000
0010
0000
1003
0001
0100
0010
,
0000
0010
0010
0000
2000
0000
0000
3010
,
0M00
0010
0001
0020
0000
0031
0010
0002
,
0000
0100
0103
0000
0002
0000
0203
0000
,
2300
0000
3100
0001
0020
0000
2030
0000
,
3020
0000
0031
0100
0020
0000
0000
0130
,
M000
0100
0010
0002
0000
1003
0001
0200
,
0000
0310
0100
0010
0000
2002
0000
0000
,
0000
0000
0000
0000
0000
0000
0000
0000
0000
0000
0000
0000
0000
0000
0000
3003
,
0000
1000
0100
0010
0002
0000
0000
0000
,
0000
0000
0000
0000
0000
0000
0000
1000
1003
0000
0000
0010
0000
0010
0000
0100
,
0000
0000
0000
2002
0000
3003
0000
0001
2000
0000
0000
0000
0000
0000
0000
0000
,
0000
0000
0000
0000
0000
0000
0000
0000
3000
0200
0000
0000
0000
0000
0000
0000
,
0000
0000
0301
0000
;

//---------------dance-single - ----------------
#NOTEDATA:;
#CHARTNAME:;
#STEPSTYPE:dance-single;
#DESCRIPTION:;
#CHARTSTYLE:;
#DIFFICULTY:Easy;
#METER:7;
#RADARVALUES:0.240612,0.335123,0.168429,0.435933,0.000000,170.000000,153.000000,17.000000,44.000000,0.000000,0.000000,0.000000,0.000000,0.000000,0.240612,0.335123,0.168429,0.435933,0.000000,170.000000,153.000000,17.000000,44.000000,0.000000,0.000000,0.000000,0.000000,0.000000;
#CREDIT:;
#OFFSET:0.976333;
#BPMS:0.000000=180.000000
,132.000000=90.000000
,166.000000=180.000000
,230.000000=90.000000
;
#STOPS:;
#DELAYS:;
#WARPS:;
#TIMESIGNATURES:0.000000=4=4
;
#TICKCOUNTS:0.000000=4
;
#COMBOS:0.000000=1
;
#SPEEDS:0.000000=1.000000=0.000000=0
;
#SCROLLS:0.000000=1.000000
;
#FAKES:;
#LABELS:0.000000=Song Start
;
#NOTES:
0000
0000
0000
0000
,
0000
0000
0000
0000
,
0000
0000
0000
0000
,
0000
0000
0000
0000
,
0000
0000
0000
0000
,
2000
0000
0000
0001
0000
0000
3001
0000
,
0000
0000
0001
0000
,
0002
0000
0000
1000
0000
0000
1003
0000
,
0001
0000
0000
0000
0000
0000
0000
0000
2002
0000
0000
3003
0000
0000
0000
0000
,
1000
0000
0100
0000
,
1000
0100
0010
0000
,
1000
0000
0010
0000
,
1000
1000
0010
0100
,
0001
0000
0100
0000
,
0001
0100
0010
0000
,
0001
0000
0010
0000
,
0100
0010
1001
0000
,
1000
0000
0010
0000
,
1000
0010
0100
0000
,
2000
3200
0320
0032
,
0103
0010
1000
0000
,
0001
0000
0010
0000
,
0001
0010
0100
0000
,
0002
0203
0320
2030
,
3100
0010
0110
0000
,
1002
0000
0103
0000
,
0001
0001
0100
0000
,
0002
0203
0320
2030
,
3100
0010
0001
0000
,
2001
0000
3100
0000
,
1000
1000
0100
0000
,
2000
3200
0320
0032
,
2003
0000
0001
3001
,
1002
0000
0000
0103
0000
0000
0000
0000
,
2001
0000
0000
3100
0000
0000
0000
0000
,
0020
0000
0000
0130
0000
0000
0000
0100
,
0200
0000
0000
0000
0000
0000
0300
0100
,
0012
0000
0000
1003
0000
0000
0000
0000
,
2010
0000
0000
3001
0000
0000
1001
1001
,
0020
0000
0000
0130
0000
0000
0000
0100
,
0200
0000
0000
0000
0000
0000
0300
0110
,
0000
0000
0000
1001
0002
0000
0000
0010
,
0000
0000
0000
1000
0000
0000
0000
0103
,
0000
0101
1000
0010
,
1000
0010
0100
0001
,
0010
0000
0001
0000
0200
0000
0000
0010
,
0000
0000
0000
0010
0000
0000
0000
0310
,
0000
1001
2000
3200
,
0320
0032
1003
1000
,
0001
0000
0001
0000
2000
0000
0000
0010
,
0000
0000
0000
0001
0000
0000
0000
3100
,
0000
1100
0001
0010
,
0001
0010
0100
1000
,
0010
0000
1000
0000
0200
0000
0000
0010
,
0000
0000
0000
0010
0000
0000
0000
0310
,
0000
0100
0000
0000
0000
2002
0000
0000
,
0000
0000
0000
0000
,
3003
0001
0200
0000
,
0000
0000
0310
1000
,
0001
0010
0200
0000
,
0000
0000
2300
0000
,
0000
0000
3001
0000
;

//---------------dance-single - ----------------
#NOTEDATA:;
#CHARTNAME:;
#STEPSTYPE:dance-single;
#DESCRIPTION:;
#CHARTSTYLE:;
#DIFFICULTY:Beginner;
#METER:3;
#RADARVALUES:0.159936,0.256606,0.059445,0.227874,0.000000,113.000000,107.000000,6.000000,23.000000,0.000000,0.000000,0.000000,0.000000,0.000000,0.159936,0.256606,0.059445,0.227874,0.000000,113.000000,107.000000,6.000000,23.000000,0.000000,0.000000,0.000000,0.000000,0.000000;
#CREDIT:;
#OFFSET:0.976333;
#BPMS:0.000000=180.000000
;
#STOPS:;
#DELAYS:;
#WARPS:;
#TIMESIGNATURES:0.000000=4=4
;
#TICKCOUNTS:0.000000=4
;
#COMBOS:0.000000=1
;
#SPEEDS:0.000000=1.000000=0.000000=0
;
#SCROLLS:0.000000=1.000000
;
#FAKES:;
#LABELS:0.000000=Song Start
;
#NOTES:
0000
0000
0000
0000
,
0000
0000
0000
0000
,
0000
0000
0000
0000
,
0000
0000
0000
0000
,
0000
0000
0000
0000
,
2000
0000
0000
3000
,
0000
0000
0000
0000
,
0002
0000
0000
0003
,
0000
0000
1001
0000
,
1000
0000
0100
0000
,
1000
1000
1000
0000
,
0100
0000
0010
0000
,
0100
0000
1000
0000
,
0001
0000
0100
0000
,
0001
0001
0001
0000
,
0100
0000
0010
0000
,
0100
0000
0001
0000
,
1000
0000
0100
0000
,
0010
0010
0010
0000
,
0002
0003
2000
3000
,
0100
0000
0010
0000
,
0001
0000
0100
0000
,
0010
0010
0010
0000
,
2000
3000
0002
0003
,
0100
0000
0010
0000
,
1001
0000
1000
0000
,
0100
0000
0000
0000
,
2000
3000
0002
0003
,
0010
0000
0000
0000
,
1001
0000
0001
0000
,
0100
0000
0000
0000
,
0002
0003
2000
3000
,
0020
0000
0030
0000
,
2000
0000
0000
3000
,
0000
0000
0000
0000
,
0200
0000
0000
0300
,
0000
0000
0000
0000
,
0020
0000
0000
0030
,
0000
0000
0000
0001
,
0002
0000
0000
0000
,
0003
0000
0000
1000
,
2000
0000
0000
3000
,
0000
0000
0000
0000
,
0020
0000
0000
0030
,
0000
0000
0100
0000
,
0200
0000
0000
0300
,
0000
0000
0000
0001
,
0002
0000
0000
0000
,
0003
0000
0000
1000
,
0000
0000
0000
0001
,
0001
0000
0001
0000
,
0010
0000
0010
0000
,
0100
0100
0100
0000
,
0010
0010
0010
0000
,
1000
0000
1000
0000
,
0100
0000
0100
0000
,
2000
3000
0002
0003
,
0100
0000
0010
0000
,
1000
0000
1000
0000
,
0010
0000
0010
0000
,
0100
0100
0100
0000
,
0010
0010
0010
0000
,
0001
0000
0001
0000
,
0100
0000
0100
0000
,
2002
0000
0000
0000
,
0000
0000
3003
1001
,
1001
0000
0000
0000
,
0000
0000
0000
0000
,
1000
0000
1000
0000
,
0001
0000
0001
0000
,
0010
0000
0000
0000
,
0000
0000
0000
0000
,
0100
0000
0000
0000
,
0000
0000
0000
0000
,
0100
0000
0000
0000
;
