#VERSION:0.83;
#TITLE:Got noir forever.;
#SUBTITLE:;
#ARTIST:E.G.G.;
#TITLETRANSLIT:;
#SUBTITLETRANSLIT:;
#ARTISTTRANSLIT:;
#GENRE:Progressive Fusion;
#ORIGIN:;
#CREDIT:;
#BANNER:Got noir forever.png;
#BACKGROUND:Got noir forever-bg.png;
#PREVIEWVID:;
#JACKET:Got noir forever-jacket.png;
#CDIMAGE:;
#DISCIMAGE:;
#LYRICSPATH:;
#CDTITLE:cdtitle.png;
#MUSIC:Got noir forever.ogg;
#OFFSET:-0.126000;
#SAMPLESTART:49.537766;
#SAMPLELENGTH:10.588234;
#SELECTABLE:YES;
#BPMS:0.000=136.000;
#STOPS:;
#DELAYS:;
#WARPS:;
#TIMESIGNATURES:0.000=4=4;
#TICKCOUNTS:0.000=4;
#COMBOS:0.000=1;
#SPEEDS:0.000=1.000=0.000=0;
#SCROLLS:0.000=1.000;
#FAKES:;
#LABELS:0.000=Song Start;
#BGCHANGES:;
#KEYSOUNDS:;
#ATTACKS:
;

//---------------dance-single - ----------------
#NOTEDATA:;
#CHARTNAME:;
#STEPSTYPE:dance-single;
#DESCRIPTION:;
#CHARTSTYLE:;
#DIFFICULTY:Challenge;
#METER:18;
#RADARVALUES:1.029949,1.032616,0.492904,0.088281,1.662633,980.000000,913.000000,67.000000,12.000000,8.000000,0.000000,0.000000,0.000000,0.000000,1.029949,1.032616,0.492904,0.088281,1.662633,980.000000,913.000000,67.000000,12.000000,8.000000,0.000000,0.000000,0.000000,0.000000;
#CREDIT:;
#NOTES:
// measure 0
0000
0000
0000
0000
,  // measure 1
0000
0000
0000
0000
,  // measure 2
0000
0000
0000
0000
,  // measure 3
0001
0010
0000
0010
0000
0010
0010
0001
1000
0001
0100
0000
,  // measure 4
0001
0000
0100
0001
1000
0001
0001
0010
1000
0001
0100
1000
,  // measure 5
0001
0000
0000
0000
0010
0000
0000
0000
0100
0000
0000
0000
1000
0000
0000
0000
0010
0000
0000
0000
0001
0000
0000
0000
1000
0000
0000
0100
0000
0000
0010
0000
0000
0100
0000
0000
0101
0000
0000
0000
0000
0000
0000
0000
0000
1001
0000
0000
,  // measure 6
0000
0000
0001
1000
0001
0010
0000
0001
0010
0100
0010
0100
0001
0100
0010
0001
,  // measure 7
0011
1100
0101
1100
,  // measure 8
1000
0000
0000
0001
0000
0000
1000
0000
0000
0010
0000
0000
0000
0000
0000
0001
0000
0000
0010
0000
0000
0100
0000
0000
0001
0000
0000
1000
0000
0000
0100
0000
0000
0010
0000
0000
0011
0000
0000
0000
0000
0000
0000
0000
1010
0000
0000
0000
,  // measure 9
0000
0000
0000
0000
0101
0000
0000
0000
0000
0000
0000
0000
1100
0000
0000
0000
0000
0000
0000
0000
0110
0000
0000
0000
0000
0000
0000
0000
1000
0000
0001
0000
0000
0000
0000
0000
1000
0000
0000
0001
0000
0000
1000
0000
0000
0010
0000
0000
,  // measure 10
0000
1000
0010
0100
0010
0100
1000
0100
0010
1000
1010
0000
0000
0000
0101
0000
,  // measure 11
0000
0000
1100
0000
0000
0000
0101
0000
0000
0000
0001
1000
0001
0010
0000
1000
,  // measure 12
0010
0100
1000
0001
0100
0010
0000
0000
2010
0000
0010
0010
0000
0001
0000
0010
,  // measure 13
0000
3002
0000
0010
0000
0010
0010
0000
1003
0000
1010
0000
0101
0000
0101
0000
,  // measure 14
1001
0000
0001
0010
0100
1000
0010
0100
0001
1000
0100
0002
0000
0000
1003
0000
,  // measure 15
0010
0100
1000
0001
1000
0010
0100
0001
2000
0000
3100
0010
0011
0000
0000
0011
,  // measure 16
0000
0000
1000
0000
0011
0000
0000
0011
0000
0000
1000
0000
1001
0000
0001
0100
,  // measure 17
0000
0001
1000
0001
0010
0001
1000
0001
0100
0000
0001
0000
1000
0001
0010
0001
,  // measure 18
0100
0000
0001
1000
0010
1000
0100
0000
1000
0001
1000
0000
0001
1000
0100
0000
,  // measure 19
1000
0010
1000
0001
0010
0001
0100
0000
0001
0000
0010
0001
0100
0000
0001
0010
,  // measure 20
0001
1000
0010
1000
0100
0010
0100
0010
0001
1000
0010
0100
1000
0100
0010
1000
,  // measure 21
0000
0001
1000
0100
0000
0001
0100
0010
0000
0001
1000
0001
0000
1000
0010
0100
,  // measure 22
0001
0000
0010
0000
0100
0010
0001
1000
0001
0100
0010
0001
0000
0010
1000
0000
,  // measure 23
0001
0000
0010
1000
0010
0100
1000
0001
0100
0010
1000
0001
0010
0000
0100
1000
,  // measure 24
0001
0000
0000
1000
0000
0000
0001
0000
0000
0100
0000
0000
0010
0000
0000
0001
0000
0000
0010
0000
0000
1000
0000
0000
0001
0000
0000
1000
0000
0000
0100
0000
0000
0010
0000
0000
0001
0000
0100
0000
0010
0000
1000
0000
0000
0000
0001
0000
,  // measure 25
0000
0000
0000
0000
0000
0000
0000
0000
0010
0000
0000
0000
0000
0000
0000
0000
0000
0000
0000
0000
0000
0000
0000
0000
0100
0000
0000
0000
0000
0000
0000
0000
0000
0000
0000
0000
0001
0000
0000
0000
0000
0000
0000
0000
0000
0000
0000
0000
0100
0000
0000
0000
0000
0000
0000
0000
0000
0000
0000
0000
0010
0000
0000
0000
0000
0000
0000
0000
0000
0000
0000
0000
0100
0000
0000
0000
0000
0000
0000
0000
0000
0000
0000
0000
1000
0000
0000
0000
0000
0000
0000
0000
0000
0000
0000
0000
0000
0000
0000
0000
0000
0000
0000
0000
0000
0000
0000
0000
0001
0000
0000
0000
0000
0000
1000
0000
0000
0000
0000
0000
0001
0000
0000
0000
0000
0000
0000
0000
0000
0000
0000
0000
0000
0000
0000
0000
0100
0000
0000
0000
0000
0000
0000
0000
0000
0000
0000
0000
0000
0000
0000
0000
0010
0000
0000
0000
0000
0000
0000
0000
0000
0000
0000
0000
0000
0000
0000
0000
1000
0000
0000
0000
0000
0000
0000
0000
0000
0000
0000
0000
0010
0000
0000
0000
0000
0000
0000
0000
0000
0000
0000
0000
,  // measure 26
0100
0000
0000
0001
0000
0000
1000
0000
0000
0001
0000
0000
0010
0000
0000
0100
0000
0000
0010
0000
0000
1000
0000
0000
0000
0000
0000
0010
0000
0000
0100
0000
1000
0000
0001
0000
1000
0000
0000
0000
0010
0000
0000
0000
0100
0000
0000
0000
,  // measure 27
0001
0000
0000
1000
0000
0000
0100
0000
0000
1000
0000
0000
0001
0000
0000
0100
0000
0000
0010
0000
0000
1000
0000
0000
0001
0000
0010
0000
0001
0000
1000
0000
0010
0000
1000
0000
0001
0000
0000
0010
0000
0000
0100
0000
0000
1000
0000
0000
,  // measure 28
1100
0000
0001
0100
0000
0100
0001
0000
1000
0100
0010
M000
0010
0100
0001
1000
,  // measure 29
0100
0010
0001
0010
0100
1000
0001
0100
0101
0000
1000
0100
0000
0100
1000
0000
,  // measure 30
0001
0100
0010
000M
0010
0100
1000
0001
0100
0110
0000
0001
1000
0100
0010
0001
,  // measure 31
0011
0000
1000
0010
0100
0010
1000
0000
0001
0010
1000
000M
1000
0100
0001
0100
,  // measure 32
0010
0001
0010
0100
1000
0001
0100
0010
1010
0000
0001
0010
0100
0010
0001
0000
,  // measure 33
1000
0010
0001
M000
0001
0100
0010
1000
0001
0100
0110
0000
1001
0000
0000
0000
,  // measure 34
0001
1000
0001
0010
0000
0001
0010
0100
0010
0100
0001
0100
0010
0001
0011
0000
,  // measure 35
0000
0000
1100
0000
0000
0000
0101
0000
0000
0000
1100
0000
0000
0000
1000
0001
,  // measure 36
1000
0010
0000
0001
0010
0100
0001
1000
0100
0010
0000
0000
0012
0000
0010
0010
,  // measure 37
0000
1000
0000
0010
0000
2003
0000
0010
0000
0010
0010
0000
3001
0000
0011
0000
,  // measure 38
1100
0000
1100
0000
1001
0000
1000
0010
0001
0010
1000
0001
1000
0100
0010
0001
,  // measure 39
1000
0100
0010
1000
0000
0010
0100
0000
1000
0001
0100
0010
1000
0001
1000
0001
,  // measure 40
0010
0100
1000
0001
0100
1000
0001
0010
1000
0000
0001
0010
0001
0010
0100
1000
,  // measure 41
0001
1000
0001
0100
0010
0000
0001
0010
0100
0001
1000
0001
0010
0001
1000
0010
,  // measure 42
1000
0000
0000
0100
0000
0000
0001
0000
0000
1000
0000
0000
0010
0000
0000
0001
0000
0000
1000
0000
0000
0000
0000
0000
0001
0000
0000
0100
0000
0000
0010
0000
0000
1000
0000
0000
0001
0000
0000
0000
1000
0000
0100
0000
0000
0000
0010
0000
,  // measure 43
0001
0000
0000
1000
0000
0000
0001
0000
0100
0000
0001
0000
1000
0000
0100
0000
1000
0000
0001
0000
0000
0100
0000
0000
0010
0000
0000
0100
0000
0000
0010
0000
1000
0000
0001
0000
1000
0000
0000
0100
0000
0000
0010
0000
0000
0001
0000
0000
,  // measure 44
1000
0000
0010
0000
0100
0000
0001
0000
0000
0000
0010
0000
0000
0000
0100
0000
0000
0000
1000
0000
0000
0001
0000
0000
0100
0000
0000
0010
0000
0000
1000
0000
0001
0000
1000
0000
0100
0000
0000
0010
0000
0000
0100
0000
0000
0000
0010
0000
,  // measure 45
0000
0000
0001
0000
0000
0000
0100
0000
0000
0010
0000
0000
1000
0000
0010
0000
1000
0000
0001
0000
0010
0000
0001
0000
1000
0000
0000
0001
0000
0000
0100
0000
0000
0010
0000
0000
1000
0000
0100
0000
0010
0000
0001
0000
0100
0000
0010
0000
,  // measure 46
1000
0000
0000
0000
0001
0000
0000
0000
1000
0000
0000
0000
0001
0000
0000
0010
0000
0000
0100
0000
0000
0001
0000
0000
0100
0000
0000
0010
0000
0000
0001
0000
1000
0000
0001
0000
1000
0000
0010
0000
0100
0000
0001
0000
0000
0000
1000
0000
,  // measure 47
0000
0000
0001
0000
0000
0000
1000
0000
0100
0000
1000
0000
0100
0000
0010
0000
0001
0000
1000
0000
0000
0000
0010
0000
0000
0000
0100
0000
0000
0000
0010
0000
0000
0001
0000
0000
0010
0000
0000
0100
0000
0000
0001
0000
0000
1000
0000
0000
,  // measure 48
0100
0000
0000
0000
0000
0000
0010
0000
0001
0000
0010
0000
0001
0000
0000
0100
0000
0000
0010
0000
1000
0000
0010
0000
1000
0000
0000
0001
0000
0000
1000
0000
0000
0000
0100
0000
0000
0000
0001
0000
0000
0000
1000
0000
0000
0000
0000
0000
,  // measure 49
0010
0000
0000
0001
0000
0000
0010
0000
0000
0001
0000
0000
0100
0000
0000
1000
0000
0000
0001
0000
0000
0010
0000
0000
1000
0000
0000
0010
0000
0000
1000
0000
0100
0000
0010
0000
0001
0000
0100
0000
0010
0000
1000
0000
0001
0000
2000
0000
,  // measure 50
0100
0000
0100
0100
0000
0001
0000
0100
0000
3002
0000
0100
0000
0100
0103
0000
,  // measure 51
1100
0000
1010
0000
0011
0000
0011
0000
0101
0000
1000
0001
0010
0001
1000
0001
,  // measure 52
0010
0001
1000
0001
0010
0001
0100
0000
0010
1000
0001
0010
0001
1000
0010
1000
,  // measure 53
0100
0000
0010
0001
1000
0001
0010
0001
1000
0000
0100
0000
0010
0001
1000
0010
,  // measure 54
1000
0000
0000
0001
0000
0000
0010
0000
0000
0001
0000
0000
0100
0000
0000
0000
0000
0000
0010
0000
0000
1000
0000
0000
0001
0000
0000
1000
0000
0000
0001
0000
0010
0000
0001
0000
0010
0000
0000
0001
0000
0000
0100
0000
0000
0001
0000
0000
,  // measure 55
1000
0000
0000
0001
0000
0000
0010
0000
0000
0001
0000
0000
1000
0000
0000
0010
0000
0000
1000
0000
0001
0000
1000
0000
0001
0000
0000
0010
0000
0000
0100
0000
1000
0000
0001
0000
1000
0000
0000
0010
0000
0000
0100
0000
0000
0001
0000
0000
,  // measure 56
0010
0001
0100
0000
0001
1000
0010
1000
0001
0000
0010
0001
1000
0001
0010
0001
,  // measure 57
0100
0000
0010
1000
0001
0010
0001
1000
0010
0000
0100
0001
1000
0001
0010
0001
,  // measure 58
1000
0001
0010
0000
0100
1000
0010
1000
0001
0010
0001
1000
0010
1000
0100
0000
,  // measure 59
0010
0000
0000
0001
0000
0000
1000
0000
0000
0001
0000
0000
1000
0000
0010
0000
1000
0000
0010
0000
0000
1000
0000
0000
0100
0000
0000
0010
0000
0000
0001
0000
0000
1000
0000
0000
0010
0000
0000
1000
0000
0000
0001
0000
0000
1000
0000
0000
,  // measure 60
0010
0000
1000
0000
0001
0000
1000
0000
0000
0100
0000
0000
0001
0000
0000
0100
0000
0000
0001
0000
0000
1000
0000
0000
0010
0000
0000
0001
0000
0000
0010
0000
0000
0001
0000
0000
0100
0000
0000
0001
0000
0000
0101
0000
0000
0000
0000
0000
,  // measure 61
1000
0100
0000
0100
1000
0000
0001
0100
0010
000M
0010
0100
1000
0001
0100
0010
,  // measure 62
1000
0010
0100
0001
1000
0100
1100
0000
0001
0100
0000
0100
0001
0000
1000
0100
,  // measure 63
0010
M000
0010
0100
0001
1000
0100
0110
0000
1000
0001
0100
0010
1000
1010
0000
,  // measure 64
0001
0010
0100
0010
0001
0000
1000
0010
0001
M000
0001
0100
1000
0100
0010
1000
,  // measure 65
0010
0100
0001
1000
0100
0010
0011
0000
1000
0010
0100
0010
1000
0000
0001
0010
,  // measure 66
1000
000M
1000
0100
0010
0001
1000
0100
0110
0000
1001
0000
0000
0000
1000
0001
,  // measure 67
1000
0010
0000
1000
0010
0100
0010
0100
1000
0100
0010
1000
1010
0000
0000
0000
,  // measure 68
0101
0000
0000
0000
1100
0000
0000
0000
0101
0000
0000
0000
0001
1000
0001
0010
,  // measure 69
0000
1000
0010
0100
1000
0001
0100
0010
0000
0000
2010
0000
0010
0010
0000
0001
,  // measure 70
0000
0010
0000
3002
0000
0010
0000
0010
0010
0000
1003
0000
1010
0000
0101
0000
,  // measure 71
0101
0000
1001
0000
1000
0010
0100
0001
0010
0100
1000
0001
0100
2000
0000
0000
,  // measure 72
3001
0000
0010
0100
0001
1000
0001
0010
0100
1000
0002
0000
0103
0010
1010
0000
,  // measure 73
0000
1010
0000
0000
0001
0000
1010
0000
0000
1010
0001
1000
0001
1000
1001
0000
;

//---------------dance-single - ----------------
#NOTEDATA:;
#CHARTNAME:;
#STEPSTYPE:dance-single;
#DESCRIPTION:;
#CHARTSTYLE:;
#DIFFICULTY:Hard;
#METER:16;
#RADARVALUES:0.796634,0.788049,0.669467,0.235417,0.915919,758.000000,667.000000,91.000000,32.000000,0.000000,0.000000,0.000000,0.000000,0.000000,0.796634,0.788049,0.669467,0.235417,0.915919,758.000000,667.000000,91.000000,32.000000,0.000000,0.000000,0.000000,0.000000,0.000000;
#CREDIT:;
#NOTES:
// measure 0
0000
0000
0000
0000
,  // measure 1
0000
0000
0000
0000
,  // measure 2
0000
0000
0000
0000
,  // measure 3
0001
0000
0000
0000
0000
0000
0000
0010
0001
1000
0000
0000
,  // measure 4
0010
0000
0000
0100
0000
0001
1000
0001
0000
0011
0000
0011
,  // measure 5
0000
0000
0000
0000
1100
0000
0000
0000
0000
0000
0000
0000
1000
0000
0000
0000
0001
0000
0000
0000
0000
0000
0000
0000
1000
0000
0000
0010
0000
0000
0100
0000
0000
0001
0000
0000
1000
0000
0000
0000
0000
0000
0000
0000
0000
1001
0000
0000
,  // measure 6
0000
0000
0001
0010
0100
0010
0000
0100
0001
0000
0100
0010
0100
0010
0001
0000
,  // measure 7
0011
1100
0101
1100
,  // measure 8
1000
0000
0000
0010
0000
0000
0100
0000
0000
0010
0000
0000
0000
0000
0000
0001
0000
0000
0010
0000
0000
0000
0000
0000
0100
0000
0000
0010
0000
0000
1000
0000
0000
0010
0000
0000
1000
0000
0000
0000
0000
0000
0000
0000
1001
0000
0000
0000
,  // measure 9
0000
0000
0000
0000
1100
0000
0000
0000
0000
0000
0000
0000
0110
0000
0000
0000
0000
0000
0000
0000
0011
0000
0000
0000
0000
0000
0000
0000
1001
0000
0000
0000
0000
0000
0000
0000
1000
0000
0000
0010
0000
0000
0100
0000
0000
0010
0000
0000
,  // measure 10
0000
0100
1000
0000
0100
0010
1000
0010
1000
0000
1010
0000
0000
0000
0101
0000
,  // measure 11
0000
0000
1100
0000
0000
0000
0101
0000
0000
0000
0001
0010
0100
0010
0000
1000
,  // measure 12
0010
0000
0100
0010
0001
0010
0000
0000
1001
0000
1000
0020
0000
0001
0000
1000
,  // measure 13
0000
1030
0000
1000
0000
0001
0020
0000
1000
0000
0031
0000
0011
0000
0011
0000
,  // measure 14
1001
0000
1000
0010
0100
0001
1000
0001
1000
0100
0010
0200
0000
0000
0301
0000
,  // measure 15
0100
0010
0100
1000
0001
0100
0001
0100
0020
0000
0031
0000
0011
0000
0000
0011
,  // measure 16
0000
0000
0010
0000
1010
0000
0000
1010
0000
0000
0001
0000
1001
0000
1000
0100
,  // measure 17
0000
0000
0010
0000
0000
0010
0000
0010
0100
0000
1000
0000
0000
1000
0001
0000
,  // measure 18
0100
0000
0000
0010
0000
0010
0100
0000
0001
0000
1001
0000
0001
0000
0010
0000
,  // measure 19
0001
0000
0000
0001
0000
1000
0010
0000
1000
0000
1000
0001
0010
0000
0100
1000
,  // measure 20
0000
1000
0000
0001
0100
0001
0100
0010
1000
0000
0001
0000
1000
0100
1000
0100
,  // measure 21
0000
0010
0001
0000
1000
0000
0001
0000
0100
0000
0100
0001
0000
0010
0000
0001
,  // measure 22
1000
0000
0010
1000
0010
0000
1000
0000
0100
0000
0010
0100
0010
1000
0000
0010
,  // measure 23
0100
0000
1000
0000
0010
0000
0001
0000
0001
0010
0000
0100
0000
0010
1000
0000
,  // measure 24
0001
0010
0100
1000
0001
0000
1000
0000
0001
0100
0001
0100
0000
0001
1000
0000
,  // measure 25
0100
0000
0010
0000
0100
0000
0100
1000
0000
0010
0000
1000
0001
0000
0010
0001
,  // measure 26
0010
0000
0001
0000
0100
0000
0010
0100
0010
0001
0000
0010
1000
0000
0100
0000
,  // measure 27
0010
0000
1000
0000
0010
0100
0000
0010
0100
1000
0001
1000
0001
0100
0010
0000
,  // measure 28
1010
0000
0000
1000
0000
0000
1000
0000
0010
0000
1001
0000
1000
0100
1000
0100
,  // measure 29
0010
0001
0100
0010
1000
0000
0001
0000
0011
0000
0000
0001
0000
0000
0001
0000
,  // measure 30
0010
0000
1001
0000
0001
0100
0010
0100
0010
0001
0000
0010
0100
0001
1000
0000
,  // measure 31
1001
0000
0000
1100
0000
0000
0011
0000
1001
0000
1010
0000
0001
0100
0001
0100
,  // measure 32
0010
1000
0100
0010
0001
0000
1000
0000
1001
0000
0000
0101
0000
0000
1010
0000
,  // measure 33
1001
0000
0011
0000
0001
0100
1000
0100
0001
1000
0001
0000
1001
0000
0000
0000
,  // measure 34
0001
0010
0100
0010
0000
0100
0001
0000
0100
0010
0100
0010
0001
0000
0011
0000
,  // measure 35
0000
0000
1100
0000
0000
0000
0101
0000
0000
0000
1100
0000
0000
0000
1000
0010
,  // measure 36
0100
0010
0000
0001
0010
0000
0100
0010
1000
0010
0000
0000
1001
0000
0001
0020
,  // measure 37
0000
1000
0000
0001
0000
0031
0000
0001
0000
1000
0020
0000
0001
0000
1030
0000
,  // measure 38
1010
0000
1010
0000
1001
0000
0011
0000
0011
0000
0110
0000
2001
0000
0000
0010
,  // measure 39
0000
0000
0010
0000
0000
3010
0000
0000
1010
0000
0001
0000
0000
0001
0000
0000
,  // measure 40
0001
0000
1000
0100
0010
0001
0100
0010
1000
0000
1002
0000
0000
0010
0000
0000
,  // measure 41
0010
0000
0000
0013
0000
0000
0011
0000
1000
0000
0000
1000
0000
0000
1000
0000
,  // measure 42
0010
0100
0001
1000
0100
0010
0001
0000
0012
0000
1003
0000
0010
0100
0000
0010
,  // measure 43
0100
0010
0100
0000
1000
0000
0100
0000
0001
0000
1000
0100
0010
0000
0100
0010
,  // measure 44
0001
1000
0001
0100
0010
0000
2010
0000
3001
0000
0010
0100
0000
0010
0100
0010
,  // measure 45
0100
0000
0001
0000
0100
0000
1000
0000
0001
0100
0010
0000
1000
0100
0010
0001
,  // measure 46
0100
0010
1000
0000
1002
0000
0013
0000
0100
0010
0000
0100
0001
0100
0010
0000
,  // measure 47
1000
0000
0010
0000
0001
0000
1000
0001
0100
0000
0010
0100
0001
1000
0100
0010
,  // measure 48
0001
0000
2001
0000
3010
0000
0100
0010
0000
0100
1000
0100
0010
0000
0001
0000
,  // measure 49
0010
0100
0010
0000
1000
0001
1000
0000
0001
0010
0100
1000
0010
0100
0001
0000
,  // measure 50
1001
0000
1000
0200
0000
0001
0000
1000
0000
1300
0000
1000
0000
0001
0200
0000
,  // measure 51
1000
0301
0110
0110
1001
0002
0000
0010
,  // measure 52
0000
0010
0000
2003
0000
0010
0010
0010
,  // measure 53
3002
0000
0010
0000
0010
2003
0010
0010
,  // measure 54
0010
0000
0010
0000
3002
0000
0000
0000
0013
0100
1000
0001
0100
0010
2000
0000
,  // measure 55
0000
0000
3010
0100
0001
1000
0001
0010
0100
1000
0002
0103
0010
1000
0002
0013
,  // measure 56
0100
1000
0002
0000
0100
0000
0000
0000
0100
0000
0000
0000
0100
0000
0000
0000
,  // measure 57
2003
0000
0100
0100
0100
3002
0000
0100
,  // measure 58
0000
0100
2003
0100
0100
0100
0100
3002
,  // measure 59
0000
0000
0103
0010
1000
0001
0010
0100
2000
0000
0000
0000
3010
0100
0001
1000
,  // measure 60
0001
0010
0100
1000
0001
0100
0001
0100
1000
0100
0001
1000
0100
0000
0011
0000
,  // measure 61
0000
0001
0000
0000
0001
0000
0010
0000
1001
0000
0001
0100
0001
0100
0010
1000
,  // measure 62
0100
0010
0001
0000
1000
0000
1010
0000
0000
1000
0000
0000
1000
0000
0010
0000
,  // measure 63
1001
0000
1000
0100
0010
0100
0010
1000
0000
0010
0100
1000
0001
0000
1001
0000
,  // measure 64
0000
0101
0000
0000
1010
0000
1001
0000
0011
0000
1000
0100
1000
0100
0010
0001
,  // measure 65
0100
0010
1000
0000
0001
0000
1001
0000
0000
1100
0000
0000
0011
0000
1001
0000
,  // measure 66
1010
0000
1000
0100
0001
0100
1000
0001
1000
0000
1001
0000
0000
0000
1000
0010
,  // measure 67
0100
0010
0000
0100
1000
0000
0100
0010
0100
0010
1000
0000
1010
0000
0000
0000
,  // measure 68
0101
0000
0000
0000
1100
0000
0000
0000
0101
0000
0000
0000
0001
0010
0100
0010
,  // measure 69
0000
1000
0010
0000
0100
0010
0001
0010
0000
0000
1001
0000
1000
0020
0000
0001
,  // measure 70
0000
1000
0000
1030
0000
1000
0000
0001
0020
0000
1000
0000
0031
0000
0011
0000
,  // measure 71
0011
0000
1001
0000
0001
0010
0100
1000
0001
1000
0001
0100
0010
0200
0000
0000
,  // measure 72
1300
0000
0100
0010
0100
0001
1000
0100
1000
0100
0020
0000
1030
0000
1010
0000
,  // measure 73
0000
1010
0000
0000
0010
0000
0011
0000
0000
0001
1000
0010
1000
0010
0001
0000
;

//---------------dance-single - ----------------
#NOTEDATA:;
#CHARTNAME:;
#STEPSTYPE:dance-single;
#DESCRIPTION:;
#CHARTSTYLE:;
#DIFFICULTY:Medium;
#METER:13;
#RADARVALUES:0.648448,0.597830,0.500261,0.088281,0.514975,617.000000,549.000000,68.000000,12.000000,0.000000,0.000000,0.000000,0.000000,0.000000,0.648448,0.597830,0.500261,0.088281,0.514975,617.000000,549.000000,68.000000,12.000000,0.000000,0.000000,0.000000,0.000000,0.000000;
#CREDIT:;
#NOTES:
// measure 0
0000
0000
0000
0000
,  // measure 1
0000
0000
0000
0000
,  // measure 2
0000
0000
0000
0000
,  // measure 3
0001
0000
0000
0000
0000
0000
0000
1000
0001
1000
0000
0000
,  // measure 4
0010
0000
0000
0100
0000
0000
0001
0010
0000
0100
0000
0100
,  // measure 5
0000
0000
0000
0000
0100
0000
0000
0000
0000
0000
0000
0000
1000
0000
0000
0000
0010
0000
0000
0000
0000
0000
0000
0000
0100
0000
0000
0000
0000
0000
0010
0000
0000
0000
0000
0000
1001
0000
0000
0000
0000
0000
0000
0000
0000
1001
0000
0000
,  // measure 6
0000
0000
0001
0000
0010
0100
0000
0010
0100
0000
0001
0000
0100
0000
0010
0000
,  // measure 7
0011
0101
1100
0101
,  // measure 8
1000
0000
0000
0000
0000
0000
0010
0000
0000
0100
0000
0000
0000
0000
0000
0010
0000
0000
0001
0000
0000
0000
0000
0000
0010
0000
0000
0000
0000
0000
1000
0000
0000
0000
0000
0000
1001
0000
0000
0000
0000
0000
0000
0000
0001
0000
0000
0000
,  // measure 9
0000
0000
0000
0000
0010
0000
0000
0000
0000
0000
0000
0000
0110
0000
0000
0000
0000
0000
0000
0000
1000
0000
0000
0000
0000
0000
0000
0000
0001
0000
0000
0000
0000
0000
0000
0000
1000
0000
0000
0000
0000
0000
0010
0000
0000
0100
0000
0000
,  // measure 10
0000
0010
0100
0000
1000
0000
0100
0000
0010
0000
1010
0000
0000
0000
1100
0000
,  // measure 11
0000
0000
0101
0000
0000
0000
1100
0000
0000
0000
0001
0000
0010
0100
0000
0010
,  // measure 12
1000
0000
0010
0000
0001
0000
0000
0000
1001
0000
0001
0100
0000
0010
0000
0100
,  // measure 13
0000
0100
0000
0100
0000
0001
0100
0000
0010
0000
1000
0000
1010
0000
0001
0000
,  // measure 14
0011
0000
1000
0000
0010
0000
0100
0000
0001
1000
0001
2000
0000
0000
3100
0000
,  // measure 15
0001
0000
0100
0000
0010
0000
0001
1000
0001
0000
0100
0000
0110
0000
0000
0110
,  // measure 16
0000
0000
1000
0000
0110
0000
0000
0110
0000
0000
0001
0000
1001
0000
0000
0010
,  // measure 17
0000
0000
0001
0000
0000
1000
0000
0000
0010
0000
1000
0000
0000
0001
0000
0000
,  // measure 18
0010
0000
0000
0001
0000
1000
0010
0000
1000
0000
0100
0000
0000
0010
0100
0000
,  // measure 19
1000
0000
0000
0001
0000
0000
0100
0000
0010
0000
0000
0010
0100
0000
0001
0000
,  // measure 20
1000
0000
0000
1000
0100
0000
0010
0000
0001
0000
0100
0000
0010
0000
0000
0010
,  // measure 21
0000
0000
0100
0000
0001
0000
1000
0000
0100
0000
1000
0100
0000
0010
0001
0000
,  // measure 22
1000
0000
0001
1000
0001
0000
1000
0000
0010
0000
0001
0000
0000
0001
0000
0000
,  // measure 23
0010
0000
1000
0000
0001
0000
0010
0000
0100
1000
0000
1000
0001
0000
0100
0000
,  // measure 24
0010
1000
0010
0000
1000
0000
0100
0000
0010
0000
0000
0010
0000
0000
0100
0000
,  // measure 25
1000
0000
0001
0000
0100
0000
0001
0100
0000
0010
1000
0000
0001
0000
1000
0001
,  // measure 26
1000
0000
0001
0000
0010
0000
1000
0000
0000
1000
0000
0000
0010
0000
0001
0000
,  // measure 27
1000
0000
0010
0000
0100
0001
0000
0001
1000
0000
0100
0000
0010
0100
0010
0000
,  // measure 28
0001
0000
0000
0001
0000
0000
0001
0000
0010
0000
0200
0000
0010
0000
0310
0000
,  // measure 29
0100
0000
1000
0001
1000
0000
0010
0000
1000
0000
0000
1000
0000
0000
1000
0000
,  // measure 30
0010
0000
0200
0000
0001
0000
0301
0000
1000
0100
0000
0010
0001
0000
1000
0000
,  // measure 31
1010
0000
0000
1010
0000
0000
0110
0000
0010
0000
0200
0000
0010
0000
0310
0000
,  // measure 32
0100
0000
0001
1000
0001
0000
0010
0000
0011
0000
0000
0011
0000
0000
0110
0000
,  // measure 33
0010
0000
0200
0000
1000
0000
1300
0000
0001
0100
0010
0000
1010
0000
0000
0000
,  // measure 34
0001
0000
0010
0100
0000
0010
0100
0000
0001
0000
0100
0000
0010
0000
0011
0000
,  // measure 35
0000
0101
0000
1100
0000
0101
0000
1000
,  // measure 36
0010
0100
0000
0010
0001
0000
0010
0000
1000
0000
0000
0000
1001
0000
1000
0100
,  // measure 37
0000
0010
0000
0100
0000
0100
0000
0100
0000
1000
0100
0000
0010
0000
0001
0000
,  // measure 38
0011
0000
1000
0000
1010
0000
0001
0000
1000
0001
1000
0000
0200
0000
0000
0010
,  // measure 39
0000
0000
0010
0000
0000
0310
0000
0000
0011
0000
1000
0000
0000
1000
0000
0000
,  // measure 40
0010
0000
0001
0000
0010
0000
1000
0000
0001
0000
0200
0000
0000
0010
0000
0000
,  // measure 41
0010
0000
0000
0310
0000
0000
1010
0000
0001
0000
0000
0001
0000
0000
0010
0000
,  // measure 42
1000
0000
0010
0000
0001
0000
1000
0000
0001
0000
0100
0000
0010
0000
0001
0010
,  // measure 43
0000
0100
0001
0000
1000
0000
0100
0000
0010
0000
0001
1000
0000
0001
0100
0000
,  // measure 44
0010
1000
0010
1000
0001
0000
1000
0000
0100
0000
0010
0000
1000
0010
0000
0100
,  // measure 45
1000
0000
0001
0000
0100
0000
0010
0000
1000
0100
0000
0010
0001
0000
0100
0010
,  // measure 46
1000
0000
0001
0000
0010
0000
0100
0000
0001
0000
0100
0010
0000
1000
0010
0000
,  // measure 47
0100
0000
1000
0000
0001
0000
1000
0010
0000
0100
0001
0000
0010
0001
0010
0001
,  // measure 48
1000
0000
0010
0000
0100
0000
1000
0000
0100
0010
0000
0001
0010
0000
0100
0000
,  // measure 49
0001
0000
1000
0000
0100
0000
0010
0000
0001
0010
0001
0000
1000
0010
1000
0000
,  // measure 50
1001
0000
0001
0010
0000
1000
0000
0010
0000
0001
0000
0001
0000
1000
0010
0000
,  // measure 51
0001
0010
1000
1000
0100
0011
0000
1000
,  // measure 52
0000
1000
0000
1010
0000
0001
0010
0001
,  // measure 53
0011
0000
1000
0000
1000
1010
0001
0010
,  // measure 54
0001
0000
0010
0000
0011
0000
0000
0000
1000
0000
0001
1000
0001
0000
1001
0000
,  // measure 55
0000
0000
1000
0000
0001
0000
1000
0010
1000
0000
0001
0010
0001
0000
0100
0000
,  // measure 56
0010
1001
0100
0000
0100
0000
0100
0000
,  // measure 57
1001
0000
1000
0100
0010
0011
0000
1000
,  // measure 58
0000
1000
1010
0001
0100
0010
1000
1001
,  // measure 59
0000
0000
0001
0000
1000
0001
0010
0000
0011
0000
0000
0000
0001
0000
1000
0000
,  // measure 60
0001
1000
0010
0000
1010
0000
0000
0000
0001
0010
0001
0000
1000
0010
1000
0000
,  // measure 61
0000
1000
0000
0000
1000
0000
0010
0000
0200
0000
0010
0000
0310
0000
0100
0000
,  // measure 62
0001
1000
0001
0000
0010
0000
0001
0000
0000
0001
0000
0000
0001
0000
0010
0000
,  // measure 63
0200
0000
1000
0000
1300
0000
0001
0100
0000
0010
1000
0000
0001
0000
0011
0000
,  // measure 64
0000
0011
0000
0000
0110
0000
0010
0000
0200
0000
0010
0000
0310
0000
0100
0000
,  // measure 65
1000
0001
1000
0000
0010
0000
1010
0000
0000
1010
0000
0000
0110
0000
0010
0000
,  // measure 66
0200
0000
0001
0000
0301
0000
1000
0100
0010
0000
0011
0000
0000
0000
1000
0000
,  // measure 67
0010
0100
0000
0010
0100
0000
1000
0000
0100
0000
0010
0000
1010
0000
0000
0000
,  // measure 68
1100
0000
0000
0000
0101
0000
0000
0000
1100
0000
0000
0000
0001
0000
0010
0100
,  // measure 69
0000
0010
1000
0000
0010
0000
0001
0000
0000
0000
1001
0000
0001
0100
0000
0010
,  // measure 70
0000
0100
0000
0100
0000
0100
0000
0001
0100
0000
0010
0000
1000
0000
1001
0000
,  // measure 71
0010
0000
1001
0000
0001
0000
0010
0000
0100
0000
1000
0001
1000
0002
0000
0000
,  // measure 72
0103
0000
1000
0000
0100
0000
0010
0000
1000
0001
1000
0000
0100
0000
0110
0000
,  // measure 73
0000
0110
0000
0000
0001
0000
0110
0000
0000
0110
0000
0000
1000
0001
1000
0000
;

//---------------dance-single - ----------------
#NOTEDATA:;
#CHARTNAME:;
#STEPSTYPE:dance-single;
#DESCRIPTION:;
#CHARTSTYLE:;
#DIFFICULTY:Easy;
#METER:9;
#RADARVALUES:0.387808,0.407612,0.323698,0.176563,0.066211,369.000000,325.000000,44.000000,24.000000,0.000000,0.000000,0.000000,0.000000,0.000000,0.387808,0.407612,0.323698,0.176563,0.066211,369.000000,325.000000,44.000000,24.000000,0.000000,0.000000,0.000000,0.000000,0.000000;
#CREDIT:;
#NOTES:
// measure 0
0000
0000
0000
0000
,  // measure 1
0000
0000
0000
0000
,  // measure 2
0000
0000
0000
0000
,  // measure 3
0001
0000
0000
1000
,  // measure 4
0000
0000
0011
0000
,  // measure 5
0000
0000
0000
0000
1010
0000
0000
0000
0001
0000
1000
0000
2002
0000
0000
3003
,  // measure 6
0000
0001
0001
0000
0001
0010
0100
0000
,  // measure 7
0011
0101
1100
0101
,  // measure 8
1000
1000
0000
0001
0100
0010
2000
0000
,  // measure 9
0000
0000
3000
0000
0000
0000
0002
0000
0000
0000
0000
0000
0000
0000
0003
0000
0000
0000
1000
0000
0000
1000
0000
0000
,  // measure 10
0000
1000
0010
0100
0000
1010
0000
1100
,  // measure 11
0000
0101
0000
1100
0000
0001
0001
0000
,  // measure 12
1000
0000
0100
0000
0010
0000
0000
0000
0100
0000
0100
0000
0000
1001
0000
0000
,  // measure 13
0000
0100
0000
0000
0000
0100
0000
0000
1001
0000
0000
0000
0100
0000
0000
0000
,  // measure 14
1001
0002
0000
0103
0000
0010
0100
0000
,  // measure 15
2000
0000
0000
0000
3100
0000
0000
0000
0010
0000
0100
0000
0001
0000
0000
0001
,  // measure 16
0000
0000
1000
0000
0001
0000
0000
0001
0000
0000
1000
0000
1002
0000
0000
0000
,  // measure 17
0000
0000
0000
0000
0000
0023
0000
0000
,  // measure 18
0000
0000
0000
0130
1000
0020
0000
0000
,  // measure 19
0000
0000
0230
0000
,  // measure 20
0000
0000
0301
1000
0001
0010
0100
0000
,  // measure 21
0010
0000
0100
0000
1000
0010
0100
0000
,  // measure 22
0001
1000
0001
1000
0100
0010
0000
1000
,  // measure 23
0000
0010
0000
0001
1000
0001
0000
1000
,  // measure 24
1000
0001
1000
0010
0100
0000
0010
0000
,  // measure 25
0100
0000
0001
0010
0100
0000
1000
0001
,  // measure 26
1000
0001
0100
0010
0000
0001
0000
0010
,  // measure 27
0000
1000
0001
1000
0100
0010
0001
0000
,  // measure 28
1001
0000
0000
1000
0100
0002
0000
0000
,  // measure 29
0000
0003
0000
0000
1100
0000
0000
0001
,  // measure 30
0100
0000
2000
0000
0000
0000
3000
0000
0000
0101
0000
0000
0000
0000
0000
0000
,  // measure 31
1010
0000
0000
0001
0010
2000
0000
0000
,  // measure 32
0000
3000
0000
0000
0011
0000
0000
1000
,  // measure 33
0010
0002
0000
0003
0000
0010
1000
0000
,  // measure 34
0001
0001
0000
0001
0010
0100
0000
0011
,  // measure 35
0000
0101
0000
1100
0000
0101
0000
1000
,  // measure 36
1000
0000
0001
0100
0010
0000
0100
0100
,  // measure 37
0000
1001
0000
0000
0000
0100
0000
0000
0000
0100
0000
0000
1001
0000
0000
0000
,  // measure 38
0011
0110
1100
0002
,  // measure 39
0000
0000
0003
0000
0100
0020
0000
0000
,  // measure 40
0030
1000
0010
0100
0001
2000
0000
0000
,  // measure 41
0000
3000
0000
0100
0020
0000
0000
0030
,  // measure 42
0001
0010
0100
1000
0001
0100
0010
0000
,  // measure 43
0001
0010
0100
0010
0000
0010
0000
0100
,  // measure 44
0001
1000
0000
1000
0100
0010
0000
1000
,  // measure 45
0010
0100
1000
0000
1000
0000
0001
1000
,  // measure 46
0001
0000
1000
0010
0100
0000
1000
0100
,  // measure 47
0010
0100
0000
0010
0000
0001
0010
1000
,  // measure 48
0000
0001
0010
0100
0000
0001
0100
0010
,  // measure 49
0100
0000
0010
0000
1000
0010
0001
0000
,  // measure 50
0100
0000
0100
0000
0000
1010
0000
0000
0000
0100
0000
0000
0000
0100
0000
0000
,  // measure 51
0011
0000
1000
0010
0100
0001
0000
0010
,  // measure 52
0000
0010
0000
0001
0000
1000
0000
1000
,  // measure 53
0001
0000
0100
0000
0100
0001
1000
0000
,  // measure 54
1000
0000
0001
0000
1000
0100
0010
0001
,  // measure 55
0000
1000
0000
0010
0100
0001
0010
0001
,  // measure 56
0010
0001
0100
0000
0100
0000
0100
0000
,  // measure 57
0001
0000
1000
0000
1000
0001
0000
0010
,  // measure 58
0000
0010
0001
1000
0000
1000
0000
0001
,  // measure 59
0000
1000
0010
0100
0001
0000
1000
0100
,  // measure 60
1000
0100
0001
0100
1000
0000
0000
1001
,  // measure 61
0000
0000
0001
0100
2000
0000
0000
0000
,  // measure 62
3000
0000
0000
0101
0000
0000
1000
0100
,  // measure 63
0002
0000
0000
0000
0003
0000
0000
1100
0000
0000
0000
0000
0000
0000
0011
0000
,  // measure 64
0000
0000
1000
0010
0002
0000
0000
0000
,  // measure 65
0003
0000
0000
1010
0000
0000
0001
0010
,  // measure 66
2000
0000
3000
0000
0010
0001
0000
1000
,  // measure 67
1000
0000
1000
0010
0100
0000
1010
0000
,  // measure 68
1100
0000
0101
0000
1100
0000
0001
0001
,  // measure 69
0000
0000
1000
0000
0100
0000
0010
0000
0000
0000
0100
0000
0100
0000
0000
1001
,  // measure 70
0000
0000
0000
0100
0000
0000
0000
0100
0000
0000
1001
0000
0000
0000
0100
0000
,  // measure 71
0000
1001
2000
0000
3010
0000
0100
0010
,  // measure 72
0000
0002
0000
0013
0000
0100
0010
1000
,  // measure 73
0000
1000
0000
0000
0001
0000
1000
0000
0000
1000
0000
0000
0001
0000
1001
0000
;

//---------------dance-single - ----------------
#NOTEDATA:;
#CHARTNAME:;
#STEPSTYPE:dance-single;
#DESCRIPTION:;
#CHARTSTYLE:;
#DIFFICULTY:Beginner;
#METER:5;
#RADARVALUES:0.193378,0.271741,0.198633,0.117709,0.022070,184.000000,157.000000,27.000000,16.000000,0.000000,0.000000,0.000000,0.000000,0.000000,0.193378,0.271741,0.198633,0.117709,0.022070,184.000000,157.000000,27.000000,16.000000,0.000000,0.000000,0.000000,0.000000,0.000000;
#CREDIT:;
#NOTES:
// measure 0
0000
0000
0000
0000
,  // measure 1
0000
0000
0000
0000
,  // measure 2
0000
0000
0000
0000
,  // measure 3
0001
0000
0000
1000
,  // measure 4
0000
0000
0010
0000
,  // measure 5
0000
0100
0000
1001
,  // measure 6
0000
0000
0000
0000
,  // measure 7
0001
0001
0100
0100
,  // measure 8
0001
0000
0000
1001
,  // measure 9
0000
0110
0000
1000
,  // measure 10
0000
0000
0000
0000
0000
1000
0000
1000
,  // measure 11
0000
0100
0000
0100
0000
1000
0000
0000
,  // measure 12
0000
0000
1001
0000
,  // measure 13
0000
0100
0000
0000
0000
0000
0000
0000
0100
0000
0000
0000
1001
0000
0000
0000
,  // measure 14
0000
0001
0000
0010
0000
0001
0000
0000
,  // measure 15
1000
0010
1000
1001
,  // measure 16
0000
1001
0000
1002
,  // measure 17
0000
0000
0003
0000
0000
0020
0000
0000
,  // measure 18
0000
0030
0000
0000
0000
0200
0000
0000
,  // measure 19
0000
0300
0000
0000
2000
0000
0000
0000
,  // measure 20
3000
0000
0001
0001
,  // measure 21
0001
0000
0100
0000
,  // measure 22
0100
0000
0000
0001
0000
1000
0000
0001
,  // measure 23
0000
0000
0000
0010
0000
0000
0000
0100
,  // measure 24
0000
1000
1000
1000
,  // measure 25
0000
0100
0000
0100
,  // measure 26
0000
1000
0000
0001
0000
1000
0000
0000
,  // measure 27
0000
0010
0000
0000
0000
0100
0000
0000
,  // measure 28
0002
0000
0000
0003
0000
1001
0000
0000
,  // measure 29
0000
0000
0000
0000
0020
0000
0000
0030
,  // measure 30
0000
0000
1001
0000
0000
0000
0000
0000
0000
0010
0000
0000
0000
0000
0000
0000
,  // measure 31
2000
0000
0000
3000
0000
1001
0000
0000
,  // measure 32
0000
0000
0000
0000
0200
0000
0000
0300
,  // measure 33
0000
1001
0000
0000
0000
0000
0110
0000
,  // measure 34
0001
0000
0000
0000
0000
0000
0000
1000
,  // measure 35
0000
1000
0000
0001
0000
0001
0000
0100
,  // measure 36
0000
0000
0000
1001
,  // measure 37
0000
0000
0000
0000
0000
0100
0000
0000
0000
0000
0000
0000
0100
0000
0000
0000
,  // measure 38
1001
0001
0001
2000
,  // measure 39
0000
0000
3000
0000
0000
0020
0000
0030
,  // measure 40
0000
0010
0000
0100
0000
0002
0000
0000
,  // measure 41
0000
0003
0000
0000
0020
0000
0030
0000
,  // measure 42
0100
1000
0001
0001
,  // measure 43
0100
0000
0000
0010
0000
0000
0000
1000
,  // measure 44
0000
0000
0000
0100
0000
0010
0000
0100
,  // measure 45
0000
0010
0000
0001
,  // measure 46
0000
1000
1000
0100
,  // measure 47
0000
0010
0000
0000
0000
0001
0000
0000
,  // measure 48
0000
0100
0000
0010
0000
0100
0000
0000
,  // measure 49
0010
0000
1000
0000
,  // measure 50
1001
0000
0000
0000
0000
0000
0000
0000
0000
0010
0000
0000
0000
0000
0000
0000
,  // measure 51
1001
0000
0010
0000
0000
0001
0000
0000
,  // measure 52
0000
0000
0000
1000
0000
0000
0000
0000
,  // measure 53
0001
0000
0000
0000
0000
1000
0000
0000
,  // measure 54
0000
0000
0001
0000
0000
0100
0000
0001
,  // measure 55
0000
0000
0000
0010
0000
0100
0000
1000
,  // measure 56
0000
1000
0000
0000
0000
0000
0000
0000
,  // measure 57
0001
0000
0000
0000
0000
1000
0000
0000
,  // measure 58
0000
0000
0001
0000
0000
0000
0000
1000
,  // measure 59
0000
0010
1000
0000
,  // measure 60
0100
0000
0010
0000
0001
0000
0000
2000
,  // measure 61
0000
3000
1001
0000
,  // measure 62
0000
0000
0000
0020
0000
0000
0030
0000
,  // measure 63
1001
0000
0000
0000
0000
0000
0000
0010
0000
0000
0000
0000
0000
0000
0002
0000
,  // measure 64
0000
0003
1001
0000
,  // measure 65
0000
0000
0000
0200
0000
0000
0300
0000
,  // measure 66
1001
0000
0000
0000
0000
0110
0000
1000
,  // measure 67
0000
0000
0000
0001
,  // measure 68
0001
1000
1000
0100
,  // measure 69
0000
0000
0000
0000
0000
1001
0000
0000
,  // measure 70
0000
0000
0000
0100
0000
0000
0000
0000
0000
0000
0100
0000
0000
0000
1001
0000
,  // measure 71
0000
1000
0010
1000
,  // measure 72
0000
0001
0000
0010
0000
0001
0000
1001
,  // measure 73
0000
0000
0000
1001
0000
0000
0000
1001
;
