#VERSION:0.83;
#TITLE:GRAVITON;
#SUBTITLE:;
#ARTIST:L.E.D.;
#TITLETRANSLIT:;
#SUBTITLETRANSLIT:;
#ARTISTTRANSLIT:;
#GENRE:Neurofunk;
#ORIGIN:;
#CREDIT:;
#BANNER:GRAVITON.png;
#BACKGROUND:GRAVITON-bg.png;
#PREVIEWVID:;
#JACKET:GRAVITON-jacket.png;
#CDIMAGE:;
#DISCIMAGE:;
#LYRICSPATH:;
#CDTITLE:cdtitle.png;
#MUSIC:GRAVITON.ogg;
#OFFSET:1.119297;
#SAMPLESTART:41.691189;
#SAMPLELENGTH:10.378380;
#SELECTABLE:YES;
#BPMS:0.000=185.000,
64.000=92.500,
66.000=185.000,
188.000=92.500,
190.000=185.000,
264.000=92.500,
265.000=185.000;
#STOPS:97.500=0.324,
160.750=0.324,
221.750=0.324,
236.750=0.324,
264.000=0.324,
278.000=0.324,
312.750=0.324;
#DELAYS:;
#WARPS:;
#TIMESIGNATURES:0.000=4=4;
#TICKCOUNTS:0.000=4;
#COMBOS:0.000=1;
#SPEEDS:0.000=1.000=0.000=0;
#SCROLLS:0.000=1.000;
#FAKES:;
#LABELS:0.000=Song Start;
#BGCHANGES:0.500=GRAVITON.mp4=1.000=1=0=1===CrossFade==,
99999=-nosongbg-=1.000=0=0=0 // don't automatically add -songbackground-
;
#KEYSOUNDS:;
#ATTACKS:
;

//---------------dance-single - ----------------
#NOTEDATA:;
#CHARTNAME:;
#STEPSTYPE:dance-single;
#DESCRIPTION:;
#CHARTSTYLE:;
#DIFFICULTY:Challenge;
#METER:18;
#RADARVALUES:1.102577,1.159391,0.657213,0.825729,1.061652,916.000000,838.000000,78.000000,98.000000,0.000000,0.000000,0.000000,0.000000,0.000000,1.102577,1.159391,0.657213,0.825729,1.061652,916.000000,838.000000,78.000000,98.000000,0.000000,0.000000,0.000000,0.000000,0.000000;
#CREDIT:;
#OFFSET:1.119297;
#BPMS:0.000000=185.000000
,64.000000=92.500000
,66.000000=185.000000
,188.000000=92.500000
,190.000000=185.000000
,264.000000=92.500000
,265.000000=185.000000
;
#STOPS:97.500000=0.324323
,160.750000=0.324325
,221.750000=0.324325
,236.750000=0.324317
,264.000000=0.324325
,278.000000=0.324325
,312.750000=0.324325
;
#DELAYS:;
#WARPS:;
#TIMESIGNATURES:0.000000=4=4
;
#TICKCOUNTS:0.000000=4
;
#COMBOS:0.000000=1
;
#SPEEDS:0.000000=1.000000=0.000000=0
;
#SCROLLS:0.000000=1.000000
;
#FAKES:;
#LABELS:0.000000=Song Start
;
#NOTES:
0000
0000
0000
0000
,
0000
0000
0000
0000
,
0000
0000
0000
0000
,
0000
0000
0000
0000
,
0000
0000
0000
0000
,
0001
0010
0010
0000
0100
1000
1000
0001
,
0000
1000
0010
0100
0001
1000
0000
0001
,
1000
0010
0010
0000
0100
0001
0001
1000
,
0000
0001
0010
0100
1000
0001
0000
1000
,
2001
0010
3001
0000
2000
0100
0100
3001
,
0000
0001
0010
0100
1000
0010
0100
0001
,
1002
0010
1003
0000
0002
0100
0100
1003
,
0000
1000
0010
0100
0001
0010
0100
1000
,
2001
0010
3001
0000
1002
0010
1003
0001
,
1002
0100
0103
0000
2001
0100
3100
1000
,
0001
0000
0001
0000
0100
0000
0100
0000
0010
0100
0001
1000
0100
0010
0001
1000
,
0020
0230
0302
0003
2000
3200
0300
0020
0031
0000
1000
0000
2010
0000
0000
3010
,
0100
0010
1000
0000
0001
0000
0001
0000
1000
0000
0001
0000
0012
0000
0000
0013
,
0100
0010
0001
0000
1000
0000
1000
0000
0001
0000
1000
0000
2010
0000
0000
3010
,
0100
0010
1000
0000
0001
0000
0001
0000
1000
0000
0100
0000
0210
0000
0000
0000
,
0302
0000
0203
0000
2300
0000
3001
0100
0010
0000
0100
0000
0102
0000
0000
1003
,
0010
0100
0001
0000
1000
0000
1000
0000
0001
0000
1000
0000
2100
0000
0000
3001
,
0010
0100
1000
0000
0001
0000
0001
0000
1000
0000
0001
0000
0102
0000
0000
1003
,
0010
0100
0001
0000
0010
0000
0100
1000
0001
0000
1000
0010
1000
0010
0100
0000
,
0001
0010
0001
0010
0001
0010
0100
0000
1002
0000
0000
0013
0001
1000
0010
0000
,
0100
0000
0100
0000
1000
0000
0100
0000
0201
0000
0000
0310
0100
0001
1000
0000
,
0100
0000
0100
0000
0001
0000
0100
0000
1200
0000
0000
0310
0100
1000
0001
0000
,
0100
0100
0010
0100
0210
0000
2300
3200
,
0302
0000
1003
0100
0010
0000
0000
0000
0021
0000
0000
0130
0010
0001
1000
0000
,
0001
0000
0001
0000
0100
0000
0010
0000
0021
0000
0000
0130
0010
1000
0001
0000
,
0010
0000
0010
0000
0100
0000
0010
0000
1020
0000
0000
0130
0010
0001
1000
0000
,
0010
0000
0100
0010
0200
0000
0000
0000
0302
0000
0000
0000
1003
0100
0010
0001
,
1000
0000
0001
0100
0010
0000
1000
0000
1020
0000
0130
0010
2000
0000
3002
0000
,
1003
0000
2200
0000
3300
0000
0110
0000
0011
0000
0010
0001
0010
0001
1000
0001
,
0100
0000
0010
1000
0001
0000
1000
0000
1200
0000
0310
0100
2000
0000
3002
0000
,
1003
0000
2020
0000
3030
0000
0101
0000
1001
0000
0001
0010
0100
1000
0001
0100
,
0010
0000
1000
0100
0010
0000
0001
0000
0021
0000
0130
0010
0002
0000
2003
0000
,
3001
0000
0202
0000
0303
0000
0110
0000
1010
0000
0010
1000
0010
1000
0001
1000
,
0100
0000
0010
0001
1000
0000
0001
0000
0201
0000
0310
0100
0002
0000
2003
0000
,
3001
0000
1000
0100
0010
0000
0000
1100
0000
0000
0010
0000
0000
0101
0000
0000
,
0001
0100
0010
1000
1002
0000
1003
0001
0020
0000
0230
0000
0310
0000
2020
0000
,
3030
0000
0110
0000
0011
0000
0010
0001
0010
0001
1000
0010
0100
0000
0001
1000
,
0100
0000
0010
0000
0210
0000
1300
0001
0200
0000
0320
0000
0130
0000
2200
0000
,
3300
0000
0110
0000
0101
0000
0001
0100
0010
1000
0001
0010
0200
0000
1000
0000
,
0310
0000
0000
0000
2001
0000
3001
1000
0020
0000
0230
0000
0310
0000
0022
0000
,
0033
0000
0110
0000
1010
0000
0010
1000
0010
1000
0001
0010
0100
0000
1000
0001
,
0100
0000
0010
0000
0210
0000
0301
1000
0100
0000
0010
0000
0100
0010
0001
0100
,
0020
2030
3002
0003
0020
0230
0300
2000
3001
0000
0000
0000
1001
0000
0001
0100
,
0001
0100
0010
0000
0100
0001
0100
0001
0010
0000
0001
0100
0001
0100
0010
0000
,
0100
0001
0100
0001
0010
0000
0100
1000
0001
0000
0001
0000
1001
0000
1000
0100
,
1000
0100
0010
0000
0100
1000
0100
1000
0010
0000
1000
0100
1000
0100
0010
0000
,
0100
1000
0100
1000
0010
0000
0100
0001
1000
0000
0000
0000
1001
0000
1000
0010
,
1000
0010
0100
0000
1000
0100
1000
0100
0010
0000
1000
0100
1000
0100
0010
0000
,
1000
0010
1000
0010
0100
0000
1000
0001
1000
0000
1000
0000
1001
0000
0001
0010
,
0001
0010
0100
0000
0001
0100
0001
0100
0010
0000
0001
0100
0001
0100
0010
0000
,
0001
0010
0100
0010
2000
0000
0002
3003
0001
0100
0010
0100
0010
0100
0001
0100
,
0010
0100
0010
0100
1000
0000
0100
0001
1000
0100
0010
0100
0010
0100
1000
0100
,
0010
0100
0010
0100
0001
0000
0100
0000
1000
0010
0100
0010
0100
0010
1000
0010
,
0100
0010
0100
0010
0001
0000
0010
1000
0001
0010
0100
0010
0100
0010
1000
0010
,
0100
0010
0002
0003
0001
0100
0010
0100
0010
0100
1000
0100
0010
1000
0001
1000
,
0100
0000
0010
0001
1000
0100
0010
0100
0010
0100
0001
0100
0010
0001
1000
0001
,
0100
0000
0010
0100
0010
0100
0010
0100
0001
1000
0100
0010
0001
0010
0100
1000
,
0001
0100
0010
0100
0001
1000
0100
0010
0100
1000
0010
0100
0001
1000
0100
0010
,
0001
0000
0010
0000
0011
0000
0000
0001
1000
0001
0010
0000
0001
0000
0101
0000
,
0000
0001
0101
2000
3200
0000
0320
0000
,
0031
0000
1000
0000
1010
0000
0000
1000
0001
1000
0010
0000
1000
0000
1100
0000
,
0110
0000
0000
0000
0010
0100
1000
0001
2000
0000
0010
0000
0010
0000
3010
0000
,
0001
0010
1000
0001
1002
0010
0010
0013
,
1000
0000
0010
0000
0001
0000
1000
0000
0001
0100
0010
1000
0001
0010
0100
1000
,
0010
0100
0001
0010
0100
1000
0001
0100
0010
0000
0000
0000
0010
0100
0001
1000
,
0100
0010
0001
1000
0001
0000
0100
0000
0210
0000
0000
1300
0100
0010
1000
0000
,
1010
0000
1000
0001
0010
0000
0100
0010
0200
0000
0000
0301
0100
0010
0001
0000
,
0011
0000
0001
1000
0010
0000
0100
0010
0200
0000
0000
1300
0100
0010
1000
0000
,
1010
0000
1000
0001
0010
0000
0100
1000
0001
0000
1001
0000
0001
1000
0010
0000
,
1010
0000
0010
1000
0100
0000
0000
0000
0120
0000
0000
1030
0010
0100
0010
0000
,
0011
0000
0010
0001
1000
0000
0010
0100
0020
0000
0000
0031
0010
0100
0010
0000
,
1010
0000
0010
1000
0001
0000
0010
0100
0020
0000
0000
1030
0010
0100
0010
0000
,
0011
0000
0001
1000
0010
0100
0010
0100
0001
1000
0001
1000
0100
0010
0001
1000
,
0010
0100
0001
0010
0210
0000
0000
0301
0100
0010
0001
0000
1001
0000
1000
0010
,
0100
0000
1000
0100
0020
0000
0000
0031
0010
0100
0001
0000
1001
0000
0001
0010
,
0100
0000
0001
0100
0020
0000
0000
1030
0010
0100
1000
0000
1001
0000
0001
1000
,
0010
0000
0100
0001
1000
0000
1001
0000
1000
0001
0010
0000
0011
0000
0010
0001
,
0100
0000
0010
0100
2000
0000
0000
3001
0010
0100
0010
0000
1010
0000
0001
1000
,
0100
0000
0010
0100
0002
0000
0000
1003
0010
0100
0010
0000
0001
0000
1000
0000
,
2001
0010
0001
3001
1002
0010
1000
1003
,
0001
0010
0100
1000
0001
1000
0010
0100
0001
1000
0001
0010
0100
1000
0010
0100
,
0001
0000
0000
0000
;

//---------------dance-single - ----------------
#NOTEDATA:;
#CHARTNAME:;
#STEPSTYPE:dance-single;
#DESCRIPTION:;
#CHARTSTYLE:;
#DIFFICULTY:Hard;
#METER:16;
#RADARVALUES:0.909987,0.978236,0.606658,0.766748,0.589806,756.000000,684.000000,72.000000,91.000000,0.000000,0.000000,0.000000,0.000000,0.000000,0.909987,0.978236,0.606658,0.766748,0.589806,756.000000,684.000000,72.000000,91.000000,0.000000,0.000000,0.000000,0.000000,0.000000;
#CREDIT:;
#OFFSET:1.119297;
#BPMS:0.000000=185.000000
,64.000000=92.500000
,66.000000=185.000000
,188.000000=92.500000
,190.000000=185.000000
,264.000000=92.500000
,265.000000=185.000000
;
#STOPS:97.500000=0.324323
,160.750000=0.324325
,221.750000=0.324325
,236.750000=0.324317
,264.000000=0.324325
,278.000000=0.324325
,312.750000=0.324325
;
#DELAYS:;
#WARPS:;
#TIMESIGNATURES:0.000000=4=4
;
#TICKCOUNTS:0.000000=4
;
#COMBOS:0.000000=1
;
#SPEEDS:0.000000=1.000000=0.000000=0
;
#SCROLLS:0.000000=1.000000
;
#FAKES:;
#LABELS:0.000000=Song Start
;
#NOTES:
0000
0000
0000
0000
,
0000
0000
0000
0000
,
0000
0000
0000
0000
,
0000
0000
0000
0000
,
0000
0000
0000
0000
,
0001
0010
0001
0000
0010
0001
1000
0001
,
0000
0100
0001
1000
0100
0010
0000
0001
,
1000
0010
1000
0000
0010
1000
0001
1000
,
0000
0100
1000
0001
0100
0010
0000
0100
,
0201
0000
1300
0000
1000
0100
0010
1000
,
0000
0010
1000
0010
0100
0001
1000
0100
,
1200
0000
0301
0000
0001
0100
0010
0001
,
0000
0010
0001
0010
0100
1000
0001
0100
,
0201
0000
1300
0000
0101
0001
1000
0100
,
1200
0000
0301
0000
1100
1000
0001
0100
,
0010
0000
0010
0000
0100
0000
0100
0000
0001
1000
0001
0000
1000
0100
0010
0001
,
2000
0000
0000
0000
3001
0100
0120
0000
,
0130
0010
0100
0000
0001
0000
0001
0000
1000
0000
0100
0000
0120
0000
0000
0000
,
0130
0010
0100
0000
1000
0000
1000
0000
0001
0000
0100
0000
0120
0000
0000
0000
,
0130
0010
0100
0000
0001
0000
0001
0000
1000
0000
0100
0000
0210
0000
0000
0000
,
0302
0000
0203
0000
2300
0000
3001
0100
0010
0000
1000
0000
1020
0000
0000
0000
,
1030
0010
0100
0000
0001
0000
0001
0000
1000
0000
0001
0000
0021
0000
0000
0000
,
0031
0010
0100
0000
1000
0000
1000
0000
0001
0000
1000
0000
1020
0000
0000
0000
,
1030
0010
0100
0000
0001
0000
0001
0000
1000
0000
0001
0010
0001
0000
0000
0000
,
1000
0010
1000
0010
1000
0000
0010
0000
1002
0000
0000
0000
0013
0100
0010
0000
,
0001
0000
0001
0000
0100
0000
1000
0000
1200
0000
0000
0000
0310
0100
0010
0000
,
1000
0000
1000
0000
0100
0000
0001
0000
0201
0000
0000
0000
0310
0100
0010
0000
,
0001
0001
1000
0010
0210
0000
2300
3200
,
0302
0000
1003
0100
0010
0000
0000
0000
0021
0000
0000
0000
0130
1000
0001
0000
,
1000
0000
1000
0000
0010
0000
0001
0000
0021
0000
0000
0000
0130
0010
1000
0000
,
0001
0000
0001
0000
0010
0000
1000
0000
1020
0000
0000
0000
0130
0010
0001
0000
,
1000
0000
1000
0000
0002
0000
0000
0000
0203
0000
0000
0000
0310
1000
0010
1000
,
0001
0000
1000
0100
0010
0000
0001
0000
0021
0000
0000
0000
0130
0000
0010
0000
,
0001
0000
1002
0000
0000
0000
0103
0000
0101
0000
0100
0000
0001
1000
0100
0000
,
0010
0000
0001
1000
0010
0000
0100
0000
0201
0000
0000
0000
0310
0000
0100
0000
,
0001
0000
1002
0000
0000
0000
0013
0000
0110
0000
0100
0000
0010
0100
1000
0000
,
0001
0000
1000
0001
0100
0000
0010
0000
1020
0000
0000
0000
0130
0000
0010
0000
,
1000
0000
2001
0000
0000
0000
3100
0000
1100
0000
0100
0000
1000
0001
0100
0000
,
0010
0000
1000
0001
0010
0000
0100
0000
1200
0000
0000
0000
0310
0000
0100
0000
,
1000
0000
0001
1000
0010
0000
0000
0110
0000
0000
0010
0000
0000
1010
0000
0000
,
1000
0001
1000
0001
2001
0000
0000
0000
3100
0000
0010
0000
0100
0000
0201
0000
,
0000
0000
0310
0000
0011
0000
0010
0000
0100
1000
0001
0000
1000
0000
0001
0100
,
0010
1000
1002
0000
0013
0100
0010
1020
,
0000
0000
0031
0000
0011
0000
0001
0000
1000
0010
1000
0000
0001
0000
0010
0100
,
1000
0000
1002
0000
0103
0010
0100
1200
,
0000
0000
0310
0000
1010
0000
0010
0000
0100
0001
1000
0000
0001
0000
1000
0100
,
0010
0000
0001
0000
2001
0000
0000
0000
3010
0000
0100
0000
0001
1000
0001
1000
,
0200
0000
0310
0012
,
1003
0002
1000
0000
0000
0000
0103
0002
0100
0000
0000
0000
1003
0002
1000
0000
,
0000
0000
0013
0001
0010
0000
0001
0000
1000
0000
0010
0000
2010
0000
0000
0000
,
3001
2000
0001
0000
0000
0000
3100
2000
0100
0000
0000
0000
3001
2000
0001
0000
,
0000
0000
3010
1000
0010
0000
0100
0000
0001
0000
0000
0000
2001
0000
0000
0000
,
3100
2000
0001
0000
0000
0000
3010
2000
0001
0000
0000
0000
3100
2000
0001
0000
,
0000
0000
3010
1000
0001
0000
1000
0000
0100
0000
1000
0000
1002
0000
0000
0000
,
0103
0002
1000
0000
0000
0000
0013
0002
1000
0000
0000
0000
0103
0002
1000
0000
,
0000
0000
0013
0100
2000
0000
0002
3003
1002
0000
0103
0010
0100
0000
2001
0000
,
0000
0000
3100
0000
1000
0000
0001
0100
0020
0000
0130
0010
0100
0000
1020
0000
,
0000
0000
0130
0001
1000
0000
0100
0000
0020
0000
0130
0010
0100
0000
0021
0000
,
0000
0000
0130
0000
0010
0000
0001
1000
0010
0000
0100
0000
0001
1000
0001
0000
,
1000
0100
0010
0001
0012
0000
1003
0001
0100
0000
0201
0000
0000
0000
0310
0100
,
0010
0000
1000
0000
2010
0000
3001
1000
0100
0000
1200
0000
0000
0000
0310
0100
,
0010
0000
0001
0000
1000
0000
0001
0000
1000
0010
1000
0000
0001
0010
0001
0000
,
0100
0010
0100
0010
0100
0010
0100
0010
1000
0001
1000
0001
1000
0100
0010
0001
,
1000
0000
1020
0000
0100
0130
0000
1020
,
0000
0130
2010
0001
3002
0000
0023
0000
,
0130
0000
0021
0000
0100
0130
0000
0100
,
1001
0000
0000
0000
1000
0010
0100
0001
2000
0000
0100
0000
0100
0000
3100
0000
,
0001
0100
1000
0001
1002
0100
0100
0103
,
1000
0000
0100
0000
0001
0000
1000
0000
0100
0010
0100
0010
0100
0010
0100
0010
,
0001
1000
0001
1000
0001
1000
0001
1000
0010
0000
0000
0000
1000
0010
1000
0000
,
0001
0010
0001
0000
1000
0000
0010
0000
2010
0000
0000
3010
0100
0010
1000
0000
,
0001
0000
1000
0001
0010
0000
0001
0000
0012
0000
0000
0013
0100
0010
0001
0000
,
1000
0000
0001
1000
0010
0000
1000
0000
2010
0000
0000
3010
0100
0010
1000
0000
,
0001
0000
1000
0000
0100
0000
0010
0100
1000
0000
1000
0000
0010
0100
0001
0000
,
0100
0000
0001
1000
0100
0000
0000
0000
0210
0000
0000
0310
0100
1000
0001
0000
,
1000
0000
0001
1000
0010
0000
0100
0000
0210
0000
0000
0310
0100
0001
1000
0000
,
0001
0000
1000
0001
0010
0000
0100
0000
0210
0000
0000
0310
0100
1000
0001
0000
,
1000
0000
0001
0000
1000
0010
1000
0000
0010
0100
0010
0000
0100
0010
0100
0000
,
0001
0100
0010
1000
1002
0000
0000
0013
0100
0010
0100
0000
0001
0000
0100
0010
,
0001
0000
1000
0000
2001
0000
0000
3010
0100
0010
0100
0000
1000
0000
0100
0010
,
1000
0000
0001
0000
1002
0000
0000
0013
0100
0010
0100
0000
0001
0000
0100
0010
,
0001
0000
0100
0010
1000
0000
1000
0000
0100
0010
0001
0000
1000
0000
0001
0100
,
0010
0000
1000
0000
1020
0000
0000
1030
0010
0100
0010
0000
0001
0000
0010
1000
,
0001
0000
0010
0000
0021
0000
0000
0031
0010
0100
0010
0000
1000
0000
0010
0001
,
2000
0010
3010
1000
1002
0010
0013
0001
,
1000
0010
0100
0000
0001
0010
0100
0000
1000
0010
0100
0000
0001
0010
0100
1000
,
0001
0000
0000
0000
;

//---------------dance-single - ----------------
#NOTEDATA:;
#CHARTNAME:;
#STEPSTYPE:dance-single;
#DESCRIPTION:;
#CHARTSTYLE:;
#DIFFICULTY:Medium;
#METER:13;
#RADARVALUES:0.651195,0.652157,0.446568,0.572955,0.008426,541.000000,488.000000,53.000000,68.000000,0.000000,0.000000,0.000000,0.000000,0.000000,0.651195,0.652157,0.446568,0.572955,0.008426,541.000000,488.000000,53.000000,68.000000,0.000000,0.000000,0.000000,0.000000,0.000000;
#CREDIT:;
#OFFSET:1.119297;
#BPMS:0.000000=185.000000
,64.000000=92.500000
,66.000000=185.000000
,188.000000=92.500000
,190.000000=185.000000
,264.000000=92.500000
,265.000000=185.000000
;
#STOPS:97.500000=0.324323
,160.750000=0.324325
,221.750000=0.324325
,236.750000=0.324317
,264.000000=0.324325
,278.000000=0.324325
,312.750000=0.324325
;
#DELAYS:;
#WARPS:;
#TIMESIGNATURES:0.000000=4=4
;
#TICKCOUNTS:0.000000=4
;
#COMBOS:0.000000=1
;
#SPEEDS:0.000000=1.000000=0.000000=0
;
#SCROLLS:0.000000=1.000000
;
#FAKES:;
#LABELS:0.000000=Song Start
;
#NOTES:
0000
0000
0000
0000
,
0000
0000
0000
0000
,
0000
0000
0000
0000
,
0000
0000
0000
0000
,
0000
0000
0000
0000
,
0001
0000
0010
0000
0001
0010
0000
0100
,
0000
0010
0001
0001
,
1000
0000
0010
0000
1000
0010
0000
0100
,
0000
0010
1000
1000
,
1200
0000
0001
0000
0310
0100
0000
0010
,
0100
0000
1100
0000
1000
0001
0100
0000
,
0201
0000
1000
0000
0310
0100
0000
0010
,
0100
0000
0101
0000
0001
1000
0100
0000
,
0021
0000
1000
0000
0031
1000
0010
0000
,
1020
0000
0001
0000
1030
0001
0010
0000
,
0100
0010
0100
0010
0001
1000
0010
0100
,
0002
0000
1003
1200
,
0310
0001
1000
0001
0100
0000
0201
0000
,
0310
1000
0001
1000
0100
0000
1200
0000
,
0310
0001
1000
0001
0100
0000
0210
0000
,
2300
3200
0302
0000
0013
0000
0021
0000
,
0130
0010
0001
0100
0010
0000
1020
0000
,
0130
0010
1000
0100
0010
0000
0021
0000
,
0130
0010
0001
0100
0010
1000
1000
0000
,
0001
0001
1000
1000
2001
0000
3010
1000
,
0001
1000
0100
0000
0201
0000
0310
0001
,
1000
0001
0100
0000
1200
0000
0310
1000
,
0001
1000
0100
0000
0210
0000
0302
0203
,
2300
0000
3010
0000
0021
0000
0130
0010
,
1000
0100
0010
0000
1020
0000
0130
0010
,
0001
0100
0010
0000
0021
0000
0130
0010
,
1000
0001
0020
0000
0230
0000
1300
1000
,
1000
0000
0001
0100
0020
0000
1000
1030
,
0000
1010
0000
1000
0010
0100
0001
1000
,
0000
0001
1000
0100
0020
0000
0001
0031
,
0000
0011
0000
0001
0010
0100
1000
0001
,
0000
1000
0010
0100
0002
0000
0100
0103
,
0000
0101
0000
0100
0010
1000
0001
0010
,
0000
0001
0010
0100
2000
0000
0100
3100
,
0000
0000
1001
0000
2000
0000
0000
3020
0000
0000
0230
0000
0000
0302
0000
0000
,
1003
0001
1002
0000
0010
0013
0000
1001
,
0000
1000
0100
0001
0100
1000
0000
0100
,
0010
0001
2000
0000
0010
3010
0000
1001
,
0000
0001
0100
1000
0100
0001
2000
0000
,
3001
0000
1002
0000
0010
0013
0000
1100
,
0000
0001
0010
1000
0010
0001
0000
1000
,
0010
0100
0001
0000
0010
0100
1000
0001
,
0200
0000
0310
2010
,
0001
0001
0000
0010
0010
0000
0001
0001
,
0000
0010
3010
0000
1001
0000
0012
0000
,
1000
1000
0000
0010
0010
0000
1000
1000
,
0000
0010
0013
0000
1001
0000
0201
0000
,
0010
0010
0000
1000
1000
0000
0010
0010
,
0000
0001
0301
0000
1001
0000
1200
0000
,
0010
0010
0000
0001
0001
0000
0010
0010
,
0000
0000
1300
0000
0002
0000
2000
3003
0001
0000
0100
0000
0010
0000
0002
0000
,
0000
0013
0100
0001
1000
0100
0010
2000
,
0000
3010
0100
1000
0001
0100
0010
0002
,
0000
0013
0100
0001
0010
0100
1000
0001
,
0200
0000
0020
0330
1000
0000
0010
0000
0001
0000
2000
0000
0000
0000
3100
0000
,
0001
1000
0001
0010
1000
0002
0000
0103
,
1000
0001
1000
0001
0100
0010
0100
0010
,
1000
0001
0010
0100
1000
0010
0100
0001
,
1000
0000
1001
0000
0100
0100
0000
1001
,
0000
1001
2000
3002
,
0013
0000
1001
0000
0010
0010
0000
0010
,
1001
0000
1000
1000
0001
0100
0001
0100
,
0010
1000
0010
1000
0001
0010
0001
0010
,
0100
1000
0100
1000
0010
0100
0001
0010
,
0100
1000
0010
0100
0001
0000
1000
0100
,
1000
0100
0010
0001
1002
0000
1003
0010
,
0100
0001
0010
0100
2100
0000
3001
0010
,
0100
1000
0010
0100
0102
0000
1003
0010
,
0100
0001
0020
0000
1000
1000
0000
0031
,
0010
0100
1000
0000
2001
0000
3010
1000
,
0100
1000
0010
1000
1002
0000
0013
0001
,
0100
0001
0010
0001
2001
0000
3010
1000
,
0100
1000
0010
0100
0001
1000
0001
0010
,
0100
1000
2001
0000
3100
0010
0001
1000
,
0010
0100
2100
0000
3100
0010
1000
0001
,
0010
0100
0102
0000
0103
0010
0001
1000
,
0020
0000
0001
0001
0000
1030
0010
0100
,
0001
0000
1002
0000
0013
1000
0010
0001
,
0100
0010
2010
0000
3010
0001
0010
1000
,
0001
0010
0001
0010
0100
1000
0100
1000
,
0001
0100
0010
1000
0100
0010
0001
0100
,
1001
0000
0000
0000
;

//---------------dance-single - ----------------
#NOTEDATA:;
#CHARTNAME:;
#STEPSTYPE:dance-single;
#DESCRIPTION:;
#CHARTSTYLE:;
#DIFFICULTY:Easy;
#METER:10;
#RADARVALUES:0.462216,0.593177,0.446568,0.589806,0.000000,384.000000,331.000000,53.000000,70.000000,0.000000,0.000000,0.000000,0.000000,0.000000,0.462216,0.593177,0.446568,0.589806,0.000000,384.000000,331.000000,53.000000,70.000000,0.000000,0.000000,0.000000,0.000000,0.000000;
#CREDIT:;
#OFFSET:1.119297;
#BPMS:0.000000=185.000000
,64.000000=92.500000
,66.000000=185.000000
,190.000000=92.500000
,192.000000=185.000000
;
#STOPS:;
#DELAYS:;
#WARPS:;
#TIMESIGNATURES:0.000000=4=4
;
#TICKCOUNTS:0.000000=4
;
#COMBOS:0.000000=1
;
#SPEEDS:0.000000=1.000000=0.000000=0
;
#SCROLLS:0.000000=1.000000
,268.000000=0.500000
,271.000000=1.000000
;
#FAKES:;
#LABELS:0.000000=Song Start
;
#NOTES:
0000
0000
0000
0000
,
0000
0000
0000
0000
,
0000
0000
0000
0000
,
0000
0000
0000
0000
,
0000
0000
0000
0000
,
0001
0000
0000
0000
0010
0000
0000
0001
,
0000
1000
0001
0000
,
1000
0000
0000
0000
0010
0000
0000
1000
,
0000
0001
1000
0000
,
1002
0000
0000
0000
0013
0000
0000
0100
,
0000
0010
0001
0000
,
2001
0000
0000
0000
3010
0000
0000
0100
,
0000
0010
1000
0000
,
1002
0010
0103
0000
,
2001
0010
3100
0000
,
1001
0000
1001
0000
1000
0001
1000
0001
,
2000
0000
3001
0202
,
0303
0000
1000
0001
1000
0000
0022
0000
,
0033
0000
1000
0001
1000
0000
0202
0000
,
0303
0000
1000
0001
1000
0000
0001
0000
,
0020
0230
1300
2020
,
3030
0000
0001
1000
0001
0000
2200
0000
,
3300
0000
0001
1000
0001
0000
2020
0000
,
3030
0000
0001
1000
0001
0000
0010
0000
,
0100
0010
0100
0000
0000
0000
1002
0000
,
0000
0000
1003
0001
0100
0000
2020
0000
,
3030
0000
0001
1000
0100
0000
0022
0000
,
0033
0000
0001
1000
0001
0000
1000
0000
,
0020
0230
0301
2002
,
3003
0000
1000
0100
0010
0000
0022
0000
,
0033
0000
0001
0100
0010
0000
2020
0000
,
3030
0110
1001
2000
,
3100
0010
0001
0000
1000
0000
0010
0000
,
0100
0010
0000
0200
0000
0000
0310
0000
,
1000
0010
1000
0000
0001
0000
0010
0000
,
0100
0010
0000
0200
0000
0000
0310
0000
,
0001
0010
0001
0000
1000
0000
0010
0000
,
0100
0001
0000
2000
0000
0000
3100
0000
,
0010
0100
0010
0000
0001
0000
1000
0000
,
0010
0100
0000
0100
0002
0000
0000
2003
,
0000
0000
3001
1000
0000
0000
1001
0000
,
0001
0010
0000
0200
0000
0000
0310
0000
,
0010
0001
1000
0000
0001
0000
0100
0000
,
0010
1000
0000
0200
0000
0000
0310
0000
,
0001
1000
0001
0000
0000
0000
1001
0000
,
1000
0010
0000
0200
0000
0000
0310
0000
,
0010
1000
0001
0000
1000
0000
0100
0000
,
0010
0001
0000
0001
0200
0000
0000
0000
,
0310
0000
2010
0000
0000
0010
0000
0000
,
0010
0000
0000
0010
0000
0000
3001
0000
,
0010
0000
0012
0000
0000
0010
0000
0000
,
0010
0000
0000
0010
0000
0000
1003
0000
,
0001
0000
0201
0000
0000
0010
0000
0000
,
0001
0000
0000
0010
0000
0000
0301
0000
,
1000
0000
1200
0000
0000
0010
0000
0000
,
1000
0000
0000
0000
0000
0000
0010
0000
0000
0000
0000
0000
2000
0000
0000
3300
,
0000
0000
1001
0000
0000
0101
0000
0000
,
0100
0001
0010
0000
0000
0011
0000
0000
,
0010
0001
0100
0000
0000
0101
0000
0000
,
0100
0000
0001
0000
0010
0000
0000
0000
0100
0000
1000
0000
0002
0000
2000
3003
,
0000
0000
1001
0000
0000
1100
0000
0000
,
0100
1000
0010
0000
0000
1010
0000
0000
,
0010
1000
0100
0000
0010
0001
0100
0000
,
0010
0100
0010
0100
0010
0100
0010
0000
,
1001
0000
0000
0000
,
0000
0000
0000
2000
3200
0000
0320
0000
,
0032
0003
0000
0000
,
1001
0000
0000
2000
,
3001
0000
0100
0000
0010
1000
0000
0010
,
1000
0000
0100
0000
0010
0001
0000
0010
,
0001
1000
0001
0000
0100
0010
0100
0000
,
1001
0000
0002
0000
,
1003
0000
1200
0000
0010
0000
0310
0001
,
0100
0000
0201
0000
0010
0000
0310
1000
,
0100
0000
1200
0000
0010
0000
0310
0001
,
0100
0000
0010
1000
0000
0010
1000
0000
,
0001
0000
1002
0000
0100
0000
1003
0001
,
0010
0000
2001
0000
0100
0000
3001
1000
,
0010
0000
1002
0000
0100
0000
1003
0001
,
0020
0000
0000
0000
0230
0000
0000
0000
2300
0000
0000
0000
3002
0000
0000
0003
,
0000
0000
1001
0000
0201
0000
0310
0100
,
0001
0000
1001
0000
1200
0000
0310
0100
,
1000
0000
1001
0000
0201
0000
0310
0100
,
0001
0000
1000
0100
0000
1000
0100
0000
,
0010
0000
0011
0000
0102
0000
0013
0001
,
0100
0000
1010
0000
2100
0000
3010
1000
,
0100
0010
0001
0000
0100
0010
1000
0000
,
0100
0010
0100
0010
0100
0010
0001
0000
,
1001
0000
0000
0000
;

//---------------dance-single - ----------------
#NOTEDATA:;
#CHARTNAME:;
#STEPSTYPE:dance-single;
#DESCRIPTION:;
#CHARTSTYLE:;
#DIFFICULTY:Beginner;
#METER:7;
#RADARVALUES:0.293700,0.449938,0.252774,0.438142,0.000000,244.000000,214.000000,30.000000,52.000000,0.000000,0.000000,0.000000,0.000000,0.000000,0.293700,0.449938,0.252774,0.438142,0.000000,244.000000,214.000000,30.000000,52.000000,0.000000,0.000000,0.000000,0.000000,0.000000;
#CREDIT:;
#OFFSET:1.119297;
#BPMS:0.000000=185.000000
;
#STOPS:;
#DELAYS:;
#WARPS:;
#TIMESIGNATURES:0.000000=4=4
;
#TICKCOUNTS:0.000000=4
;
#COMBOS:0.000000=1
;
#SPEEDS:0.000000=1.000000=0.000000=0
;
#SCROLLS:0.000000=1.000000
;
#FAKES:;
#LABELS:0.000000=Song Start
;
#NOTES:
// measure 0
0000
0000
0000
0000
,  // measure 1
0000
0000
0000
0000
,  // measure 2
0000
0000
0000
0000
,  // measure 3
0000
0000
0000
0000
,  // measure 4
0000
0000
0000
0000
,  // measure 5
0001
0000
0000
0000
,  // measure 6
0010
0000
0000
0000
,  // measure 7
0100
0000
0000
0000
,  // measure 8
1000
0000
0000
0000
,  // measure 9
2001
0000
3010
0000
,  // measure 10
1000
0000
1000
0000
,  // measure 11
1002
0000
0013
0000
,  // measure 12
0001
0000
0001
0000
,  // measure 13
2001
0000
3010
0000
,  // measure 14
1002
0000
0013
0000
,  // measure 15
0001
1000
0001
1000
,  // measure 16
0002
0000
0000
0000
,  // measure 17
1003
0020
0030
0010
,  // measure 18
1000
0002
0003
0001
,  // measure 19
1000
0020
0030
0010
,  // measure 20
1000
2000
3020
0230
,  // measure 21
0301
0020
0030
0010
,  // measure 22
0001
2000
3000
1000
,  // measure 23
0001
0020
0030
0010
,  // measure 24
0001
0000
1000
0001
,  // measure 25
0000
1002
0003
0100
,  // measure 26
0010
2000
3000
0100
,  // measure 27
0010
0002
0003
0100
,  // measure 28
0010
0020
2030
3002
,  // measure 29
0003
2001
3000
0100
,  // measure 30
0010
0002
0003
0100
,  // measure 31
0010
2000
3000
0001
,  // measure 32
1001
0000
1000
0001
,  // measure 33
0010
0010
0010
0000
,  // measure 34
0100
0010
0001
0000
,  // measure 35
1000
1000
1000
0000
,  // measure 36
1000
0010
0100
0000
,  // measure 37
0010
0010
0010
0000
,  // measure 38
0100
0010
1000
0000
,  // measure 39
0001
0001
0001
0000
,  // measure 40
0001
0010
0100
1000
,  // measure 41
0000
0001
0001
0000
,  // measure 42
0100
0001
1000
0000
,  // measure 43
0001
0001
0001
0000
,  // measure 44
0001
0010
0100
0000
,  // measure 45
0000
1000
1000
0000
,  // measure 46
0100
1000
0001
0000
,  // measure 47
1000
1000
1000
0000
,  // measure 48
0020
0000
0000
0000
,  // measure 49
0030
0220
0000
0000
,  // measure 50
0000
0000
0000
0330
,  // measure 51
0001
2002
0000
0000
,  // measure 52
0000
0000
0000
3003
,  // measure 53
1000
2200
0000
0000
,  // measure 54
0000
0000
0000
3300
,  // measure 55
0001
0022
0000
0000
,  // measure 56
0000
0000
0000
0033
,  // measure 57
0000
0001
0010
0001
,  // measure 58
1000
0010
1000
0010
,  // measure 59
0100
0001
0100
0001
,  // measure 60
1000
0100
0010
0001
,  // measure 61
0000
1000
0010
1000
,  // measure 62
0001
0010
0001
0010
,  // measure 63
0200
0000
0010
0310
,  // measure 64
0001
1000
0001
1000
,  // measure 65
0010
0000
0000
0000
,  // measure 66
0000
0000
0200
0320
,  // measure 67
0230
0300
0000
0000
,  // measure 68
1001
0000
0000
0000
,  // measure 69
1001
0000
0011
0000
,  // measure 70
1001
0000
1010
0000
,  // measure 71
0001
1000
0001
1000
,  // measure 72
0100
0000
0200
0300
,  // measure 73
1000
0020
0030
0010
,  // measure 74
1000
0200
0300
0100
,  // measure 75
1000
0020
0030
0010
,  // measure 76
1000
1001
0000
1001
,  // measure 77
0001
0020
0030
0010
,  // measure 78
0001
0200
0300
0100
,  // measure 79
0001
0020
0030
0010
,  // measure 80
0001
0100
0010
1000
,  // measure 81
0000
1002
0003
0010
,  // measure 82
0100
0220
0330
1000
,  // measure 83
0001
2002
3003
0100
,  // measure 84
0010
1001
0000
1001
,  // measure 85
1000
2200
3300
1001
,  // measure 86
0001
0202
0303
0110
,  // measure 87
1001
0000
1001
0000
,  // measure 88
0100
0010
0100
0010
,  // measure 89
1001
0000
0000
0000
;
