#VERSION:0.83;
#TITLE:不沈艦CANDY;
#SUBTITLE:;
#ARTIST:Risk Junk;
#TITLETRANSLIT:Fuchinkan CANDY;
#SUBTITLETRANSLIT:;
#ARTISTTRANSLIT:;
#GENRE:Happy Hardcore;
#ORIGIN:;
#CREDIT:;
#BANNER:Fuchinkan CANDY.png;
#BACKGROUND:Fuchinkan CANDY-bg.png;
#PREVIEWVID:;
#JACKET:Fuchinkan CANDY-jacket.png;
#CDIMAGE:;
#DISCIMAGE:;
#LYRICSPATH:;
#CDTITLE:cdtitle.png;
#MUSIC:Fuchinkan CANDY.ogg;
#OFFSET:-0.346620;
#SAMPLESTART:4.176407;
#SAMPLELENGTH:10.212767;
#SELECTABLE:YES;
#BPMS:0.000=188.000,
172.000=94.000,
208.000=188.000;
#STOPS:;
#DELAYS:;
#WARPS:;
#TIMESIGNATURES:0.000=4=4;
#TICKCOUNTS:0.000=4;
#COMBOS:0.000=1;
#SPEEDS:0.000=1.000=0.000=0;
#SCROLLS:0.000=1.000;
#FAKES:;
#LABELS:0.000=Song Start;
#BGCHANGES:-4.000=Fuchinkan CANDY.avi=1.000=1=0=1===CrossFade==,
99999=-nosongbg-=1.000=0=0=0 // don't automatically add -songbackground-
;
#KEYSOUNDS:;
#ATTACKS:
;

//---------------dance-single - ----------------
#NOTEDATA:;
#CHARTNAME:;
#STEPSTYPE:dance-single;
#DESCRIPTION:;
#CHARTSTYLE:;
#DIFFICULTY:Challenge;
#METER:16;
#RADARVALUES:0.831749,0.891956,0.368395,0.376404,0.564605,727.000000,681.000000,46.000000,47.000000,0.000000,0.000000,36.000000,0.000000,0.000000,0.831749,0.891956,0.368395,0.376404,0.564605,727.000000,681.000000,46.000000,47.000000,0.000000,0.000000,36.000000,0.000000,0.000000;
#CREDIT:;
#NOTES:
0000
0000
0000
0000
,
0000
0000
0000
0000
,
0000
0000
0000
0000
,
1000
0000
0100
0000
1000
0000
0100
0000
0010
0001
0010
0001
1000
0000
1001
0000
,
0000
1000
0010
0001
0010
1000
0001
0010
,
0100
0000
1000
0000
0100
0000
1000
0000
0001
0100
0001
0100
0010
0000
1010
0000
,
0000
0001
1000
0100
0001
0100
1000
0001
,
1000
0010
0010
0100
0001
0001
1000
0100
,
0010
0001
1000
0001
0100
0000
0110
0000
0000
0000
0010
0000
0100
0000
0001
0000
,
1000
0001
0010
0000
0001
1000
0010
0000
1000
0100
0010
0000
0001
0100
0010
0000
,
1000
0000
1000
0000
0100
0000
0010
0001
1000
0000
0001
0100
0001
1000
0100
1000
,
0001
0000
0100
0000
0001
0000
0100
0000
0010
1000
0010
1000
0001
0000
1001
0000
,
0000
0001
0010
1000
0010
0001
1000
0010
,
0100
0000
0001
0000
0100
0000
0001
0000
1000
0100
1000
0100
0010
0000
0011
0000
,
0000
1000
0001
0100
1000
0100
0001
1000
,
0001
0010
0010
0100
1000
1000
0001
0100
,
0010
1000
0001
1000
0100
0000
0110
0000
0000
0000
0010
0000
0100
0000
1000
0000
,
0001
1000
0010
0000
1000
0001
0010
0000
0001
0100
0010
0000
1000
0100
0010
0000
,
0002
0000
0000
0000
0203
0000
0000
0310
1000
0000
1000
0000
0001
1000
0001
1000
,
0100
0000
0000
0000
0020
0000
0000
0000
0032
0000
0000
0000
2003
0000
0000
3000
,
1001
0000
0000
0000
1001
0000
0000
0001
0100
0000
0100
0000
0010
0000
1000
0000
,
0001
0000
0010
0000
0001
0000
0010
0100
0000
0001
0100
0000
0010
0000
0001
0000
,
1000
0000
0010
0000
1000
0000
0010
0100
0000
1000
0100
0000
0010
0000
1000
0000
,
0100
0000
0010
0000
0100
0000
0010
0001
1000
0001
0100
0000
0010
0000
1000
0000
,
1010
0000
0000
0000
0011
0000
0000
1000
0010
0000
0010
0000
0100
0000
0001
0000
,
1000
0000
0100
0000
1000
0000
0100
0010
0000
1000
0010
0000
0100
0000
1000
0000
,
0001
0000
0100
0000
0110
0000
0000
1000
0010
0000
0100
0001
1000
0000
0001
0000
,
1000
0000
4400
0000
3300
0000
0044
0000
0033
0000
1001
0000
0001
0100
0010
1000
,
0001
0000
0000
0000
1001
0000
0000
1000
0100
0000
0100
0000
0010
0000
0001
0000
,
1000
0000
0010
0000
0001
0000
0010
0100
0000
1000
0100
0000
0010
0000
1000
0000
,
0001
0000
0010
0000
1000
0000
0010
0100
0000
0001
0100
0000
0010
0000
0001
0000
,
0100
0000
0010
0000
0100
0000
0010
1000
0001
1000
0100
0000
0010
0000
0001
0000
,
0011
0000
0000
0000
1010
0000
0000
0001
0010
0000
0010
0000
0100
0000
1000
0000
,
0001
0000
0100
0000
1000
0000
0100
0010
0000
0001
0010
0000
0100
0000
0001
0000
,
1000
0000
0100
0000
0110
0000
0000
0001
0010
0000
0100
1000
0001
0000
1000
0000
,
0001
0000
0404
0000
0303
0000
0440
0000
0330
0000
1000
0000
0010
1000
0001
1000
,
0100
0000
4400
0000
3300
0000
0440
0000
0330
0000
0001
0000
0010
0001
1000
0001
,
0100
0000
0404
0000
0303
0000
4040
0000
3030
0000
1000
0000
0001
1000
0010
1000
,
0100
0000
4400
0000
3300
0000
0044
0000
0033
0000
0001
0000
1000
0001
0010
0001
,
0100
0000
0000
0000
0001
0100
0010
1000
0100
0000
0000
0000
1000
0100
0010
0001
,
0100
0000
0000
0000
0001
0100
0010
1000
0100
0000
0000
0000
0010
0001
1000
0001
,
0100
0000
0001
1000
0100
0000
1000
0001
0100
0000
0001
1000
0100
0000
0010
0001
,
4000
3040
0430
0304
4003
0000
3400
0000
,
0310
0000
0000
0000
0000
0000
0002
0023
,
0230
0000
2300
0000
0000
3002
0203
0320
,
0032
0000
0013
0100
0002
0000
0000
0000
0003
0000
2000
0000
3200
0000
0320
0000
,
2030
0000
3010
0100
2000
0000
0000
0000
3000
0000
0002
0000
0203
0000
0320
0000
,
2030
0000
3002
0000
0000
0000
2003
0000
3200
0000
0320
0000
0032
0000
1003
0001
,
0200
0000
0320
0000
0000
2030
3020
0032
,
2003
0000
3100
0001
0200
0000
0000
0000
0300
0000
0002
0000
0023
0000
2030
0000
,
3002
0000
0103
1000
0200
0000
0000
0000
0300
0000
2000
0000
3020
0000
0230
0000
,
0301
0000
0000
0000
0001
0000
0000
0000
1000
0000
0000
0000
1000
0000
0000
0000
0001
0000
0000
0000
4004
0000
3003
0001
0100
0000
0010
0000
1000
0001
1000
0001
,
1000
0001
0011
0010
0100
1000
1010
0010
,
0100
0000
0001
0000
0010
0001
0010
0000
0001
1000
0001
0000
0100
0001
0100
0000
,
0010
1000
0001
1000
0010
0000
1000
0000
0200
0000
0000
0000
0310
0000
0001
0000
,
1000
0000
1000
0000
0010
1000
0010
0000
1000
0001
1000
0000
0100
1000
0100
0000
,
0010
0001
1000
0001
0010
0000
0001
0000
0200
0000
0000
0000
0310
0000
1000
0000
,
0001
0000
0001
0000
1000
0001
0010
0000
0100
1000
0001
0000
0100
0010
1000
0000
,
0001
0010
0011
0000
1000
0010
1010
0000
,
1100
0000
0000
0000
0101
0000
0000
1000
0100
0000
0010
0000
0100
0010
0001
1000
,
0010
0100
0110
0010
1000
0100
0110
0010
,
0001
0000
0100
0000
1000
0100
1000
0000
0100
0001
0100
0000
0001
0010
0001
0000
,
0010
0100
1000
0001
0100
0000
0010
0000
2000
0000
0000
0000
3001
0000
0001
0000
,
1000
0000
0100
0000
0001
0100
0001
0000
0100
1000
0100
0000
1000
0010
1000
0000
,
0010
0100
0001
1000
0100
0000
0010
0000
0002
0000
0000
0000
1003
0000
1000
0000
,
0001
0000
0100
0000
0001
1000
0100
0000
0010
0001
1000
0000
0010
0100
0001
0000
,
1000
0100
1100
0000
0001
0100
0101
0000
,
0011
0000
0000
0000
4040
0000
3030
0010
1000
0000
1000
0000
0010
0100
0001
1000
,
0100
0000
0000
0000
0100
0000
0000
0010
0001
0000
0001
0000
1000
0000
1000
0000
,
0001
0100
0010
1000
0001
1000
0010
0100
0004
0000
4003
0000
3400
0000
0340
0000
,
0031
0000
0000
0000
,
0000
0000
0000
0000
,
0001
0000
0100
0000
0001
0000
0100
0000
0010
1000
0001
1000
0010
0000
1001
0000
,
0000
0000
1000
0000
0100
0000
0001
0000
1000
0000
0010
0000
0001
1000
0001
0000
,
1000
0000
0010
0000
1000
0000
0100
0000
0010
0001
1000
0001
0010
0000
1001
0000
,
0000
0000
0001
0000
0100
0000
1000
0000
0001
0000
0010
0000
1000
0001
1000
0000
,
0100
0010
0010
0001
1000
1000
0010
0100
,
0010
1000
0001
1000
0100
0000
1001
0000
0000
0000
1000
0000
0010
0000
0100
0000
,
0001
1000
0100
0000
0010
0001
1000
0000
0010
0100
0001
0000
0010
0100
1000
0000
,
0001
0000
0100
0000
1000
0000
0100
0000
0010
0000
0010
0000
1000
0010
0100
0001
,
1000
0000
0100
0000
0001
0000
0100
0000
0010
0000
0010
0000
0001
0010
0100
1000
,
0001
0000
0000
0000
0000
0000
0000
0000
1000
0000
0000
0000
0010
0000
0000
0000
0100
0000
0000
0000
0001
0000
0000
0000
1000
0000
0000
0000
0100
0000
0000
0000
1000
0000
0000
0000
0001
0000
0000
0000
0100
0000
0000
0000
0001
0000
0000
0000
4000
0000
0000
0000
0000
0000
0000
0000
3004
0000
0000
0000
0000
0000
0000
0003
,
1001
0000
1100
1100
0011
0000
0000
0000
;

//---------------dance-single - ----------------
#NOTEDATA:;
#CHARTNAME:;
#STEPSTYPE:dance-single;
#DESCRIPTION:;
#CHARTSTYLE:;
#DIFFICULTY:Hard;
#METER:13;
#RADARVALUES:0.617805,0.660708,0.368395,0.776833,0.104112,540.000000,494.000000,46.000000,97.000000,0.000000,0.000000,37.000000,0.000000,0.000000,0.617805,0.660708,0.368395,0.776833,0.104112,540.000000,494.000000,46.000000,97.000000,0.000000,0.000000,37.000000,0.000000,0.000000;
#CREDIT:;
#NOTES:
0000
0000
0000
0000
,
0000
0000
0000
0000
,
0000
0000
0000
0000
,
1000
0100
1000
0100
0020
0000
0031
1001
,
0000
1000
0010
1000
0001
0010
0001
0001
,
1000
0010
1000
0010
0200
0000
0301
1001
,
0000
1000
0100
1000
0001
0100
0001
0001
,
1000
0100
0010
0100
1000
0010
0100
0010
,
2000
0000
3001
1001
0000
0001
0010
0100
,
2000
3020
0032
0023
,
1030
0100
0001
0200
0000
1300
0001
1000
,
0001
0100
0001
0100
0020
0000
1030
1001
,
0000
0001
0010
0001
1000
0010
1000
1000
,
0001
0010
0001
0010
0200
0000
1300
1001
,
0000
0001
0100
0001
1000
0100
1000
1000
,
0001
0100
0010
0100
0001
0010
0100
0010
,
0002
0000
1003
1001
0000
1000
0010
0100
,
0002
0023
2030
3020
,
0032
0000
0000
0000
0203
0000
0000
0310
1000
0000
0001
0000
0010
0000
0100
0000
,
1000
0000
0000
0000
0020
0000
0000
0000
0230
0000
0000
0000
0302
0000
0000
0003
,
1001
0000
0000
0000
1001
0000
0000
0001
0010
0000
0001
0000
0010
0000
0001
0000
,
0100
0000
0000
0000
0101
0000
0000
1000
0000
0000
1000
0000
0010
0000
1000
0000
,
0100
0000
0000
0000
1100
0000
0000
0001
0000
0000
0001
0000
0010
0000
0001
0000
,
0100
0000
0000
0000
0100
0000
0010
1000
0000
0001
0010
0000
0100
0000
0010
0000
,
0011
0000
0000
0000
1100
0000
0000
1000
0010
0000
1000
0000
0010
0000
1000
0000
,
0100
0000
0000
0000
1001
0000
0000
1000
0000
0000
0010
0000
0100
0000
0001
0000
,
1000
0000
0000
0000
1001
0000
0000
0001
0010
0000
0100
0000
1000
0000
1000
0000
,
0000
4040
3030
0404
0303
1000
0001
1000
,
1001
0000
0000
0000
1001
0000
0000
1000
0010
0000
1000
0000
0100
0000
1000
0000
,
0010
0000
0000
0000
1001
0000
0000
0001
0000
0000
0010
0000
1000
0000
0010
0000
,
0001
0000
0000
0000
1001
0000
0000
1000
0000
0000
0010
0000
0001
0000
0010
0000
,
1000
0000
0000
0000
0001
0000
0010
0100
0000
1000
0001
0000
0100
0000
0010
0000
,
1010
0000
0000
0000
0101
0000
0000
0001
0010
0000
0001
0000
0010
0000
0001
0000
,
0100
0000
0000
0000
1001
0000
0000
0001
0000
0000
0010
0000
0100
0000
1000
0000
,
0001
0000
0000
0000
1001
0000
0000
1000
0010
0000
0100
0000
0001
0000
0001
0000
,
0000
0044
0033
4400
3300
0001
0001
0100
,
0010
4040
3030
0404
0303
1000
1000
0100
,
0010
0044
0033
0404
0303
0100
0100
0010
,
1000
4040
3030
4400
3300
0001
0001
0010
,
0011
0000
1000
0010
1010
0000
0001
0100
,
0101
0000
1000
0100
1100
0000
0001
0100
,
0010
0100
0001
0100
0010
0100
0001
0100
,
0040
4030
3400
0340
0034
0000
4003
0000
,
3100
0000
0000
0000
0000
0000
2000
3002
,
2003
0000
3020
0000
0000
2030
3020
0230
,
0302
0000
1003
0001
0020
0000
0000
0000
0030
0000
0002
0000
0023
0000
0230
0000
,
2300
0000
3001
1000
0020
0000
0000
0000
0030
0000
2000
0000
3020
0000
0230
0000
,
0302
0000
2003
0000
0000
0000
3002
0000
0023
0000
0230
0000
2300
0000
3010
0100
,
0002
0000
0023
0000
0000
0032
0023
0230
,
0302
0000
0103
0010
0002
0000
0000
0000
0003
0000
2000
0000
3020
0000
0230
0000
,
2300
0000
3100
0010
2000
0000
0000
0000
3000
0000
0002
0000
0023
0000
0230
0000
,
1300
0000
1000
0000
0001
0000
0001
0000
0100
0000
4040
3030
0001
1000
0001
1000
,
0001
0010
0100
0010
1000
0010
0100
0010
,
0001
0100
0020
0000
0032
0000
0023
0000
,
0230
0000
0310
1000
0002
0000
1003
0100
,
1000
0100
0020
0000
2030
0000
3020
0000
,
0230
0000
0310
0001
2000
0000
3001
0100
,
0010
1000
0002
0000
0023
0000
0230
0000
,
2300
3002
0103
0101
,
0110
0000
0000
0000
1010
0000
0000
0001
0010
0000
0100
0000
0010
0000
0100
0000
,
1000
0010
0100
0010
0001
0010
0100
0010
,
1000
0100
0002
0000
2003
0000
3020
0000
,
0032
0000
1003
0100
0020
0000
0031
0100
,
0001
0100
2000
0000
3002
0000
0023
0000
,
2030
0000
3001
0100
0020
0000
1030
0100
,
1000
0100
0020
0000
0032
0000
2003
0000
,
3020
0230
0301
0011
,
1100
0000
0000
0000
0004
0000
0003
1000
0010
0000
0100
0000
0010
0000
0100
0000
,
0001
0000
1000
0000
0100
1000
0000
0001
,
0100
0000
0001
1000
0400
4300
3004
0403
,
0310
0000
0000
0000
,
0000
0000
0000
0000
,
1000
0100
0001
0100
2000
0000
3001
0011
,
0000
0001
0100
0001
0100
0010
1000
1000
,
0001
0100
1000
0100
0002
0000
1003
1010
,
0000
1000
0100
1000
0100
0010
0001
0001
,
1000
0010
0100
0001
0010
0100
1000
0010
,
0200
0000
0301
1001
0000
1000
0001
1000
,
0200
0302
0023
2030
,
3100
0010
0001
2000
0000
3001
0001
0001
,
0100
0010
1000
0002
0000
1003
1000
1000
,
0100
0001
0100
1000
0040
0034
0043
4030
,
3100
0000
0010
0010
1001
0000
0000
0000
;

//---------------dance-single - ----------------
#NOTEDATA:;
#CHARTNAME:;
#STEPSTYPE:dance-single;
#DESCRIPTION:;
#CHARTSTYLE:;
#DIFFICULTY:Medium;
#METER:10;
#RADARVALUES:0.475939,0.528567,0.256275,0.552592,0.000000,416.000000,384.000000,32.000000,69.000000,0.000000,0.000000,19.000000,0.000000,0.000000,0.475939,0.528567,0.256275,0.552592,0.000000,416.000000,384.000000,32.000000,69.000000,0.000000,0.000000,19.000000,0.000000,0.000000;
#CREDIT:;
#NOTES:
0000
0000
0000
0000
,
0000
0000
0000
0000
,
0000
0000
0000
0000
,
0001
0010
0001
0010
0002
0000
0013
0100
,
0000
0010
0001
1000
,
0001
0100
0001
0100
0002
0000
0103
0010
,
0000
0100
0001
1000
,
0001
0010
0001
0000
1000
0010
1000
0000
,
0200
0000
0310
0001
0000
0000
1000
0000
,
0002
0203
0320
2030
,
3001
0000
1000
0100
0000
0010
0001
0000
,
1000
0010
1000
0010
2000
0000
3010
0100
,
0000
0010
1000
0001
,
1000
0100
1000
0100
2000
0000
3100
0010
,
0000
0100
1000
0001
,
1000
0010
1000
0000
0001
0010
0001
0000
,
0200
0000
0310
1000
0000
0000
0001
0000
,
2000
3200
0320
0032
,
2003
3020
0230
0302
,
1003
0000
0000
0000
,
1001
0000
1001
0000
0001
0010
0001
0000
,
0100
0000
0101
0000
1000
0010
1000
0000
,
0100
0000
1100
0000
0001
0010
0001
0000
,
1000
0000
0001
0100
0010
1000
0001
0000
,
1001
0000
1001
0000
1000
0100
1000
0000
,
0010
0000
1010
0000
0001
0100
0001
0000
,
0010
0000
0011
0000
1000
0010
0100
0001
,
0000
4000
3000
0004
0003
0000
0001
0000
,
1001
0000
1001
0000
1000
0010
0100
0000
,
0010
0000
1010
0000
0001
0010
0100
0000
,
0010
0000
0011
0000
1000
0001
0100
0000
,
0001
0000
1000
0100
0010
0001
1000
0000
,
1001
0000
1001
0000
0001
0100
0010
0000
,
0100
0000
0101
0000
1000
0100
0010
0000
,
0100
0000
1100
0000
0001
0100
0010
1000
,
0000
0004
0003
0040
0030
0100
0000
1000
,
0001
4000
3000
0040
0030
0100
0000
0001
,
1000
0400
0300
0040
0030
0001
0000
1000
,
0001
0400
0300
0040
0030
1000
0001
0000
,
0011
0001
0101
0001
,
1010
1000
1100
1000
,
0001
1000
0001
0000
1000
0001
1000
0000
,
0004
0003
0400
0300
0040
0030
4000
3000
,
0100
0000
0000
0000
0000
0000
1000
0100
,
0020
0000
0032
0000
0000
1003
0010
0100
,
0001
1000
2000
0000
3000
0001
0010
0100
,
1000
0001
0002
0000
0003
0100
0010
1000
,
0001
0020
0000
0130
1000
0001
0100
0010
,
0020
0000
2030
0000
0000
3001
0010
0001
,
0100
0001
0002
0000
0003
1000
0010
1000
,
0100
1000
2000
0000
3000
0010
0100
0001
,
1000
0000
1000
0000
0001
0000
0001
0000
1000
0000
0400
0300
0010
0000
0001
0000
,
1002
0103
2001
3100
,
1000
0001
2000
0000
3020
0000
0032
0000
,
0023
0000
1030
0010
2000
0000
3100
0010
,
0001
0002
0023
2030
,
3020
0000
0031
0010
0002
0000
0103
0010
,
1000
0002
0023
0230
,
2300
3020
1030
1010
,
0101
0011
1100
1001
,
2001
3010
1002
0013
,
0001
1000
0002
0000
0203
0000
2300
0000
,
3200
0000
0310
0100
0002
0000
1003
0001
,
1000
0001
2000
0000
3200
0000
0302
0000
,
0203
0000
0310
0100
2000
0000
3001
1000
,
0001
1000
0020
0000
0230
0000
0302
0000
,
2003
3200
0310
0011
,
1100
0000
0004
0003
1000
0001
1000
0001
,
0200
0000
0000
0000
,
0310
0100
0010
0100
0040
0030
4000
3000
,
0001
0000
0000
0000
,
0000
0000
0000
0000
,
0001
0010
0001
0010
0200
0000
1300
0001
,
0000
0001
0100
0010
,
1000
0010
1000
0010
0200
0000
0301
1000
,
0000
1000
0100
0010
,
0001
0100
0001
0000
1000
0100
1000
0000
,
0020
0000
0130
0001
0000
0000
1000
0000
,
0002
0023
0230
2300
,
3010
0000
1000
0010
0000
1000
0100
0000
,
0010
0000
0001
0010
0000
0001
0100
0000
,
0010
1000
0100
0000
0010
0001
0400
0300
,
1001
0000
1000
0001
0010
0000
0000
0000
;

//---------------dance-single - ----------------
#NOTEDATA:;
#CHARTNAME:;
#STEPSTYPE:dance-single;
#DESCRIPTION:;
#CHARTSTYLE:;
#DIFFICULTY:Easy;
#METER:6;
#RADARVALUES:0.270004,0.330354,0.128137,0.224240,0.000000,236.000000,220.000000,16.000000,28.000000,0.000000,0.000000,0.000000,0.000000,0.000000,0.270004,0.330354,0.128137,0.224240,0.000000,236.000000,220.000000,16.000000,28.000000,0.000000,0.000000,0.000000,0.000000,0.000000;
#CREDIT:;
#NOTES:
0000
0000
0000
0000
,
0000
0000
0000
0000
,
0000
0000
0000
0000
,
0001
0010
0002
0000
,
0013
0000
0010
0000
,
0001
0100
0002
0000
,
0103
0000
0100
0000
,
0010
1000
0001
0000
,
0010
0001
1000
0000
,
0001
0001
0100
0100
,
0010
0000
0110
0000
,
1000
0010
2000
0000
,
3010
0000
0010
0000
,
1000
0100
2000
0000
,
3100
0000
0100
0000
,
0010
0001
1000
0000
,
0010
1000
0001
0000
,
1000
1000
0100
0100
,
0020
0000
0032
0000
,
1003
0000
0000
0000
,
0001
0001
0001
0000
,
0100
0100
0100
0000
,
0010
0010
0010
0000
,
0100
0010
1000
0000
,
0001
0001
0001
0000
,
0010
0010
0010
0000
,
0001
0010
0100
1000
,
0000
0001
0101
0000
,
1000
1000
1000
0000
,
0100
0100
0100
0000
,
0010
0010
0010
0000
,
0100
0010
0001
0000
,
1000
1000
1000
0000
,
0010
0010
0010
0000
,
1000
0010
0100
0001
,
0000
1000
1100
0000
,
0000
0001
0101
0000
,
0000
1000
1010
0000
,
0000
0001
0011
0000
,
1001
0000
1001
0000
,
1001
0000
1001
0000
,
0001
1000
0001
1000
,
0001
1000
0002
0000
,
0103
0000
0000
0001
,
0010
0002
0003
1000
,
0010
2000
3000
0100
,
1000
0200
0300
1000
,
0002
0003
0100
0100
,
0010
2000
3000
0001
,
0010
0002
0003
0100
,
0001
0200
0300
0001
,
1000
1000
1000
1001
,
0002
0000
0023
0000
,
0130
0000
0100
0010
,
0001
1000
0002
0000
,
0103
0000
0100
0010
,
1000
0001
2000
0000
,
3100
0000
0010
0001
,
1000
0020
0000
0130
,
0001
1000
0100
0000
,
2000
0000
3020
0000
,
0130
0000
0010
1000
,
0100
0010
0002
0000
,
0013
0000
0010
0001
,
0100
0010
2000
0000
,
3010
0000
0010
1000
,
0001
0020
0000
0130
,
1000
0001
0100
0000
,
0220
0000
0000
0330
,
0100
0010
0100
0010
,
1001
0000
0000
0000
,
0000
0000
0000
0000
,
0001
0010
0200
0000
,
1300
0000
0001
0000
,
1000
0010
0200
0000
,
0301
0000
1000
0000
,
0100
0010
0001
0000
,
0100
0010
1000
0000
,
0001
0001
1000
1000
,
0100
0000
1001
0000
,
0100
0000
1001
0000
,
1000
1000
0001
0001
,
0100
0010
0110
0000
;

//---------------dance-single - ----------------
#NOTEDATA:;
#CHARTNAME:;
#STEPSTYPE:dance-single;
#DESCRIPTION:;
#CHARTSTYLE:;
#DIFFICULTY:Beginner;
#METER:2;
#RADARVALUES:0.110976,0.183196,0.016017,0.192206,0.000000,97.000000,95.000000,2.000000,24.000000,0.000000,0.000000,0.000000,0.000000,0.000000,0.110976,0.183196,0.016017,0.192206,0.000000,97.000000,95.000000,2.000000,24.000000,0.000000,0.000000,0.000000,0.000000,0.000000;
#CREDIT:;
#OFFSET:-0.346620;
#BPMS:0.000000=188.000000
;
#STOPS:;
#DELAYS:;
#WARPS:;
#TIMESIGNATURES:0.000000=4=4
;
#TICKCOUNTS:0.000000=4
;
#COMBOS:0.000000=1
;
#SPEEDS:0.000000=1.000000=0.000000=0
;
#SCROLLS:0.000000=1.000000
;
#FAKES:;
#LABELS:0.000000=Song Start
;
#DISPLAYBPM:94.000000:188.000000;
#NOTES:
// measure 0
0000
0000
0000
0000
,  // measure 1
0000
0000
0000
0000
,  // measure 2
0000
0000
0000
0000
,  // measure 3
0001
0000
0000
0000
,  // measure 4
0001
0000
0000
0000
,  // measure 5
1000
0000
0000
0000
,  // measure 6
1000
0000
0000
0000
,  // measure 7
0010
0000
0000
0000
,  // measure 8
0100
0000
0000
0000
,  // measure 9
0001
0000
1000
0000
,  // measure 10
0001
0000
0000
0000
,  // measure 11
1000
0000
0000
0000
,  // measure 12
1000
0000
0000
0000
,  // measure 13
0001
0000
0000
0000
,  // measure 14
0001
0000
0000
0000
,  // measure 15
0010
0000
0000
0000
,  // measure 16
0100
0000
0000
0000
,  // measure 17
1000
0000
0001
0000
,  // measure 18
1000
0000
0000
0000
,  // measure 19
0010
0000
0000
0000
,  // measure 20
1000
0000
0000
0000
,  // measure 21
0100
0000
0000
0000
,  // measure 22
0010
0000
0000
0000
,  // measure 23
0001
0000
1000
0000
,  // measure 24
0001
0000
0000
0000
,  // measure 25
0100
0000
0000
0000
,  // measure 26
0010
0000
0000
0000
,  // measure 27
1000
0000
1000
0000
,  // measure 28
0001
0000
0000
0000
,  // measure 29
0100
0000
0000
0000
,  // measure 30
0010
0000
0000
0000
,  // measure 31
1000
0000
0001
0000
,  // measure 32
1000
0000
0000
0000
,  // measure 33
0100
0000
0000
0000
,  // measure 34
0010
0000
0000
0000
,  // measure 35
0000
0002
0000
0003
,  // measure 36
0000
2000
0000
3000
,  // measure 37
0000
0002
0000
0003
,  // measure 38
0000
2000
0000
3000
,  // measure 39
0001
0000
0001
0000
,  // measure 40
1000
0000
1000
0000
,  // measure 41
0001
0000
1000
0000
,  // measure 42
0002
0000
0003
0000
,  // measure 43
1000
0000
0000
0000
,  // measure 44
0000
0000
0000
0000
,  // measure 45
0002
0000
0000
0000
,  // measure 46
0003
0000
0000
0000
,  // measure 47
0020
0000
0000
0000
,  // measure 48
0030
0000
0000
0000
,  // measure 49
0200
0000
0000
0000
,  // measure 50
0300
0000
0000
0000
,  // measure 51
2000
0000
3000
0000
,  // measure 52
0002
0000
0003
0000
,  // measure 53
2000
0000
0000
0000
,  // measure 54
3000
0000
0000
0000
,  // measure 55
0020
0000
0000
0000
,  // measure 56
0030
0000
0000
0000
,  // measure 57
0200
0000
0000
0000
,  // measure 58
0300
0000
0000
0000
,  // measure 59
0002
0000
0003
0000
,  // measure 60
2000
0000
3000
0000
,  // measure 61
0001
0000
0002
0000
,  // measure 62
0003
0000
0000
0000
,  // measure 63
0010
0000
0020
0000
,  // measure 64
0030
0000
0000
0000
,  // measure 65
0100
0000
0200
0000
,  // measure 66
0300
0000
1000
0000
,  // measure 67
0002
0000
0003
0000
,  // measure 68
1000
0000
0001
0000
,  // measure 69
1000
0000
2000
0000
,  // measure 70
3000
0000
0000
0000
,  // measure 71
0010
0000
0020
0000
,  // measure 72
0030
0000
0000
0000
,  // measure 73
0100
0000
0200
0000
,  // measure 74
0300
0000
0001
0000
,  // measure 75
2000
0000
3000
0000
,  // measure 76
0001
0000
1000
0000
,  // measure 77
0002
0000
0000
0000
,  // measure 78
0003
0000
0000
0000
,  // measure 79
1001
0000
0000
0000
,  // measure 80
0000
0000
0000
0000
,  // measure 81
0001
0000
0000
0000
,  // measure 82
0010
0000
0000
0000
,  // measure 83
0100
0000
0000
0000
,  // measure 84
1000
0000
0000
0000
,  // measure 85
0010
0000
0000
0000
,  // measure 86
0100
0000
0000
0000
,  // measure 87
0001
0000
1000
0000
,  // measure 88
0001
0000
0000
0000
,  // measure 89
1000
0000
0000
0000
,  // measure 90
0001
0000
1000
0000
,  // measure 91
0001
0000
1001
0000
;
