#VERSION:0.83;
#TITLE:Friendly Gigant Fire;
#SUBTITLE:;
#ARTIST:MYUKKE.;
#TITLETRANSLIT:;
#SUBTITLETRANSLIT:;
#ARTISTTRANSLIT:;
#GENRE:Hardcore;
#ORIGIN:;
#CREDIT:;
#BANNER:Friendly Gigant Fire.png;
#BACKGROUND:Friendly Gigant Fire-bg.png;
#PREVIEWVID:;
#JACKET:Friendly Gigant Fire-jacket.png;
#CDIMAGE:;
#DISCIMAGE:;
#LYRICSPATH:;
#CDTITLE:cdtitle.png;
#MUSIC:Friendly Gigant Fire.ogg;
#OFFSET:-1.715000;
#SAMPLESTART:20.000999;
#SAMPLELENGTH:18.285999;
#SELECTABLE:YES;
#DISPLAYBPM:105.000000:210.000000;
#BPMS:0.000=105.000,
16.000=210.000,
96.000=105.000,
100.000=210.000,
172.000=105.000,
188.000=210.000,
284.000=105.000,
288.000=210.000;
#STOPS:;
#DELAYS:;
#WARPS:;
#TIMESIGNATURES:0.000=2=4,
16.000=4=4,
96.000=2=4,
100.000=4=4,
172.000=2=4,
188.000=4=4,
284.000=2=4,
288.000=4=4;
#TICKCOUNTS:0.000=4;
#COMBOS:0.000=1;
#SPEEDS:0.000=1.000=0.000=0;
#SCROLLS:0.000=1.000;
#FAKES:;
#LABELS:0.000=Song Start;
#BGCHANGES:;
#KEYSOUNDS:;
#ATTACKS:
;

//---------------dance-single - ----------------
#NOTEDATA:;
#CHARTNAME:;
#STEPSTYPE:dance-single;
#DESCRIPTION:;
#CHARTSTYLE:;
#DIFFICULTY:Beginner;
#METER:7;
#RADARVALUES:0.264009,0.336423,0.067888,0.143319,0.000000,245.000000,236.000000,9.000000,19.000000,0.000000,0.000000,0.000000,0.000000,0.000000,0.264009,0.336423,0.067888,0.143319,0.000000,245.000000,236.000000,9.000000,19.000000,0.000000,0.000000,0.000000,0.000000,0.000000;
#CREDIT:;
#OFFSET:-1.715000;
#BPMS:0.000000=210.000000
;
#STOPS:;
#DELAYS:;
#WARPS:;
#TIMESIGNATURES:0.000000=4=4
;
#TICKCOUNTS:0.000000=4
;
#COMBOS:0.000000=1
;
#SPEEDS:0.000000=1.000000=0.000000=0
;
#SCROLLS:0.000000=1.000000
;
#FAKES:;
#LABELS:0.000000=Song Start
;
#DISPLAYBPM:210.000000;
#NOTES:
// measure 0
0000
0000
0000
0000
,  // measure 1
0000
0000
0000
0000
,  // measure 2
0000
0000
0000
0000
,  // measure 3
0000
0000
0000
0000
,  // measure 4
0000
0000
0000
0000
,  // measure 5
0000
0000
0000
0000
,  // measure 6
0000
0000
0000
0000
,  // measure 7
0000
0000
0000
0000
,  // measure 8
1000
0000
0100
0000
,  // measure 9
1000
0000
1000
0000
,  // measure 10
0001
0000
0100
0000
,  // measure 11
0001
0000
0001
0000
,  // measure 12
1000
0000
0100
0000
,  // measure 13
0010
0000
0001
0000
,  // measure 14
0100
0000
0010
0000
,  // measure 15
2000
0000
3000
0000
,  // measure 16
0001
0000
0010
0000
,  // measure 17
0001
0001
0001
0000
,  // measure 18
1000
0000
0010
0000
,  // measure 19
1000
1000
1000
0000
,  // measure 20
0001
0000
0010
0000
,  // measure 21
0001
0001
0001
0000
,  // measure 22
0100
0000
0100
0000
,  // measure 23
0010
0100
0010
0000
,  // measure 24
1000
0000
0100
0000
,  // measure 25
1000
1000
1000
0000
,  // measure 26
0001
0000
0100
0000
,  // measure 27
0001
0001
0001
0000
,  // measure 28
1000
0000
0100
0000
,  // measure 29
1000
1000
1000
0000
,  // measure 30
0010
0000
0100
0000
,  // measure 31
0001
1000
0001
0000
,  // measure 32
0010
0010
0010
0000
,  // measure 33
0100
0000
0010
0000
,  // measure 34
0001
0001
0001
0000
,  // measure 35
1000
0000
0010
0100
,  // measure 36
0001
0001
0001
0000
,  // measure 37
0100
0000
0001
0000
,  // measure 38
1000
0000
1000
0000
0100
0000
0000
2000
,  // measure 39
0000
0000
3000
0000
,  // measure 40
0010
0010
0010
0000
,  // measure 41
0100
0000
0010
0000
,  // measure 42
1000
1000
1000
0000
,  // measure 43
0001
0000
0010
0100
,  // measure 44
1000
1000
1000
0000
,  // measure 45
0100
0000
1000
0000
,  // measure 46
0001
0000
0001
0000
0100
0000
0000
0220
,  // measure 47
0000
0000
0330
0000
,  // measure 48
1000
0000
0010
0000
,  // measure 49
0100
0000
0001
0000
,  // measure 50
2000
0000
3000
0000
,  // measure 51
0002
0000
0003
0000
,  // measure 52
0001
0000
0010
0000
,  // measure 53
0100
0000
1000
0000
,  // measure 54
0002
0000
0003
0000
,  // measure 55
2000
0000
3000
0000
,  // measure 56
1001
0000
0000
0000
,  // measure 57
0000
0000
0000
0000
,  // measure 58
0000
0000
0000
0000
,  // measure 59
0000
0000
0000
0000
,  // measure 60
1001
0000
0000
0000
0000
0000
0000
0100
,  // measure 61
0000
0000
0100
0100
,  // measure 62
0010
0000
0000
0000
0000
0000
0000
0010
,  // measure 63
0000
0100
0010
0000
,  // measure 64
1000
0001
1000
0000
,  // measure 65
0010
0000
1000
1000
,  // measure 66
1000
0000
0100
0000
,  // measure 67
1000
0100
0010
0000
,  // measure 68
0001
1000
0001
0000
,  // measure 69
0100
0000
0010
0010
,  // measure 70
0010
0000
0000
0000
1000
0000
0000
2002
,  // measure 71
0000
0000
3003
0000
,  // measure 72
0001
1000
0001
0000
,  // measure 73
0010
0000
0001
0001
,  // measure 74
0001
0000
0100
0000
,  // measure 75
0001
0100
0010
0000
,  // measure 76
1000
0001
1000
0000
,  // measure 77
0100
0000
0010
0010
,  // measure 78
0010
0000
0000
0000
0001
0000
0000
2002
,  // measure 79
0000
0000
3003
0000
,  // measure 80
0000
0000
0000
0000
,  // measure 81
0000
0000
0000
0000
,  // measure 82
0001
0100
0001
0100
,  // measure 83
0010
0000
0010
0000
,  // measure 84
1000
0100
1000
0100
,  // measure 85
0010
0000
0010
0000
,  // measure 86
0001
0000
1000
0000
0001
0000
0000
2002
,  // measure 87
0000
0000
3003
0000
,  // measure 88
1000
0010
0100
0001
,  // measure 89
1000
0000
1000
0000
,  // measure 90
0100
0010
0001
1000
,  // measure 91
0010
0000
0100
0000
,  // measure 92
0001
0010
0100
1000
,  // measure 93
0001
0000
0001
0000
,  // measure 94
0100
0000
0010
0000
0100
0000
0000
0220
,  // measure 95
0000
0000
0330
0000
,  // measure 96
1000
0000
0010
0000
,  // measure 97
1000
1000
1000
0000
,  // measure 98
0001
0000
0010
0000
,  // measure 99
0001
0001
0001
0000
,  // measure 100
1000
0000
0010
0000
,  // measure 101
1000
1000
1000
0000
,  // measure 102
0100
0010
0100
0000
,  // measure 103
1000
0001
1000
0000
,  // measure 104
0001
0001
0001
0000
,  // measure 105
0200
0000
0310
0000
,  // measure 106
1000
0001
1000
0000
,  // measure 107
1001
0000
1001
0000
,  // measure 108
1000
1000
1000
0000
,  // measure 109
0200
0000
0310
0000
,  // measure 110
0001
0000
1000
0000
0001
0000
0000
0200
,  // measure 111
0000
0310
1000
0000
;

//---------------dance-single - ----------------
#NOTEDATA:;
#CHARTNAME:;
#STEPSTYPE:dance-single;
#DESCRIPTION:;
#CHARTSTYLE:;
#DIFFICULTY:Easy;
#METER:12;
#RADARVALUES:0.507545,0.612502,0.188578,0.528019,0.007543,471.000000,446.000000,25.000000,70.000000,0.000000,0.000000,0.000000,0.000000,0.000000,0.507545,0.612502,0.188578,0.528019,0.007543,471.000000,446.000000,25.000000,70.000000,0.000000,0.000000,0.000000,0.000000,0.000000;
#CREDIT:;
#DISPLAYBPM:105.000000:210.000000;
#NOTES:
0000
0000
0000
0000
,
0000
0000
0000
0000
,
0000
0000
0000
0000
,
1000
0000
0001
0000
1000
0000
0000
1001
,
0001
0000
0010
0000
0001
0000
0010
0200
,
0000
0300
1000
0000
0001
1000
0001
0000
,
1000
0000
0010
0000
1000
0000
0010
0200
,
0000
0300
0001
0000
1000
0001
1000
0000
,
0100
0000
0010
0000
0001
0000
1000
0020
,
0000
0030
0100
0000
0001
1000
0100
0000
,
0010
0100
0010
0100
0020
0000
0032
0000
,
1003
0000
0000
0000
,
0001
0000
1000
0000
1000
0000
0001
0100
,
0001
0100
0010
0000
2000
0000
3000
0000
,
0001
0000
0010
0000
0010
0000
0100
1000
,
0001
1000
0010
0000
0200
0000
0300
0000
,
0001
0000
1000
0000
1000
0000
0001
0010
,
0001
0010
0100
0000
2000
0000
3000
0000
,
0001
0101
1000
1100
,
0001
0100
0010
1000
0002
0000
0003
0000
,
1000
0000
0001
0000
0001
0000
1000
0100
,
1000
0100
0010
0000
0002
0000
0003
0000
,
1000
0000
0010
0000
0010
0000
0100
0001
,
1000
0001
0010
0000
0200
0000
0300
0000
,
1000
0000
0001
0000
0001
0000
1000
0010
1000
0010
0100
0000
0002
0000
0003
0000
,
1000
1010
0001
0011
,
1000
0001
0010
0100
2000
0000
3001
0000
,
1000
0000
1000
0000
0010
0000
0100
2000
,
0000
3100
0010
0000
1000
0000
1000
0000
,
0001
0000
0001
0000
0010
0000
0100
2000
,
0000
3001
0100
0010
1000
0000
0001
0000
,
1000
0000
1000
0000
0100
0000
0010
2000
,
0000
3010
0100
0000
1000
0000
1000
0000
,
0001
0000
0001
0000
1000
0010
0100
0002
,
0000
0000
0003
0000
1000
0001
1000
0000
,
0001
0000
0001
0000
0010
0000
0100
0002
,
0000
0103
0010
0000
0001
0000
0001
0000
,
1000
0000
1000
0000
0010
0000
0100
0002
,
0000
1003
0100
0010
0001
0000
1000
0000
,
0001
0000
0001
0000
0100
0000
0010
0002
,
0000
0013
0100
0000
0001
0000
0001
0000
,
1000
0000
1000
0000
0001
0010
0100
2000
,
0000
0000
3010
0100
0001
0000
0000
0000
,
2000
0100
3002
0010
,
2003
0000
0000
0000
3002
0000
1003
0001
,
0002
0100
2003
0010
,
3002
0000
0000
0000
2003
0000
3001
1000
,
0200
0000
0000
0000
,
0000
0000
0000
0000
,
0300
0000
0000
0000
,
0000
0000
0000
0000
,
0002
0000
0000
0000
0010
0000
0000
2003
,
0000
0010
3001
1001
,
1000
0000
0100
0000
0020
0000
0000
0100
,
0000
0100
0130
0110
,
0001
0000
0100
0000
0010
0000
0100
2000
,
0000
3100
0010
0100
0001
0000
0001
0000
,
1000
0100
1000
0200
0000
0310
0001
0020
,
0000
0031
0200
0000
0320
0000
2030
0000
,
3001
0000
0010
0000
0100
0000
0010
2000
,
0000
3010
0100
0010
0001
0000
0001
0000
,
1000
0010
0100
0002
0000
1003
0000
1002
,
0000
0013
1100
0101
,
1000
0000
0100
0000
0010
0000
0100
0002
,
0000
0103
0010
0100
1000
0000
1000
0000
,
0001
0100
0001
0200
0000
0310
1000
0020
,
0000
1030
0200
0000
0320
0000
0032
0000
,
1003
0000
0010
0000
0100
0000
0010
0002
,
0000
0013
0100
0010
1000
0000
1000
0000
,
0001
0010
0001
0200
0000
0310
1000
0200
,
0000
0310
0220
0330
,
0000
0000
0000
0000
0000
0000
0000
1001
,
1000
0000
0010
0000
1000
0010
0100
2000
,
0000
3100
0010
1000
0010
0000
1010
0000
,
0001
0000
0010
0000
0001
0010
0100
0002
,
0000
0103
0010
0001
0010
0000
0011
0000
,
1000
0000
0010
0000
0100
0001
1000
0200
,
0000
0310
0110
1001
,
0001
0000
0100
0000
0001
0100
0010
0002
,
0000
0013
0100
0010
1000
0000
1010
0000
,
0001
0000
0010
0000
0100
1000
0001
0200
,
0000
0310
1000
0001
0010
0000
0110
0000
,
1000
0000
0100
0000
1000
0100
0010
2000
,
0000
3010
0100
0010
0001
0000
0011
0000
,
1000
0010
1000
0200
0000
0310
0001
0200
,
0000
0310
0220
0330
,
1000
0000
0010
0000
0010
0000
0100
0001
,
0100
0001
0010
0000
0200
0000
1300
0000
,
0001
0000
0100
0000
0100
0000
0010
1000
,
0001
1000
0100
0000
2000
0000
3001
0100
,
0001
0000
0010
0000
0010
0000
0100
1000
,
0100
1000
0010
0000
0200
0000
0301
0000
,
1000
0100
0010
0001
,
0100
0010
1001
0000
,
1000
0000
0100
0000
0010
0000
0100
2000
,
0000
3100
1000
0000
0010
0100
0001
0000
,
1000
0000
0100
0000
0010
0001
1000
0020
,
0000
0130
0001
0000
0010
0100
1000
0000
,
0001
0000
0100
0000
0010
0000
0100
0002
,
0000
0103
0001
0000
0010
0100
1000
0000
,
1001
0000
1001
0000
1001
0000
0000
1002
,
0000
1003
0100
0010
0001
0000
0000
0000
;

//---------------dance-single - ----------------
#NOTEDATA:;
#CHARTNAME:;
#STEPSTYPE:dance-single;
#DESCRIPTION:;
#CHARTSTYLE:;
#DIFFICULTY:Medium;
#METER:15;
#RADARVALUES:0.742459,0.842190,0.264009,0.610993,0.177263,689.000000,654.000000,35.000000,81.000000,0.000000,0.000000,0.000000,0.000000,0.000000,0.742459,0.842190,0.264009,0.610993,0.177263,689.000000,654.000000,35.000000,81.000000,0.000000,0.000000,0.000000,0.000000,0.000000;
#CREDIT:;
#DISPLAYBPM:105.000000:210.000000;
#NOTES:
0000
0000
0000
0000
,
0000
0000
0000
0000
,
0000
0000
0000
0000
,
1000
0000
0001
0010
0001
0010
0100
0000
1000
0010
1000
0010
0100
0000
1001
0000
,
0001
0010
0001
0000
0010
0100
1000
0020
,
0000
1030
0010
0100
0001
1000
0100
0000
,
1000
0010
1000
0000
0010
0100
0001
0020
,
0000
0031
0010
0100
1000
0001
0100
0000
,
0010
1000
0010
1000
0001
1000
0100
0000
,
0010
0001
0010
0001
1000
0001
0100
0000
,
0001
0100
1000
0100
0002
0000
2003
0000
,
3200
0000
0300
1001
,
2000
0000
0010
0000
3010
0000
1000
0010
,
0100
0000
0001
0000
1000
0001
1000
0000
0200
0000
0000
0000
0310
0000
0000
0000
,
0002
0000
1000
0000
1003
0000
0001
0100
,
0001
1000
0200
0000
1300
0001
0100
0010
,
2000
0000
0100
0000
3100
0000
1000
0100
,
0010
0000
0001
0000
1000
0001
1000
0000
0020
0000
0000
0000
0130
0000
0000
0000
,
0001
0010
0011
0000
1000
0010
1010
0000
,
0001
0010
0001
0100
0010
0000
1001
0000
,
0002
0000
0010
0000
0013
0000
0001
0010
,
0100
0000
1000
0000
0001
1000
0001
0000
0200
0000
0000
0000
0310
0000
0000
0000
,
2000
0000
0001
0000
3001
0000
1000
0100
,
1000
0001
0200
0000
0301
1000
0100
0010
,
0002
0000
0100
0000
0103
0000
0001
0100
0010
1000
0001
1000
0100
0000
0110
0000
,
1000
0001
0101
0000
0001
1000
1100
0000
,
1000
0010
1000
0100
0010
0000
1001
0000
,
1000
0010
1000
0010
0100
1000
0100
0020
,
0000
1030
1000
0001
0010
0100
1000
0000
,
0010
0100
0010
0100
0001
1000
0100
0020
,
0000
0000
0031
0000
0001
0000
1000
0010
1000
0000
0010
0000
0100
0000
0001
0000
,
1000
0100
1000
0100
0010
1000
0010
0200
,
0000
1300
1000
0001
0100
0010
1000
0000
,
0100
0010
0001
1000
0001
0100
0010
2010
,
0000
3001
0001
1000
0100
0010
0011
0000
,
0001
0010
0001
0010
0100
0001
0100
0020
,
0000
0031
0001
1000
0010
0100
0001
0000
,
0010
0100
0010
0100
1000
0001
0100
0020
,
0000
0000
1030
0000
1000
0000
0001
0010
0001
0000
0010
0000
0100
0000
1000
0000
,
0001
0100
0001
0100
0010
0001
0010
0200
,
0000
0301
0001
1000
0100
0010
0001
0000
,
0100
0001
1000
0100
0010
0001
0010
0022
,
0033
0000
1000
0010
1000
0000
0010
0000
2020
0000
0000
0000
3030
0000
0000
0000
,
1000
0100
0010
0002
0000
1003
0001
0200
0000
0310
2000
0000
3002
0000
0023
0000
,
0230
0000
0000
0000
0010
0000
0000
2300
0000
0000
0000
0000
3001
0000
1000
0000
,
0001
0100
0010
2000
0000
3001
1000
0200
0000
0310
0002
0000
2003
0000
3020
0000
,
0230
0000
0000
0000
0010
0000
0000
0302
0000
0000
0000
0000
1003
0000
0001
0000
,
2002
0000
0000
0000
,
0000
0000
0000
0000
,
3003
0000
0000
0000
,
0000
0000
0000
0000
,
1002
0000
0010
0000
0013
0000
0000
2001
,
0000
3010
1001
0110
,
0001
0010
0100
2000
0000
3010
0100
0002
,
0000
0000
0013
0100
0010
0000
0100
0000
2000
0000
0000
0000
3001
0000
0000
0000
,
1000
0010
0001
0010
1000
0001
1000
0200
,
0000
0000
1300
0100
1000
0000
0100
0000
0010
0000
0000
0000
0011
0000
0000
0000
,
1000
0001
0002
0100
0000
1003
2000
0100
,
0000
0000
3001
0100
0001
0000
0100
0000
0010
0000
1000
0010
1000
0000
0001
0000
,
1000
0100
0001
0100
1000
0001
1000
0020
,
0000
0000
1030
0010
1000
0000
0010
0000
0100
0000
0000
0000
0101
0000
0000
0000
,
1000
0100
0010
0002
0000
0103
0010
2010
,
0000
0000
3001
1000
0001
0000
1000
0000
0100
0000
0010
0000
0011
0000
0000
0000
,
0001
0010
1000
0010
0001
1000
0001
0200
,
0000
0000
0301
0100
0001
0000
0100
0000
0010
0000
0000
0000
1010
0000
0000
0000
,
0001
1000
2000
0100
0000
3001
0002
0100
,
0000
0000
1003
0100
1000
0000
0100
0000
0010
0000
0001
0010
0001
0000
1000
0000
,
0001
0100
1000
0100
0001
1000
0001
0020
,
0000
0000
0031
0010
0001
0000
0010
0000
0100
0000
0000
0000
0110
0000
0000
0000
,
1000
0010
0100
0102
0000
0013
0100
2100
,
0000
0000
3010
0100
0010
0000
0100
0000
0102
0000
0000
0000
1003
0000
0000
0000
,
0200
0000
0000
0000
0000
0000
0300
0110
,
0001
0010
0001
0010
1000
0010
0100
0002
,
0000
0103
1000
0001
0010
0100
1000
0001
,
1000
0010
1000
0010
0001
0010
0100
2000
,
0000
3100
0001
1000
0010
0100
0001
1000
,
0100
0010
0001
1000
0001
0100
0010
0120
,
0000
0000
1030
0010
1000
0000
0001
0010
0001
0000
0010
0000
0110
0000
0000
0000
,
1000
0100
1000
0100
0001
0100
0010
2000
,
0000
0000
3010
0000
0100
0000
1000
0000
0001
1000
0001
0000
0100
0000
0010
0000
,
1000
0010
0001
0010
1000
0100
0001
0200
,
0000
0000
0310
0100
0010
0000
0100
0000
1000
0000
0010
0100
0010
0000
0100
0000
,
0001
0100
0001
0100
1000
0100
0010
0002
,
0000
0000
0013
0000
0100
0000
0001
0000
1000
0001
1000
0000
0100
0000
0010
0000
,
0001
0100
0010
2010
0000
3100
0010
0012
,
0000
0000
0103
0010
0100
0000
0010
0000
2010
0000
0000
0000
3001
0000
0000
0000
,
2000
0000
0100
0000
3100
0000
0010
0100
,
1000
0000
0001
0000
0100
0010
0100
0000
0020
0000
0000
0000
0130
0000
0000
0000
,
0002
0000
1000
0000
1003
0000
0001
0010
,
0100
1000
0002
0000
1003
0010
0100
0001
,
0002
0000
0100
0000
0103
0000
0010
0100
,
0001
0000
1000
0000
0100
0010
0100
0000
0020
0000
0000
0000
0031
0000
1000
0000
,
0001
0100
0010
0100
1000
0100
0010
0100
,
0001
1000
0100
0010
0001
0000
1001
0000
,
1000
0010
1000
0010
0001
0010
1000
0200
,
0000
0000
1300
0100
1000
0000
0100
0000
0001
0000
0100
0000
1000
0000
0000
0000
,
0001
0100
0001
0100
0010
1000
0001
0020
,
0000
0130
1000
0001
1000
0010
0100
0000
,
0001
0010
0001
0010
1000
0010
0001
0200
,
0000
0000
0301
0100
0001
0000
0100
0000
1000
0000
0100
0000
0001
0000
0000
0000
,
1001
0000
0001
0001
1000
1000
0001
0002
,
0000
1003
0100
0010
0001
0000
0000
0000
;

//---------------dance-single - ----------------
#NOTEDATA:;
#CHARTNAME:;
#STEPSTYPE:dance-single;
#DESCRIPTION:;
#CHARTSTYLE:;
#DIFFICULTY:Hard;
#METER:18;
#RADARVALUES:0.963365,0.957034,0.248923,0.528019,0.697739,894.000000,861.000000,33.000000,70.000000,0.000000,0.000000,0.000000,0.000000,0.000000,0.963365,0.957034,0.248923,0.528019,0.697739,894.000000,861.000000,33.000000,70.000000,0.000000,0.000000,0.000000,0.000000,0.000000;
#CREDIT:;
#DISPLAYBPM:105.000000:210.000000;
#NOTES:
0000
0000
0000
0000
,
0000
0000
0000
0000
,
0000
0000
0000
0000
,
2000
0000
3001
0010
0001
0010
0100
1000
0010
1000
0010
0100
0001
0000
1001
0000
,
1000
0000
0100
1000
0100
0000
1000
0100
0010
0000
0100
0000
1000
0000
0002
0000
,
0000
0000
1003
0010
1000
0000
0001
0010
0001
0000
1000
0000
1000
0000
0000
0000
,
0001
0000
0100
0001
0100
0000
0001
0100
0010
0000
0100
0000
0001
0000
2000
0000
,
0000
0000
3001
0010
0001
0000
1000
0010
1000
0000
0001
0000
0010
0000
0100
0000
,
1000
0000
0001
0100
0001
0000
1000
0100
1000
0000
0001
0000
0100
0000
0020
0000
,
0000
0000
1030
0010
1000
0000
0001
0010
0001
0000
0010
0000
0100
0000
0000
0000
,
1000
0001
1000
0001
1000
0001
1000
0001
2000
0000
3020
0000
0230
0000
0302
0000
,
1003
0001
0001
0010
0100
1000
1100
0000
,
0001
0100
1000
0100
1000
0100
0001
1000
,
0010
0000
0100
0000
0001
1000
0001
0000
0010
0000
0100
1000
0001
1000
0010
0000
,
0100
0001
0010
0001
0010
0001
0100
0010
,
1000
0000
0001
0010
0001
0000
0010
0000
0100
0000
1000
0010
1000
0000
0001
0000
,
1000
0100
0001
0100
0001
0100
1000
0001
,
0010
0000
0100
0000
1000
0001
1000
0000
0010
0000
0100
0001
1000
0001
0010
0000
,
0100
1000
1002
0000
0103
0001
2001
0000
,
3001
0010
0001
0000
1000
0010
1000
0000
0010
0000
0000
0000
1001
0000
0000
0000
,
0001
0010
1000
0010
1000
0010
0001
1000
,
0100
0000
0010
0000
0001
1000
0001
0000
0100
0000
0010
1000
0001
1000
0100
0000
,
0010
0001
0100
0001
0100
0001
0010
0100
,
1100
0000
0101
0000
1000
0010
0100
0001
,
1000
0000
1001
0000
1001
0000
1000
0100
0010
0001
0010
0100
1000
0000
1001
0000
,
1000
0010
0100
0001
1000
0001
0010
0100
,
1000
0010
1000
0000
0001
0010
0001
0000
0010
0000
0000
0000
0100
0000
1000
0000
,
0001
0000
0100
0010
0100
0000
0001
1000
0001
0000
0010
0000
0100
0000
0002
0000
,
0000
0000
0103
0010
0100
0000
0010
0000
0001
0000
1000
0000
1000
0000
0001
0100
,
0001
0000
0100
0010
0100
0000
0010
0000
1000
0000
0001
0000
0010
0000
0200
0000
,
0000
0000
0310
0100
0010
0000
0100
1000
0001
1000
0010
0000
0010
0000
1000
0000
,
0001
0000
0010
0100
0010
0000
0001
1000
0001
0000
0100
0000
0010
0000
0002
0000
,
0000
0000
0013
0100
0010
0000
0100
0000
0001
0000
1000
0000
1000
0000
0001
0010
,
0001
0000
0010
0100
0010
0000
0100
0000
1000
0000
0010
0000
0100
0000
0120
0000
,
0000
0000
1030
0001
1000
0000
0001
0000
0010
0000
0100
0000
0110
0000
0000
0000
,
1000
0000
0100
0010
0100
0000
1000
0001
1000
0000
0010
0000
0100
0000
2000
0000
,
0000
0000
3100
0010
0100
0000
0010
0000
1000
0000
0001
0000
0001
0000
1000
0100
,
1000
0000
0100
0010
0100
0000
0010
0000
0001
0000
1000
0000
0010
0000
0200
0000
,
0000
0000
0310
0100
0010
0000
0100
0001
1000
0001
0010
0000
0010
0000
0001
0000
,
1000
0000
0010
0100
0010
0000
1000
0001
1000
0000
0100
0000
0010
0000
2000
0000
,
0000
0000
3010
0100
0010
0000
0100
0000
1000
0000
0001
0000
0001
0000
1000
0010
,
1000
0000
0010
0100
0010
0000
0100
0000
0001
0000
1000
0000
0001
0000
0021
0000
,
0000
0000
0031
1000
0001
0000
1000
0000
2010
0000
0000
0000
3001
0000
0000
0000
,
1000
0100
0010
2000
0000
3010
0100
2000
0000
3001
0200
0000
0320
0000
2030
0000
,
3002
0000
0010
0000
0010
0000
0000
2003
0000
0000
0100
0000
3002
0000
1003
0000
,
0001
0100
0010
0002
0000
0013
0100
0002
0000
1003
0200
0000
0320
0000
0032
0000
,
2003
0000
0010
0000
0010
0000
0000
3002
0000
0000
0100
0000
2003
0000
3001
0000
,
2002
0000
0000
0000
,
0000
0000
0000
0000
,
3003
0000
0000
0000
,
0000
0000
0000
0000
,
1001
0000
0001
0100
0001
0100
0010
1020
,
0000
1030
0100
0010
0021
0000
0130
1000
,
0001
0000
1000
0010
0100
0000
0002
0000
0003
0000
0001
0010
0100
0000
2000
0000
,
3000
0000
1000
0010
0100
0000
0001
0000
1001
0000
0000
0000
1000
0000
0100
0010
,
0100
0000
0010
0001
1000
0000
0001
0100
0010
0000
0100
0010
0100
0000
2000
0000
,
0000
0000
3100
0010
0100
0000
0001
0000
1000
0000
0000
0000
1001
0000
0000
0000
,
0001
0000
0010
0100
0010
0000
0002
0000
0000
0000
0103
0010
0100
0000
0002
0000
,
0000
0000
0013
0000
0100
1000
0001
1000
0010
0000
0100
0010
0100
0000
0001
0000
,
1000
0000
0001
0010
0001
0000
0010
0100
1000
0000
0001
0100
0010
0000
0002
0000
,
0000
0000
0013
0100
0010
0000
1000
0000
0001
0000
0000
0000
1000
0000
0100
0000
,
0010
0000
0001
1000
0001
0000
0200
0000
0000
0000
0310
0100
0010
0000
2001
0000
,
0000
0000
3001
0010
0001
0000
0010
0000
0100
0000
1000
0000
0001
0000
0100
0010
,
0100
0000
0010
1000
0001
0000
1000
0100
0010
0000
0100
0010
0100
0000
0002
0000
,
0000
0000
0103
0010
0100
0000
1000
0000
0001
0000
0000
0000
1001
0000
0000
0000
,
1000
0000
0010
0100
0010
0000
2000
0000
0000
0000
3100
0010
0100
0000
2000
0000
,
0000
0000
3010
0000
0100
0001
1000
0001
0010
0000
0100
0010
0100
0000
1000
0000
,
0001
0000
1000
0010
1000
0000
0010
0100
0001
0000
1000
0100
0010
0000
2000
0000
,
0000
0000
3010
0100
0010
0000
0001
0000
1000
0000
0000
0000
0010
0000
0100
0000
,
0001
0000
1000
0100
0010
0000
0002
0000
0000
0000
0103
0010
1000
0000
2010
0000
,
0000
0000
3100
0010
0001
0000
0001
0000
0012
0000
0000
0000
1003
0000
0001
0000
,
2000
0000
0000
0000
0000
0000
0000
0000
0000
0000
0000
0000
0000
3001
1001
0000
,
1000
0000
0001
1000
0001
1000
0100
0000
1000
0010
1000
0010
0100
0000
2000
0000
,
0000
0000
3100
0010
0100
0010
1000
0000
0001
0000
1000
0001
0010
0100
1000
0000
,
0001
0000
1000
0001
1000
0001
0100
0000
0001
0010
0001
0010
0100
0000
0002
0000
,
0000
0000
0103
0010
0100
0010
0001
0000
1000
0000
0001
1000
0010
0100
0001
0000
,
1000
0000
0100
0010
0100
0010
0001
0000
1000
0001
0100
0010
1000
0000
2001
0000
,
0000
0000
3001
1000
0100
0010
0001
0000
1000
0000
0001
0000
1001
0000
0000
0000
,
1000
0000
0010
1000
0010
0100
0001
0000
1000
0100
1000
0100
0010
0000
2000
0000
,
0000
0000
3010
0100
0010
0100
1000
0000
0001
0000
0100
0010
1000
0010
0100
0000
,
0001
0000
1000
0100
0010
0100
1000
0000
0001
0100
0010
0100
0001
0000
2000
0000
,
0000
0000
3001
0010
0100
1000
0001
0000
0001
0000
1000
0010
0100
0001
1000
0000
,
0001
0000
0010
0001
0010
0100
1000
0000
0001
0100
0001
0100
0010
0000
0002
0000
,
0000
0000
0013
0100
0010
0100
0001
0000
1000
0000
0100
0010
0001
0010
0100
0000
,
1000
0000
0001
0100
0010
0000
2000
0000
0000
0000
3100
0010
0001
0000
0012
0000
,
0000
0000
0103
0010
1000
0000
1000
0000
2010
0000
0000
0000
3001
0000
0000
0000
,
1000
0100
0001
0100
0001
1000
0010
0001
,
0010
0000
0100
0000
1000
0001
1000
0000
0010
0000
0100
0001
1000
0001
0010
0000
,
0100
1000
0010
1000
0010
1000
0100
0010
,
0001
0000
1000
0010
1000
0000
0010
0000
0100
0000
0001
0010
0001
0000
1000
0000
,
0001
0100
1000
0100
1000
0001
0010
1000
,
0010
0000
0100
0000
0001
1000
0001
0000
0010
0000
0100
1000
0001
1000
0010
0000
,
0100
0100
0001
1000
0100
0100
0010
0001
,
1000
0000
0010
0000
0100
0000
0001
0000
1000
0000
0001
1000
0001
0000
0000
0000
,
1000
0000
0001
0010
0001
0000
1000
0010
1000
0000
0010
0000
0100
0000
2000
0000
,
0000
0000
3100
0010
0100
0000
0010
0000
1000
0000
0001
0000
1001
0000
0000
0000
,
0001
0000
1000
0100
0010
0000
0001
0000
1000
0000
0010
0000
0100
0000
0002
0000
,
0000
0000
1003
0000
1000
0000
0001
0100
0001
0000
1000
0100
1000
0000
0001
1000
,
0001
0000
1000
0010
1000
0000
0001
0010
0001
0000
0010
0000
0100
0000
0002
0000
,
0000
0000
0103
0010
0100
0000
0010
0000
0001
0000
1000
0000
1001
0000
0000
0000
,
0210
0000
0010
0010
0010
0010
0310
2002
,
3003
1000
0100
0010
0001
0000
0000
0000
;

//---------------dance-single - ----------------
#NOTEDATA:;
#CHARTNAME:;
#STEPSTYPE:dance-single;
#DESCRIPTION:;
#CHARTSTYLE:;
#DIFFICULTY:Challenge;
#METER:19;
#RADARVALUES:1.145478,1.148441,0.475217,0.603450,1.161642,1063.000000,1000.000000,63.000000,80.000000,0.000000,0.000000,0.000000,0.000000,0.000000,1.145478,1.148441,0.475217,0.603450,1.161642,1063.000000,1000.000000,63.000000,80.000000,0.000000,0.000000,0.000000,0.000000,0.000000;
#CREDIT:;
#DISPLAYBPM:105.000000:210.000000;
#NOTES:
0000
0000
0000
0000
,
0000
0000
0000
0000
,
0000
0000
0000
0000
,
0002
0000
0000
0000
1003
0000
1000
0000
0010
0000
0100
0000
0001
0000
0010
0000
0100
0000
1000
0000
0001
1000
0001
0000
0100
0000
0000
0000
0110
0000
0000
0000
,
1000
0000
0010
1000
0001
0000
0010
0001
1000
0000
0010
0000
0100
0000
2000
0000
,
0000
0000
3100
0010
0100
0000
0010
0100
0001
0000
1000
0000
1001
0000
0000
0000
,
0001
0000
0010
0001
1000
0000
0010
1000
0001
0000
0010
0000
0100
0000
0002
0000
,
0000
0000
0103
0010
0100
0000
0010
0100
1000
0000
0001
0000
0100
0000
0010
0000
,
0110
0000
0100
0001
1000
0000
1000
0001
0010
0000
0100
0000
0110
0000
0120
0000
,
0000
0000
0130
1000
0001
0000
0001
1000
0010
0000
0100
0000
0110
0000
0000
0000
,
1000
0010
0100
0001
1000
0001
0010
0100
2000
0000
3020
0000
0230
0000
0302
0000
,
1003
0000
1000
0000
0100
0000
0010
0001
1000
0001
0010
0000
0110
0000
0000
0000
,
1000
0000
0001
0100
0001
0000
1000
0100
1000
0000
0001
0100
0001
0000
0100
0000
,
1000
0000
0001
0000
0010
1000
0010
0000
1000
0000
0010
0100
0001
1000
0100
0000
,
0010
0000
0001
0010
0001
0000
1000
0010
1000
0000
0001
0100
0001
0000
1000
0000
,
0100
0000
0010
0100
0010
0000
0100
0000
1000
0000
0001
0100
0010
0000
1000
0000
,
0001
0000
1000
0100
1000
0000
0001
0100
0001
0000
1000
0100
1000
0000
0100
0000
,
0001
0000
1000
0000
0010
0001
0010
0000
0001
0000
1000
0001
0100
0010
1000
0000
,
0001
0010
0012
0000
1003
0010
2010
0000
,
3001
0010
0100
0000
1000
0010
0100
0000
0001
0000
0000
0000
1001
0000
0000
0000
,
1000
0000
0001
0010
0001
0000
1000
0010
1000
0000
0001
0010
0001
0000
0010
0000
,
1000
0000
0001
0000
0100
1000
0100
0000
1000
0000
0100
0010
0001
1000
0010
0000
,
0100
0000
0001
0100
0001
0000
1000
0100
1000
0000
0001
0010
0001
0000
1000
0000
,
0010
0100
0001
0000
0010
0100
1000
0000
0010
0100
0001
0000
1000
0000
0100
0000
,
0110
0000
0000
0000
1001
0000
0000
0000
1001
0000
0000
0000
1000
0000
0010
0000
0001
0000
1000
0000
0100
0001
0100
0000
0001
0000
0000
0000
1001
0000
0000
0000
,
0011
0010
0100
1000
1010
0010
0100
0001
,
1000
0100
0010
0000
0001
0100
0010
0000
2000
0000
0000
0000
3001
0000
0010
0000
,
0100
0000
0100
1000
0001
0000
0001
1000
0010
0000
1000
0010
0100
0000
2000
0000
,
0000
0000
3100
0010
0100
0000
0001
0000
1000
0000
0001
0010
0100
0000
1000
0001
,
0100
0000
0100
0010
1000
0000
0001
0000
0010
0000
0001
0010
0100
0000
0002
0000
,
0000
0000
0103
0010
0100
0000
0010
0001
1000
0001
0100
0010
0100
0010
1000
0001
,
0010
0000
0010
0100
1000
0000
1000
0001
0100
0000
0001
0100
0010
0000
0002
0000
,
0000
0000
0013
0100
0010
0000
1000
0000
0001
0000
0010
0100
1000
0000
0001
0100
,
0010
0000
0010
1000
0001
0000
0010
0000
0100
0000
0010
0100
0010
0000
2001
0000
,
0000
0000
3010
0100
0001
0000
0101
0000
1000
0000
1100
0000
0001
0000
1000
0010
,
0100
0000
0100
0001
1000
0000
1000
0001
0010
0000
0001
0010
0100
0000
0002
0000
,
0000
0000
0103
0010
0100
0000
1000
0000
0001
0000
1000
0010
0100
0000
0001
1000
,
0100
0000
0100
0010
0001
0000
1000
0000
0010
0000
1000
0010
0100
0000
2000
0000
,
0000
0000
3100
0010
0100
0000
0010
1000
0001
1000
0100
0010
0100
0010
0001
1000
,
0010
0000
0010
0100
0001
0000
0001
1000
0100
0000
1000
0100
0010
0000
2000
0000
,
0000
0000
3010
0100
0010
0000
0001
0000
1000
0000
0010
0100
0001
0000
1000
0100
,
0010
0000
0010
0001
1000
0000
0010
0000
0100
0000
0010
0100
0010
0000
2002
0000
,
3003
0000
0100
0010
0100
0000
1001
0000
2002
0000
3003
0000
0110
0000
0000
0000
,
0001
1000
0100
0002
0000
0103
1000
0002
0000
1003
0020
0000
0032
0000
0023
0000
,
2030
0000
0010
0000
3010
0000
1000
0200
0000
0010
0010
0000
2300
0000
3001
0001
,
1000
0001
0100
2000
0000
3100
0001
2000
0000
3001
0020
0000
2030
0000
3020
0000
,
0032
0000
0010
0000
0013
0000
0001
0200
0000
0010
0010
0000
0302
0000
1003
0000
,
2002
0000
0000
0000
,
0000
0000
0000
0000
,
3003
0000
0000
0000
,
0000
0000
0000
0000
,
1001
0000
0001
0010
0001
0000
1000
0010
1000
0000
0100
0000
0010
0000
0012
0000
,
0000
0103
0010
1000
2010
0000
3100
0010
,
0001
0000
1000
0001
0100
0010
2000
0000
0000
0000
3001
1000
0100
0010
0002
0000
,
0000
0000
1003
0010
0100
0001
1000
0001
0010
0000
0100
1000
0001
0000
1000
0010
,
0100
0000
0100
0001
1000
0000
0100
0010
0001
0000
0010
0001
0100
0000
2000
0000
,
0000
0000
3100
0010
0100
0000
0010
1000
0100
0000
0010
0001
1000
0000
0001
0100
,
0010
0000
0000
0000
0100
0000
0001
0000
1000
0000
0001
0000
0020
0000
0000
0000
0000
0000
0000
0030
0010
0000
0001
0000
1000
0000
0001
0000
0200
0000
0000
0000
,
0000
0000
0310
1000
0001
1000
0010
1000
0100
0010
0001
0010
0100
1000
0001
0100
,
0010
0000
0010
1000
0001
0000
0010
0100
1000
0000
0100
1000
0010
0000
0002
0000
,
0000
0000
1003
0100
0001
0000
0100
0001
0010
0000
0001
0010
0001
0010
0100
0000
,
1000
0000
0001
0100
0010
0000
0200
0000
0000
0000
0310
0100
0001
1000
0200
0000
,
0000
0000
0310
0001
1000
0010
0100
0010
0001
0000
0010
0100
0001
0000
0001
1000
,
0100
0000
0100
1000
0001
0000
0100
0010
1000
0000
0010
1000
0100
0000
0002
0000
,
0000
0000
0103
0010
0100
0000
0010
0001
0100
0000
0010
1000
0001
0000
1000
0100
,
0010
0000
0000
0000
0100
0000
1000
0000
0001
0000
1000
0000
0020
0000
0000
0000
0000
0000
0000
0030
0010
0000
1000
0000
0001
0000
1000
0000
0200
0000
0000
0000
,
0000
0000
0310
0001
1000
0001
0010
0001
0100
0010
1000
0010
0100
0001
1000
0100
,
0010
0000
0010
0001
1000
0000
0010
0100
0001
0000
0100
0001
0010
0000
2000
0000
,
0000
0000
3001
0100
1000
0000
0100
1000
0010
0000
0100
0001
1000
0000
0001
1000
,
0100
0000
0010
0001
0100
0000
0220
0000
0330
0000
0010
1000
0100
0000
0220
0000
,
0330
0000
0100
0010
0100
0000
1001
0000
1001
0000
0000
0000
0001
0100
0010
1000
,
0002
0000
0000
0000
0000
0000
0000
0000
0000
0000
0000
0000
0000
1003
1001
0000
,
1000
0100
0010
0001
0010
0100
1000
0001
1000
0010
0100
0010
0001
0010
0200
0000
,
0000
0000
1300
0100
0010
1000
0010
0100
0001
0000
1000
0100
0010
0001
1000
0000
,
1000
0000
0001
1000
0010
0100
0010
1000
0001
0010
0100
0010
1000
0010
0200
0000
,
0000
0000
0301
0100
0010
0001
0010
0100
1000
0000
0001
0100
0010
1000
0001
0000
,
0010
0000
0100
1000
0001
1000
0010
0100
0001
1000
0100
0010
0100
0000
0220
0000
,
0330
0000
0001
0010
0100
1000
0010
0100
0001
0000
1000
0100
0010
0100
0010
0001
,
1000
0010
0100
0001
0010
0001
0010
0100
1000
0001
0100
0010
0001
0010
0002
0000
,
0000
0000
1003
0100
0010
1000
0001
1000
0100
0010
0001
0010
0100
1000
0001
1000
,
0010
0100
0010
1000
0001
1000
0100
0010
0001
1000
0010
0100
0001
1000
0200
0000
,
0000
0000
1300
0100
0010
0001
0100
0010
1000
0000
1000
0010
0100
0001
1000
0000
,
0001
0010
0100
1000
0010
1000
0010
0100
0001
1000
0100
0010
1000
0010
2000
0000
,
0000
0000
3001
0100
0010
0001
1000
0001
0100
0010
1000
0010
0100
0001
1000
0001
,
0010
0000
0100
1000
0010
0000
1020
0000
0000
0000
0130
0001
0010
0000
0021
0000
,
0000
0000
0130
1000
0010
0000
1010
0000
0101
0000
0000
0000
1001
0000
0000
0000
,
0001
0000
1000
0100
1000
0000
0010
1000
0010
0000
1000
0100
1000
0000
0100
0000
,
0001
0000
1000
0000
0010
0001
0010
0000
0001
0000
0010
0100
1000
0001
0100
0000
,
0010
0000
1000
0010
1000
0000
0001
0010
0001
0000
1000
0100
1000
0000
0001
0000
,
0100
0000
0010
0100
0010
0000
0100
0000
0001
0000
1000
0100
0010
0000
0001
0000
,
1000
0000
0001
0100
0001
0000
0010
0001
0010
0000
0001
0100
0001
0000
0100
0000
,
1000
0000
0001
0000
0010
1000
0010
0000
1000
0000
0010
0100
0001
1000
0100
0000
,
0210
1300
0001
0100
0210
0301
1000
0100
,
0210
0000
1300
0000
2001
0000
3010
0000
0110
0000
0100
0001
1000
0000
0000
0000
,
1001
0000
0001
1000
0100
0000
0100
0010
0100
0000
0010
0100
0001
0000
0202
0000
,
0303
0000
0001
0100
0010
0000
0110
0000
0110
0000
1000
0001
1000
0000
0001
0100
,
0010
0000
0010
1000
0001
0000
1000
0000
1100
0000
0110
0000
0011
0000
2002
0000
,
3003
0000
1001
0000
0101
0000
0100
0010
1000
0000
0100
0010
0001
0000
0001
1000
,
0001
0000
1000
0001
0100
0000
0100
0010
0100
0000
0010
0100
1000
0000
2200
0000
,
3300
0000
1000
0100
0010
0000
0110
0000
0110
0000
0001
1000
0001
0000
0010
0000
,
0110
0000
1100
0011
0101
1010
1100
0022
,
0033
0001
0100
0010
1000
0000
0000
0000
;
