#VERSION:0.83;
#TITLE:Fear;
#SUBTITLE:;
#ARTIST:Supbaby;
#TITLETRANSLIT:;
#SUBTITLETRANSLIT:;
#ARTISTTRANSLIT:;
#GENRE:Drum & Bass;
#ORIGIN:;
#CREDIT:;
#BANNER:Fear.png;
#BACKGROUND:Fear-bg.png;
#PREVIEWVID:;
#JACKET:Fear-jacket.png;
#CDIMAGE:;
#DISCIMAGE:;
#LYRICSPATH:;
#CDTITLE:cdtitle.png;
#MUSIC:Fear.ogg;
#OFFSET:-0.041800;
#SAMPLESTART:13.228613;
#SAMPLELENGTH:13.186812;
#SELECTABLE:YES;
#BPMS:0.000=91.000,
20.000=182.000,
292.000=91.000;
#STOPS:;
#DELAYS:;
#WARPS:;
#TIMESIGNATURES:0.000=4=4;
#TICKCOUNTS:0.000=4;
#COMBOS:0.000=1;
#SPEEDS:0.000=1.000=0.000=0;
#SCROLLS:0.000=1.000;
#FAKES:;
#LABELS:0.000=Song Start;
#BGCHANGES:;
#KEYSOUNDS:;
#ATTACKS:
;

//---------------dance-single - ----------------
#NOTEDATA:;
#CHARTNAME:;
#STEPSTYPE:dance-single;
#DESCRIPTION:;
#CHARTSTYLE:;
#DIFFICULTY:Challenge;
#METER:13;
#RADARVALUES:0.562256,0.760878,0.399283,1.018579,0.146675,483.000000,434.000000,49.000000,125.000000,0.000000,0.000000,0.000000,0.000000,0.000000,0.562256,0.760878,0.399283,1.018579,0.146675,483.000000,434.000000,49.000000,125.000000,0.000000,0.000000,0.000000,0.000000,0.000000;
#CREDIT:;
#NOTES:
// measure 0
0000
0000
0000
0000
,  // measure 1
0000
0000
0000
0000
,  // measure 2
0002
0000
0000
0023
0000
0000
2030
0000
0000
3020
0000
0000
0032
0000
0000
1003
,  // measure 3
0100
0000
0020
0000
0000
0032
0000
0000
2003
0000
0000
3020
0000
0000
0032
0000
,  // measure 4
0000
0023
0000
0000
2030
0000
0000
3001
0100
0000
0220
0000
0000
0000
0330
0000
,  // measure 5
2000
0000
3100
0020
0000
0130
0002
0000
,  // measure 6
0103
0020
0000
0130
2000
0000
3001
0100
,  // measure 7
0210
0000
0310
0100
0001
1000
0100
0010
,  // measure 8
0002
0000
0103
0020
0000
0130
2000
0000
,  // measure 9
3100
0020
0000
0130
0002
0000
0103
0010
,  // measure 10
1000
0000
2001
0000
0000
3001
1000
0100
,  // measure 11
0020
0000
0001
0230
0000
0001
0320
0000
,  // measure 12
0001
0230
0000
0001
0310
0000
0010
0200
,  // measure 13
0000
1300
0001
0100
0010
0200
0000
1300
,  // measure 14
0100
0010
1000
0001
0010
0100
0001
0100
,  // measure 15
2000
0000
3010
0200
0000
0310
0002
0000
,  // measure 16
0013
0200
0000
0310
2000
0000
3001
0100
,  // measure 17
1000
0000
1200
0000
0000
0301
0100
0100
,  // measure 18
0002
0000
0013
0200
0000
0310
2000
0000
,  // measure 19
3010
0200
0000
0310
0002
0000
1003
0100
,  // measure 20
0001
0000
0201
0000
0000
1300
0001
1000
,  // measure 21
0020
0000
1000
0230
0000
1000
0320
0000
,  // measure 22
1000
0230
0000
1000
0310
0000
0010
0200
,  // measure 23
0000
0301
1000
0100
0010
0200
0000
0301
,  // measure 24
0100
1000
1000
0001
0100
0010
0110
0000
,  // measure 25
2000
0010
0000
0001
0000
3200
0000
0302
,  // measure 26
2003
0000
3020
0000
0031
0011
0000
1001
,  // measure 27
0000
0202
0000
0303
0000
0001
0100
0001
,  // measure 28
1000
0100
0010
0100
0000
0100
0000
0010
,  // measure 29
0002
0010
0010
1000
0000
0203
0000
2300
,  // measure 30
3002
0000
0023
1000
0000
0230
0001
0000
,  // measure 31
0010
0310
0000
0110
0000
1000
0001
1000
,  // measure 32
0100
0000
0000
0100
0000
0000
0100
0000
0220
0000
0000
0000
0330
0000
0000
0000
,  // measure 33
0010
0001
1000
0020
0000
0032
0000
0013
,  // measure 34
2000
0000
0000
3100
0001
0100
1000
0001
,  // measure 35
1001
0000
1001
0000
1000
0020
0000
1030
,  // measure 36
0200
0000
0000
0000
1300
0000
0001
0000
1001
0000
0000
1000
0010
0000
0100
0000
,  // measure 37
0001
1000
0001
0020
0000
2030
0000
3010
,  // measure 38
0002
0000
0000
0000
0000
0000
0103
0000
1000
0000
0100
0000
0001
0100
0001
0000
,  // measure 39
1001
0110
2002
0000
,  // measure 40
0000
0000
0000
0000
3003
0000
1000
0000
0010
0000
0000
0100
0000
0000
0001
0000
,  // measure 41
1000
0000
2001
0000
0000
3001
0010
0100
,  // measure 42
0001
0100
0010
0001
0000
1000
0010
0001
,  // measure 43
2000
0000
3001
0020
0000
1030
0002
0000
,  // measure 44
1003
0200
0000
0310
0002
0000
1003
0010
,  // measure 45
0100
0000
0000
1010
0000
0000
1001
0000
0000
0000
1100
0000
0000
0000
0010
0000
,  // measure 46
0100
0000
0000
0011
0000
0000
1001
0000
0000
0000
0101
0000
0000
0000
1000
0000
,  // measure 47
0001
0020
0000
1000
0000
0031
0000
0000
,  // measure 48
1001
0000
0000
0000
0000
0000
0001
0000
0010
0000
0000
0100
0000
0000
1000
0000
,  // measure 49
0001
0000
1002
0000
0000
1003
0010
0100
,  // measure 50
1000
0100
0010
1000
0000
0001
0010
1000
,  // measure 51
0002
0000
1003
0020
0000
0031
1000
0000
,  // measure 52
2002
0000
3003
0000
0101
0110
0000
1010
,  // measure 53
0002
0000
2003
0000
,  // measure 54
3002
0000
0010
2003
0000
0010
3001
0000
,  // measure 55
2002
0000
3003
0000
0001
0010
0100
1000
,  // measure 56
0001
0001
0000
0011
0000
1000
0010
0100
,  // measure 57
0010
0001
0000
0021
0000
0100
1030
0000
,  // measure 58
1000
0000
1000
0000
0100
1000
0200
0000
0000
0000
0301
0000
0000
0000
0110
0000
,  // measure 59
2001
3010
1002
0013
,  // measure 60
0001
0000
0001
0000
1000
0010
2000
0000
0000
0000
3001
0000
0010
0000
0100
0000
,  // measure 61
0010
1000
0000
1020
0000
0100
0031
0000
,  // measure 62
0001
0000
0001
0000
0100
0001
0200
0000
0000
0000
1300
0000
0100
0000
0001
0000
,  // measure 63
1002
0013
2001
3010
,  // measure 64
0100
0000
0100
0000
0100
0000
0010
0000
1000
0000
0000
0001
0000
0000
1000
0000
,  // measure 65
0100
0001
0000
0201
0000
0010
1300
0000
,  // measure 66
1000
1000
0010
0001
0010
1000
0010
1010
,  // measure 67
2001
0000
0010
0010
0000
0001
3100
0000
,  // measure 68
0010
0000
0001
1000
0000
0100
0010
0000
0001
0000
0001
0000
1000
0000
0001
0000
,  // measure 69
0100
1000
0000
1200
0000
0010
0301
0000
,  // measure 70
0001
0000
0001
0000
0010
0001
0020
0000
0000
0000
1030
0000
0000
0000
0011
0000
,  // measure 71
1002
0000
0010
0010
0000
1000
0103
0000
,  // measure 72
0001
0000
0001
0000
1000
0010
1000
0000
0010
0000
1000
0000
0100
0000
0010
0000
,  // measure 73
0002
0000
0000
0203
0000
0000
2300
0000
0000
3200
0000
0000
0302
0000
0000
1003
,  // measure 74
0200
0000
0302
0000
0000
0103
0010
0100
2000
0000
0001
3002
0000
0100
0103
0000
,  // measure 75
2010
0000
3000
0012
0000
0003
2010
0000
3000
0012
0000
0003
2000
0000
3002
0000
,  // measure 76
0203
0000
0310
1000
0100
0010
0100
0010
0001
0100
0010
1000
0200
0000
0000
0000
,  // measure 77
0020
0000
0000
0000
0300
0000
0000
0000
0000
0000
0000
0000
0000
0030
0000
0000
;

//---------------dance-single - ----------------
#NOTEDATA:;
#CHARTNAME:;
#STEPSTYPE:dance-single;
#DESCRIPTION:;
#CHARTSTYLE:;
#DIFFICULTY:Hard;
#METER:10;
#RADARVALUES:0.417908,0.443846,0.301499,0.920795,0.061115,359.000000,322.000000,37.000000,113.000000,0.000000,0.000000,0.000000,0.000000,0.000000,0.417908,0.443846,0.301499,0.920795,0.061115,359.000000,322.000000,37.000000,113.000000,0.000000,0.000000,0.000000,0.000000,0.000000;
#CREDIT:;
#NOTES:
// measure 0
0000
0000
0000
0000
,  // measure 1
0000
0000
0000
0000
,  // measure 2
0002
0000
0000
0023
0000
0000
2030
0000
0000
3020
0000
0000
0032
0000
0000
0003
,  // measure 3
1000
0000
2000
0000
0000
3002
0000
0000
2003
0000
0000
3020
0000
0000
0032
0000
,  // measure 4
0000
0023
0000
0000
2030
0000
0000
3000
0001
0000
2002
0000
0000
0000
3003
0000
,  // measure 5
2000
0000
0000
3200
0000
0000
0302
0000
,  // measure 6
0000
0203
0000
0000
0320
0000
0031
0000
,  // measure 7
2002
0000
3003
0000
1000
0001
1000
0000
,  // measure 8
0002
0000
0000
0203
0000
0000
2300
0000
,  // measure 9
0000
3200
0000
0000
0320
0000
1030
0001
,  // measure 10
1000
0000
2002
0000
3003
0001
0010
0100
,  // measure 11
2000
0000
0000
0010
0000
0000
3002
0000
,  // measure 12
0000
0010
0000
2003
0100
0000
3002
0100
,  // measure 13
0000
0003
1000
0001
0020
0000
0030
0000
,  // measure 14
0001
1000
0010
0000
0100
0001
1000
0000
,  // measure 15
0002
0000
0000
0023
0000
0000
2030
0000
,  // measure 16
0000
3002
0000
0000
0203
0000
1300
0001
,  // measure 17
0010
0000
0022
0000
0033
0001
1000
0001
,  // measure 18
2000
0000
0000
3020
0000
0000
0032
0000
,  // measure 19
0000
2003
0000
0000
3200
0000
0301
1000
,  // measure 20
0010
0000
2020
0000
3030
1000
0010
0100
,  // measure 21
0002
0000
0000
0010
0000
0000
2003
0000
,  // measure 22
0000
0010
0000
3002
0100
0000
2003
0100
,  // measure 23
0000
0000
3001
1000
0020
0000
0030
0000
,  // measure 24
1000
0001
1000
0001
0010
0000
0110
0000
,  // measure 25
2000
0001
0000
0001
0000
3010
0000
0100
,  // measure 26
0010
0000
0010
0000
1000
0001
0000
0011
,  // measure 27
0000
1100
0000
0000
0001
1000
0000
1010
,  // measure 28
0000
0101
0000
1000
0000
1000
0000
0000
,  // measure 29
0002
1000
0000
1000
0000
0013
0000
0100
,  // measure 30
0010
0000
0002
0000
0000
0203
0000
0000
,  // measure 31
0320
1000
0000
1030
0000
0001
1000
0000
,  // measure 32
0100
0000
0000
0100
0000
0000
0100
0000
0220
0000
0000
0000
0330
0000
0000
0000
,  // measure 33
0001
0000
1000
0010
0000
0001
0000
0010
,  // measure 34
1000
0000
0000
0010
1000
0100
0010
0000
,  // measure 35
0110
0000
0110
0000
0001
0010
0000
0100
,  // measure 36
1000
0000
0000
0001
0100
0010
1000
0000
,  // measure 37
1001
0000
0001
0010
0000
1000
0000
0010
,  // measure 38
0001
0000
0000
0010
0001
0100
0010
0000
,  // measure 39
0110
0110
2002
0000
,  // measure 40
0000
0000
0000
0000
3003
0000
1000
0000
0010
0000
0000
0100
0000
0000
0001
0000
,  // measure 41
1000
0000
2001
0000
0000
0010
0000
0000
,  // measure 42
0001
0000
0000
0100
0000
3100
0010
0100
,  // measure 43
0002
0000
0000
0203
0000
0000
2300
0000
,  // measure 44
0000
3002
0000
0000
0023
0000
0031
1000
,  // measure 45
0010
0000
0000
0100
0000
0000
0001
0000
0000
0000
1002
0000
0000
0000
0003
0000
,  // measure 46
0010
0000
0000
0100
0000
0000
1000
0000
0000
0000
2001
0000
0000
0000
3000
0000
,  // measure 47
0010
0200
0000
0010
0000
0310
0000
0000
,  // measure 48
1001
0000
0000
0000
0000
0000
0001
0000
0010
0000
0000
0100
0000
0000
1000
0000
,  // measure 49
0001
0000
1002
0000
0000
0010
0000
0000
,  // measure 50
1000
0000
0000
0100
0000
0103
0010
0100
,  // measure 51
2000
0000
0000
3200
0000
0000
0302
0000
,  // measure 52
1003
0000
0000
0000
0001
0010
0000
0100
,  // measure 53
2000
3000
0002
0003
,  // measure 54
2000
0000
3100
0002
0000
0103
1000
0000
,  // measure 55
2002
0000
3003
0000
1000
0010
0100
0001
,  // measure 56
0020
0000
0000
0030
,  // measure 57
0012
0000
0000
1000
0000
0100
0103
0000
,  // measure 58
0100
0010
0000
2001
0000
3100
0000
0100
,  // measure 59
0120
0030
1002
0003
,  // measure 60
0001
0100
0000
1002
0000
0103
0000
0010
,  // measure 61
2010
0000
0000
0001
0000
0100
3100
0000
,  // measure 62
0100
0010
0000
1002
0000
0000
0103
0010
,  // measure 63
0120
0030
2001
3000
,  // measure 64
0100
0010
0001
0000
0100
0010
1000
0000
,  // measure 65
1020
0000
0000
0001
0000
0100
0130
0000
,  // measure 66
0010
1000
0010
1000
0001
0000
0010
0100
,  // measure 67
2000
0000
0001
3002
0000
1000
1003
0000
,  // measure 68
1001
0000
1000
0010
0100
0001
0010
0000
,  // measure 69
0021
0000
0000
1000
0000
0100
0130
0000
,  // measure 70
0010
0001
0000
1002
0000
0103
0000
0100
,  // measure 71
0002
0000
1000
2003
0000
0001
3001
0000
,  // measure 72
1000
0100
0010
0100
0020
0000
0000
0000
,  // measure 73
0032
0000
0000
0203
0000
0000
2300
0000
0000
3200
0000
0000
0302
0000
0000
0003
,  // measure 74
2000
0000
3200
0000
0000
0000
0302
0000
0203
0000
0000
2300
0000
0000
3002
0000
,  // measure 75
0103
0000
0000
0100
0000
0000
0100
0000
0000
0100
0000
0000
0010
0000
1000
0000
,  // measure 76
0100
0010
0220
0000
0330
0000
0002
0000
,  // measure 77
2000
0000
0000
0000
0003
0000
0000
0000
0000
0000
0000
0000
0000
3000
0000
0000
;

//---------------dance-single - ----------------
#NOTEDATA:;
#CHARTNAME:;
#STEPSTYPE:dance-single;
#DESCRIPTION:;
#CHARTSTYLE:;
#DIFFICULTY:Medium;
#METER:8;
#RADARVALUES:0.299171,0.380439,0.187419,0.586701,0.000000,257.000000,234.000000,23.000000,72.000000,0.000000,0.000000,0.000000,0.000000,0.000000,0.299171,0.380439,0.187419,0.586701,0.000000,257.000000,234.000000,23.000000,72.000000,0.000000,0.000000,0.000000,0.000000,0.000000;
#CREDIT:;
#NOTES:
// measure 0
0000
0000
0000
0000
,  // measure 1
0000
0000
0000
0000
,  // measure 2
0002
0013
0020
0130
,  // measure 3
0200
1300
2000
3010
,  // measure 4
0020
0000
0130
0000
0200
0002
0000
0303
,  // measure 5
1000
0000
0000
0010
0000
0000
0100
0000
,  // measure 6
0000
0010
0000
0000
1000
0000
0000
0000
,  // measure 7
2002
3003
1000
1000
,  // measure 8
0001
0000
0000
0010
0000
0000
0100
0000
,  // measure 9
0000
0010
0000
0000
0001
0000
0000
0000
,  // measure 10
0001
1001
0000
2000
,  // measure 11
3020
0000
0000
0230
0000
0000
0302
0000
,  // measure 12
0000
0023
0000
0000
0130
0000
1000
0000
,  // measure 13
0000
0010
0100
0000
,  // measure 14
0001
0010
0100
1000
,  // measure 15
0001
0000
0000
0100
0000
0000
0010
0000
,  // measure 16
0000
0100
0000
0000
0001
0000
0000
0000
,  // measure 17
0001
0101
0000
0001
,  // measure 18
1000
0000
0000
0100
0000
0000
0010
0000
,  // measure 19
0000
0100
0000
0000
1000
0000
0000
0000
,  // measure 20
1000
1100
0000
0002
,  // measure 21
0023
0000
0000
0230
0000
0000
2300
0000
,  // measure 22
0000
3020
0000
0000
0130
0000
0001
0000
,  // measure 23
0000
0010
0100
0000
,  // measure 24
1000
1000
0001
0001
,  // measure 25
0100
0000
0000
0200
0000
0010
0000
0000
,  // measure 26
0010
0000
0310
0000
1000
0002
0000
0010
,  // measure 27
0000
0013
0000
0000
0001
2000
0000
0010
,  // measure 28
0000
3010
0000
0000
1000
0000
0001
0000
,  // measure 29
0010
0000
0000
0020
0000
0100
0000
0000
,  // measure 30
0130
0000
0020
0000
0000
0032
0000
0000
,  // measure 31
2003
0000
0000
3020
0000
0000
0230
0000
,  // measure 32
0310
0010
2002
3003
,  // measure 33
1000
0000
0000
0001
0000
0010
0000
0001
,  // measure 34
0010
0000
0000
0001
0010
0000
0100
0000
,  // measure 35
0110
0110
0001
0100
,  // measure 36
0010
0000
0000
1000
0100
0000
0010
0000
,  // measure 37
0001
0000
0000
1000
0000
0010
0000
1000
,  // measure 38
0010
0000
0000
1000
0010
0000
0100
0000
,  // measure 39
0110
0110
2002
0000
,  // measure 40
0000
0000
3003
0001
1000
0000
0100
0000
,  // measure 41
0010
0120
0000
0001
,  // measure 42
0000
0000
0001
0000
0000
0130
0010
0000
,  // measure 43
0002
0000
0000
0203
0000
0000
0320
0000
,  // measure 44
0000
2030
0000
0000
3002
0000
0103
0000
,  // measure 45
0010
1000
1001
0000
,  // measure 46
0010
0001
1001
0000
,  // measure 47
1000
0100
0010
0001
,  // measure 48
1000
0000
0000
1000
0001
0000
0100
0000
,  // measure 49
0010
0120
0000
1000
,  // measure 50
0000
0000
1000
0000
0000
0130
0010
0000
,  // measure 51
2000
0000
0000
3200
0000
0000
0320
0000
,  // measure 52
0032
0000
0003
0000
1000
0001
0000
2002
,  // measure 53
0000
3003
0002
0003
,  // measure 54
2000
3000
0002
0003
,  // measure 55
1000
0010
0100
0001
,  // measure 56
0020
0000
0000
0030
,  // measure 57
0012
0000
0000
1000
0000
0000
1003
0000
,  // measure 58
0001
0000
0000
0101
0000
0000
0001
0000
,  // measure 59
0020
0030
0020
0030
,  // measure 60
0001
1000
0010
0000
,  // measure 61
2010
0000
0000
0001
0000
0000
3001
0000
,  // measure 62
1000
0000
0000
1100
0000
0000
1000
0000
,  // measure 63
0020
0030
0020
0030
,  // measure 64
1000
1000
0001
0001
,  // measure 65
2001
0000
0000
0100
0000
0000
3100
0000
,  // measure 66
1000
0100
1100
0000
,  // measure 67
0002
0000
0000
0010
0000
0000
1003
0000
,  // measure 68
0001
0100
0010
0000
,  // measure 69
1002
0000
0000
0100
0000
0000
0103
0000
,  // measure 70
0001
0000
0000
0101
0000
0000
0000
0000
,  // measure 71
2000
0000
0000
0010
0000
0000
3001
0000
,  // measure 72
1000
0100
0020
0000
,  // measure 73
0032
1003
2000
3010
,  // measure 74
0020
0130
0200
0301
,  // measure 75
2000
3200
0302
0023
,  // measure 76
2030
0002
3003
0002
,  // measure 77
2000
0000
0000
0000
0003
0000
0000
0000
0000
0000
0000
0000
0000
3000
0000
0000
;

//---------------dance-single - ----------------
#NOTEDATA:;
#CHARTNAME:;
#STEPSTYPE:dance-single;
#DESCRIPTION:;
#CHARTSTYLE:;
#DIFFICULTY:Easy;
#METER:4;
#RADARVALUES:0.195567,0.285329,0.122229,0.309648,0.000000,168.000000,153.000000,15.000000,38.000000,0.000000,0.000000,0.000000,0.000000,0.000000,0.195567,0.285329,0.122229,0.309648,0.000000,168.000000,153.000000,15.000000,38.000000,0.000000,0.000000,0.000000,0.000000,0.000000;
#CREDIT:;
#NOTES:
// measure 0
0000
0000
0000
0000
,  // measure 1
0000
0000
0000
0000
,  // measure 2
0002
0003
0020
0030
,  // measure 3
0200
0300
2000
3000
,  // measure 4
0020
0000
0030
0000
0200
0000
0000
0300
,  // measure 5
0001
0000
0001
0000
,  // measure 6
0001
0000
0000
0000
,  // measure 7
2002
0000
3003
0000
,  // measure 8
1000
0000
1000
0000
,  // measure 9
1000
0000
0000
0000
,  // measure 10
0002
0000
0003
0000
,  // measure 11
0010
0000
0100
0000
,  // measure 12
1000
0000
0000
0000
,  // measure 13
0001
0000
0000
0000
,  // measure 14
0100
0000
0010
0000
,  // measure 15
1000
0000
1000
0000
,  // measure 16
0100
0000
0000
0000
,  // measure 17
0020
0000
0030
0000
,  // measure 18
0001
0000
0001
0000
,  // measure 19
0100
0000
0000
0000
,  // measure 20
0020
0000
0030
0000
,  // measure 21
0010
0000
0100
0000
,  // measure 22
0001
0000
0000
0000
,  // measure 23
1000
0000
0000
0000
,  // measure 24
0001
1000
0001
0000
,  // measure 25
0020
0000
0030
0000
,  // measure 26
0010
0010
0100
0000
,  // measure 27
1000
0000
0000
0000
,  // measure 28
1000
0000
0000
0000
,  // measure 29
0020
0000
0030
0000
,  // measure 30
0010
0100
0000
0010
,  // measure 31
0100
0000
0000
0000
,  // measure 32
0001
0001
0001
0000
,  // measure 33
1000
0000
0100
0000
,  // measure 34
0010
0000
0100
0010
,  // measure 35
0001
0000
0100
0000
,  // measure 36
0010
0000
0100
0010
,  // measure 37
1000
0000
0100
0000
,  // measure 38
0010
0000
0001
0000
,  // measure 39
1001
1001
2002
0000
,  // measure 40
0000
3003
1000
0001
,  // measure 41
2000
0000
0010
0000
,  // measure 42
0010
0000
3001
1000
,  // measure 43
0100
0000
0010
0000
,  // measure 44
0001
0000
1000
0000
,  // measure 45
0010
0010
0100
0000
,  // measure 46
0001
0001
1000
0000
,  // measure 47
0100
0100
0010
0000
,  // measure 48
0001
0000
0001
1000
,  // measure 49
0002
0000
0010
0000
,  // measure 50
0010
0000
1003
0001
,  // measure 51
0100
0000
0010
0000
,  // measure 52
0110
0000
0100
0010
,  // measure 53
2002
0000
3003
0000
,  // measure 54
1000
0000
0001
0000
,  // measure 55
0220
0000
0000
0000
,  // measure 56
0330
0000
0000
0000
,  // measure 57
1002
0000
0013
0000
,  // measure 58
0010
0000
1002
0000
,  // measure 59
0103
0000
0100
0000
,  // measure 60
0100
0010
0100
0000
,  // measure 61
2001
0000
3010
0000
,  // measure 62
0010
0000
2001
0000
,  // measure 63
3100
0000
0100
0000
,  // measure 64
0010
0010
0100
0100
,  // measure 65
2001
0000
3010
0000
,  // measure 66
0010
1000
0010
0000
,  // measure 67
2001
0000
3100
0000
,  // measure 68
0100
0010
0001
0000
,  // measure 69
1002
0000
0013
0000
,  // measure 70
0010
0001
0010
0000
,  // measure 71
1002
0000
0103
0000
,  // measure 72
0100
0010
2000
0000
,  // measure 73
3001
0000
0000
0000
,  // measure 74
0000
0000
1000
0001
,  // measure 75
0020
0230
2300
3002
,  // measure 76
0203
0020
0330
2000
,  // measure 77
0002
0000
0000
0000
3000
0000
0000
0000
0000
0000
0000
0000
0000
0003
0000
0000
;

//---------------dance-single - ----------------
#NOTEDATA:;
#CHARTNAME:;
#STEPSTYPE:dance-single;
#DESCRIPTION:;
#CHARTSTYLE:;
#DIFFICULTY:Beginner;
#METER:2;
#RADARVALUES:0.105932,0.174177,0.048892,0.114081,0.000000,91.000000,85.000000,6.000000,14.000000,0.000000,0.000000,0.000000,0.000000,0.000000,0.105932,0.174177,0.048892,0.114081,0.000000,91.000000,85.000000,6.000000,14.000000,0.000000,0.000000,0.000000,0.000000,0.000000;
#CREDIT:;
#OFFSET:-0.041800;
#BPMS:0.000000=182.000000
;
#STOPS:;
#DELAYS:;
#WARPS:;
#TIMESIGNATURES:0.000000=4=4
;
#TICKCOUNTS:0.000000=4
;
#COMBOS:0.000000=1
;
#SPEEDS:0.000000=1.000000=0.000000=0
;
#SCROLLS:0.000000=1.000000
;
#FAKES:;
#LABELS:0.000000=Song Start
;
#NOTES:
// measure 0
0000
0000
0000
0000
,  // measure 1
0000
0000
0000
0000
,  // measure 2
0000
0000
0000
0000
,  // measure 3
0000
0000
0000
0000
,  // measure 4
0001
0000
0000
0000
,  // measure 5
0001
0000
0000
0000
,  // measure 6
1000
0000
0000
0000
,  // measure 7
1000
0000
0000
0000
,  // measure 8
0001
0000
0000
0000
,  // measure 9
1000
0000
0000
0000
,  // measure 10
0001
0000
0000
0000
,  // measure 11
0010
0000
0000
0000
,  // measure 12
1001
0000
0000
0000
,  // measure 13
1000
0000
0000
0000
,  // measure 14
0010
0000
0000
0000
,  // measure 15
1000
0000
0000
0000
,  // measure 16
0002
0000
0003
0000
,  // measure 17
0020
0000
0030
0000
,  // measure 18
0200
0000
0300
0000
,  // measure 19
2000
0000
3000
0000
,  // measure 20
0001
0000
0000
0000
,  // measure 21
0100
0000
0000
0000
,  // measure 22
0001
0000
0000
0000
,  // measure 23
1000
0000
0000
0000
,  // measure 24
0100
0000
0000
0000
,  // measure 25
1000
0000
0000
0000
,  // measure 26
0002
0000
0003
0000
,  // measure 27
0200
0000
0300
0000
,  // measure 28
0020
0000
0030
0000
,  // measure 29
2000
0000
3000
0000
,  // measure 30
0001
0000
0000
0000
,  // measure 31
0001
0000
0001
0000
,  // measure 32
0001
0000
0000
0000
,  // measure 33
0001
0000
0000
0000
,  // measure 34
1000
0000
0000
0000
,  // measure 35
1000
0000
1000
0000
,  // measure 36
1000
0000
0000
0000
,  // measure 37
2000
0000
3000
0000
,  // measure 38
0100
0000
0000
0000
,  // measure 39
0010
0000
0000
0000
,  // measure 40
0100
0000
0100
0000
,  // measure 41
0100
0000
0000
0000
,  // measure 42
0010
0000
0000
0000
,  // measure 43
0100
0000
0000
0000
,  // measure 44
0010
0000
2002
0000
,  // measure 45
3003
0000
0000
0000
,  // measure 46
0001
0000
0000
0000
,  // measure 47
0100
0000
0000
0000
,  // measure 48
0010
0000
0000
0000
,  // measure 49
1000
0000
0000
0000
,  // measure 50
0001
0000
0000
0000
,  // measure 51
1000
0000
0000
0000
,  // measure 52
0001
0000
1000
0000
,  // measure 53
0001
0000
0000
0000
,  // measure 54
1000
0000
0000
0000
,  // measure 55
0100
0000
0000
0000
,  // measure 56
0010
0000
0000
0000
,  // measure 57
0001
0000
1000
0000
,  // measure 58
0001
0000
0000
0000
,  // measure 59
1000
0000
0000
0000
,  // measure 60
0020
0000
0000
0000
,  // measure 61
0030
0000
0000
0000
,  // measure 62
1001
0000
0000
0000
,  // measure 63
0100
0000
0000
0000
,  // measure 64
1000
0000
1000
0000
,  // measure 65
1000
0000
0000
0000
,  // measure 66
1001
0000
0000
0000
,  // measure 67
0100
0000
0000
0000
,  // measure 68
0001
0000
0001
0000
,  // measure 69
0001
0000
0000
0000
,  // measure 70
1001
0000
0000
0000
,  // measure 71
1000
0000
1000
0000
,  // measure 72
0010
0000
0000
0000
,  // measure 73
1000
0000
0000
0000
,  // measure 74
1001
0000
0000
0000
,  // measure 75
0001
0000
0001
0000
,  // measure 76
0010
0000
0000
0000
,  // measure 77
0200
0000
0000
0000
,  // measure 78
0300
0000
0000
0000
,  // measure 79
0000
0000
0000
0000
,  // measure 80
0000
0000
0000
0000
,  // measure 81
0000
0000
0000
0000
,  // measure 82
1000
0000
0000
0000
,  // measure 83
0001
0000
0000
0000
,  // measure 84
0200
0000
0000
0000
,  // measure 85
0000
0000
0300
0000
;
