#TITLE:ファッションモンスター;
#SUBTITLE:;
#ARTIST:きゃりーぱみゅぱみゅ;
#TITLETRANSLIT:Fashion Monster;
#SUBTITLETRANSLIT:;
#ARTISTTRANSLIT:Kyary Pamyu Pamyu;
#GENRE:;
#CREDIT:;
#BANNER:Fashion Monster.png;
#BACKGROUND:Fashion Monster-bg.png;
#LYRICSPATH:Fashion Monster.lrc;
#CDTITLE:cdtitle.png;
#MUSIC:Fashion Monster.ogg;
#OFFSET:-0.040000;
#SAMPLESTART:74.288002;
#SAMPLELENGTH:12.000000;
#SELECTABLE:YES;
#BPMS:0.000000=160.000000
;
#STOPS:
;
#BGCHANGES:0.000=Fashion Monster.mp4=1.000=1=0=1===CrossFade==,
99999=-nosongbg-=1.000=0=0=0 // don't automatically add -songbackground-
;
#KEYSOUNDS:;
#ATTACKS:;

//---------------dance-single - ----------------
#NOTES:
     dance-single:
     :
     Beginner:
     3:
     0.170350,0.242990,0.044998,0.082496,0.000000,159.000000,153.000000,6.000000,11.000000,0.000000,0.000000,0.170350,0.242990,0.044998,0.082496,0.000000,159.000000,153.000000,6.000000,11.000000,0.000000,0.000000:
0000
0000
0000
0000
,
0000
0000
0000
0000
,
0001
0000
0020
0000
,
0000
0000
0030
0000
,
0001
0000
0000
0000
,
0001
0000
0000
0000
,
1000
0000
0020
0000
,
0000
0000
0030
0000
,
1000
0000
0000
0000
,
1000
0000
0000
0000
,
0001
0000
0010
0000
,
0001
0000
0000
0000
,
1000
0000
1000
0000
,
1000
0000
0000
0000
,
1000
0000
0010
0000
,
1000
0000
0000
0000
,
0001
0000
0001
0000
,
0001
0000
0000
0000
,
0001
0000
0001
0000
,
0010
0000
0100
0000
,
1000
0000
1000
0000
,
0010
0000
0100
0000
,
0001
0000
0001
0000
,
0100
0000
0010
0000
,
1000
0000
1000
0000
,
0100
0000
0010
0000
,
0001
0000
0001
0000
,
1000
0000
0010
0000
,
1000
0000
1000
0000
,
0001
0000
0010
0000
,
0001
0000
0001
0000
,
1000
0000
0010
0000
,
1001
0000
1001
0000
,
1001
0000
0000
0000
,
1000
0000
0100
0000
,
1000
0000
0100
0000
,
1000
0000
0100
0000
,
0010
0000
0001
0001
,
0001
0000
0100
0000
,
0001
0000
0100
0000
,
0001
0000
0100
0000
,
0010
0000
1000
1000
,
2000
3000
1000
0000
,
0002
0003
0001
0000
,
2000
3000
1000
0000
,
0100
0100
0100
0000
,
0020
0030
0010
0000
,
0200
0300
0100
0000
,
1001
0000
0000
0000
,
0000
0000
1000
1000
,
1000
0000
0010
0000
,
1000
0000
0001
0001
,
0001
0000
0010
0000
,
0001
0000
1000
0000
,
0010
0000
0100
0100
,
0100
0000
0001
0000
,
1000
0000
0100
0100
,
0100
0000
0010
0010
,
0010
0000
0001
0000
,
0100
0000
0010
0010
,
0010
0000
1000
0000
,
0100
0000
0010
0010
,
0010
0000
0001
0000
,
0100
0000
0010
0010
,
0010
0000
0010
0000
,
1001
0000
0000
0000
,
0001
0000
0010
0000
,
0200
0000
0300
0000
,
0010
0000
0100
0000
,
2000
0000
3000
0000
,
1000
0000
0010
0000
,
0200
0000
0300
0000
,
0010
0000
0100
0000
,
0002
0000
0003
0000
,
0001
0000
0010
0000
,
0100
0000
1000
1000
,
1000
0000
0010
0000
,
0100
0000
0001
0001
,
0001
0000
0010
0000
,
0100
0000
1000
1000
,
1000
0000
0001
0000
,
1001
0000
0000
0000
;

//---------------dance-single - ----------------
#NOTES:
     dance-single:
     :
     Easy:
     5:
     0.235704,0.306549,0.112495,0.584975,0.000000,220.000000,205.000000,15.000000,78.000000,0.000000,0.000000,0.235704,0.306549,0.112495,0.584975,0.000000,220.000000,205.000000,15.000000,78.000000,0.000000,0.000000:
0000
0000
0000
0000
,
0000
0000
0002
2003
,
3002
0000
0020
0000
,
0000
0000
0000
0033
,
0001
0000
1000
0000
,
1001
0000
2000
3002
,
2003
0000
0020
0000
,
0000
0000
0000
3030
,
1000
0000
0001
0000
,
1001
0000
0002
2003
,
3200
0000
0320
0000
,
0230
0000
0310
0010
,
0001
0000
1000
0000
,
0001
0000
2000
3002
,
0203
0000
0020
0000
,
0000
0000
0330
0000
,
1000
0000
0001
0000
,
2002
0000
0000
3003
,
0001
0010
0001
0020
,
0000
0001
0000
0031
,
1000
0010
1000
0020
,
0000
1000
0000
1030
,
0001
0100
0001
0200
,
0000
0001
0000
0301
,
1000
0100
1000
0200
,
0000
1000
0000
1300
,
0001
0100
0010
2000
,
0000
0001
0000
3001
,
1000
0100
0010
0002
,
0000
1000
0000
1003
,
0001
0100
0010
2000
,
0000
0001
0000
3001
,
1001
0000
1001
0000
,
2002
0000
0000
3003
,
1000
0100
1000
0000
,
0001
0100
0001
0000
,
1000
0100
1000
0000
,
0001
1000
0001
0000
,
1000
0010
1000
0000
,
0001
0010
0001
0000
,
1000
0010
1000
0000
,
0001
0010
0100
0000
,
2000
3002
0103
0000
,
0002
2003
3100
0000
,
2000
3002
0103
0000
,
0010
0010
0010
0000
,
2000
3002
0013
0000
,
0002
2003
3010
0000
,
2002
0000
0000
0000
0000
0000
0000
3003
,
0000
0000
0002
0023
,
0230
0300
0220
0330
,
0001
0001
2000
3020
,
0230
0300
0220
0330
,
1000
1000
0001
0000
,
1000
0100
0010
0100
,
1000
0000
1001
0000
,
0001
0100
0010
0100
,
0001
0000
2000
3200
,
0320
0030
0022
0033
,
1000
1000
0002
0203
,
0320
0030
2020
3030
,
0001
0001
2000
3200
,
0320
0030
0022
0033
,
1000
0010
0100
0001
,
1001
0000
1001
0000
,
1000
0001
1000
0000
,
0001
0010
0100
2000
,
0000
0000
0000
3000
,
1000
0010
0100
0002
,
0000
0000
0000
0003
,
1000
0100
0010
0002
,
0000
0000
0000
0003
,
0001
0100
0010
2000
,
0000
0000
0000
3000
,
0002
0000
0023
0000
,
2030
0000
3010
0001
,
2000
0000
3020
0000
,
0032
0000
0013
1000
,
0002
0000
0023
0000
,
2030
0000
3010
0001
,
1000
0000
0001
0000
,
1000
1000
0010
0001
;

//---------------dance-single - ----------------
#NOTES:
     dance-single:
     :
     Medium:
     7:
     0.327843,0.398514,0.254989,0.749968,0.000000,306.000000,272.000000,34.000000,100.000000,0.000000,0.000000,0.327843,0.398514,0.254989,0.749968,0.000000,306.000000,272.000000,34.000000,100.000000,0.000000,0.000000:
0000
0000
0000
0000
,
0000
0000
0002
2003
,
3002
0000
0000
0020
0000
0000
0000
0000
,
0000
0000
0000
0033
,
0001
0000
0000
0010
0000
0000
1001
0000
,
1001
0000
2000
3002
,
2003
0000
0000
0020
0000
0000
0000
0000
,
0000
0000
0000
3030
,
1000
0000
0000
0010
0000
0000
1001
0000
,
0000
1001
0000
0000
0002
0000
2003
0000
,
3200
0000
0000
0320
0000
0000
0031
0000
,
0100
0100
0010
0010
,
1000
0001
0010
0001
,
0010
0100
2000
3002
,
0203
0000
0000
0320
0000
0000
2030
0000
,
3002
0023
0230
2300
,
3020
0130
0001
1000
,
2002
0000
0000
3003
,
0002
0000
0000
0023
0000
0000
0230
0000
,
0000
0000
1300
0000
0001
1000
0001
0000
,
2000
0000
0000
3020
0000
0000
0230
0000
,
0000
0000
0301
0000
1000
0001
1000
0000
,
0200
0000
0000
0320
0000
0000
0032
0000
,
0000
0000
1003
0000
0010
0100
0001
0000
,
0200
0000
0000
0320
0000
0000
2030
0000
,
0000
0000
3001
0000
0010
0100
1000
0000
,
2001
0000
0000
3020
0000
0000
0032
0000
,
0000
0000
0013
0000
1000
0010
1000
0000
,
1002
0000
0000
0023
0000
0000
2030
0000
,
0000
0000
3010
0000
0001
0010
0001
0000
,
2001
0000
0000
3020
0000
0000
0032
0000
,
0000
0000
0013
0000
1000
0010
1000
0000
,
1001
0000
0110
0000
,
2002
0000
0000
3003
,
1000
0100
0010
0001
,
0011
1000
0010
0100
,
0101
1000
0100
0010
,
0011
0000
1000
0000
1000
0001
1000
0000
,
0001
0100
0010
1000
,
1010
0001
0010
0100
,
1100
0001
0100
0010
,
1010
0000
0001
0000
0001
1000
0100
0000
,
2000
3020
1030
1000
,
0002
0023
0031
0001
,
2000
3020
0130
0001
,
1001
0000
0000
0000
0001
1000
0001
0000
,
0020
0230
1300
1000
,
0020
0230
0301
0001
,
0220
0000
0000
0000
0000
0000
0000
0330
,
0000
0000
2000
3020
,
0032
0000
0000
0023
0000
0000
2030
0000
,
3000
1000
0002
0023
,
2030
0000
0000
3020
0000
0000
0032
0000
,
0003
0000
0001
0000
1000
0001
1000
0000
,
0010
0000
0010
0000
0100
0000
0010
1000
,
0000
1001
0000
0000
0001
1000
0001
0000
,
0010
0000
0010
0000
0100
0000
0010
0001
,
0000
1001
0000
0000
2000
0000
3020
0000
,
0032
0000
0000
0023
0000
0000
2030
0000
,
0010
0010
3002
0023
,
2030
0000
0000
3020
0000
0000
0032
0000
,
0010
0010
2003
3020
,
0032
0000
0000
0023
0000
0000
2030
0000
,
0010
0010
3001
1000
,
1001
0000
0110
0000
,
0001
0000
1000
0000
0001
1000
0001
0000
,
1000
0000
0100
0010
0000
0100
0020
0000
,
0000
0100
0000
0130
,
1000
0000
0001
0010
0000
0100
2000
0000
,
0000
0000
3010
0000
1000
0001
1000
0000
,
0001
0000
0100
0010
0000
0100
0020
0000
,
0000
0100
0000
0130
,
0001
0000
1000
0010
0000
0100
0002
0000
,
0000
0000
0013
0000
0001
1000
0001
0000
,
1002
0000
0000
0203
0000
0000
2300
0000
,
0000
3200
0000
0000
0301
0000
0110
0000
,
2001
0000
0000
3200
0000
0000
0302
0000
,
0000
0203
0000
0000
1300
0000
0110
0000
,
1002
0000
0000
0203
0000
0000
2300
0000
,
0000
3200
0000
0000
0301
0000
0110
0000
,
1001
0000
1001
0000
,
1001
1001
1001
0010
;

//---------------dance-single - ----------------
#NOTES:
     dance-single:
     :
     Challenge:
     12:
     0.491765,0.521134,0.337486,0.562476,0.011250,459.000000,414.000000,45.000000,75.000000,0.000000,0.000000,0.491765,0.521134,0.337486,0.562476,0.011250,459.000000,414.000000,45.000000,75.000000,0.000000,0.000000:
// measure 0
0000
0000
0000
0000
,  // measure 1
0000
0000
0002
2003
,  // measure 2
3002
0000
0000
0020
0000
0000
0000
0000
,  // measure 3
0000
0000
0000
0033
,  // measure 4
0001
0000
0000
0010
0000
0000
1001
0000
,  // measure 5
1001
0000
2000
3002
,  // measure 6
2003
0000
0000
0020
0000
0000
0000
0000
,  // measure 7
0000
0000
0000
3030
,  // measure 8
1000
0000
0000
0010
0000
0000
1001
0000
,  // measure 9
0000
1001
0000
0000
0002
0000
2003
0000
,  // measure 10
3200
0000
0310
0002
1000
0000
1000
0000
,  // measure 11
0100
0000
0103
0000
0001
0100
0010
1000
,  // measure 12
0001
0000
1000
0100
0010
0001
1000
0000
,  // measure 13
0001
0001
2000
3002
,  // measure 14
0203
0000
0310
1000
0002
0000
0023
0000
,  // measure 15
0230
2300
3020
0230
,  // measure 16
0302
0000
1003
0010
0100
0001
1000
0100
,  // measure 17
0020
0000
0000
0030
,  // measure 18
0011
0000
0010
0001
1000
0000
1002
0000
,  // measure 19
0103
0001
0100
0000
0001
0100
0010
0000
,  // measure 20
1010
0000
0010
1000
0001
0000
2001
0000
,  // measure 21
3100
1000
0100
0000
1000
0100
0010
0000
,  // measure 22
0011
0000
1000
0001
0100
0000
0201
0000
,  // measure 23
0310
0100
0001
0000
0100
0010
1000
0000
,  // measure 24
1010
0000
0001
1000
0100
0000
1200
0000
,  // measure 25
0310
0100
1000
0000
0100
0010
0001
0000
,  // measure 26
1001
0000
0001
0100
1000
0000
1200
0000
,  // measure 27
1300
0100
0010
0000
0100
0010
1000
0000
,  // measure 28
1001
0000
1000
0100
0001
0000
0201
0000
,  // measure 29
0301
0100
0010
0000
0100
0010
0001
0000
,  // measure 30
1001
0000
0001
0100
1000
0000
1200
0000
,  // measure 31
1300
0100
0010
0000
0100
0010
1000
0000
,  // measure 32
1010
0001
0011
1000
,  // measure 33
2002
0000
0000
3003
,  // measure 34
1000
0010
1000
0010
0100
0001
0000
0101
,  // measure 35
0000
1000
0001
1000
0100
0010
0000
0011
,  // measure 36
0000
1000
0001
0010
0001
0100
0000
0101
,  // measure 37
0000
0001
0100
0010
1000
1000
0001
0001
,  // measure 38
0000
0010
0001
0010
0100
1000
0000
1100
,  // measure 39
0000
0001
1000
0001
0100
0010
0000
1010
,  // measure 40
0000
0001
1000
0010
1000
0100
0000
1100
,  // measure 41
0000
1000
0100
0010
0001
0100
0010
1000
,  // measure 42
0002
0003
0002
0003
1000
0100
0010
0100
,  // measure 43
2000
3000
2000
3000
0001
0100
0010
0100
,  // measure 44
0002
0003
0002
0003
1000
0100
0010
0002
,  // measure 45
0000
0013
0001
0100
0001
0100
0010
0000
,  // measure 46
2000
3000
2000
3000
0100
0001
0100
1000
,  // measure 47
0002
0003
0002
0003
0100
1000
0100
0001
,  // measure 48
0000
1000
0010
0100
0001
0010
0100
2000
,  // measure 49
0000
3000
0002
0023
,  // measure 50
2030
0000
3010
1000
0010
0000
0011
0000
,  // measure 51
1000
0001
1000
0001
2000
0000
3020
0000
,  // measure 52
0032
0000
0013
0001
0010
0000
1010
0000
,  // measure 53
0001
1000
0001
1000
0100
0010
0100
1000
,  // measure 54
0001
0100
0010
1000
0001
0010
0100
1000
,  // measure 55
0000
1100
0000
0001
0000
0001
0100
1000
,  // measure 56
0100
0001
0010
1000
0010
0001
1000
0010
,  // measure 57
0000
1010
0000
0001
2000
0000
3200
0000
,  // measure 58
0302
0000
1003
0010
0001
0000
0011
0000
,  // measure 59
0001
0010
0100
1000
0002
0000
0203
0000
,  // measure 60
2300
0000
3001
0010
1000
0000
1010
0000
,  // measure 61
1000
0010
0100
0001
2000
0000
3200
0000
,  // measure 62
0302
0000
1003
0010
0001
0000
0011
0000
,  // measure 63
0001
0010
0100
1000
0010
0000
1000
0000
,  // measure 64
1010
0001
0011
1000
,  // measure 65
1001
0000
1001
0000
0001
1000
0001
0000
,  // measure 66
1000
0100
0010
0001
0000
0010
0002
0000
,  // measure 67
0010
0000
0000
0000
1000
0000
0000
0000
0103
0000
0000
0000
0001
0000
0100
0001
,  // measure 68
0100
0010
1000
0001
0000
1000
0200
0000
,  // measure 69
0001
0000
0010
0000
1300
0001
1000
0000
,  // measure 70
0001
0100
0010
1000
0000
0010
2000
0000
,  // measure 71
0010
0000
0000
0000
0001
0000
0000
0000
3100
0000
0000
0000
1000
0000
0100
1000
,  // measure 72
0100
0010
0001
1000
0000
0001
0200
0000
,  // measure 73
1000
0000
0010
0000
0301
1000
0001
0000
,  // measure 74
1002
0000
0013
2000
0000
3010
0002
0000
,  // measure 75
0103
2000
0000
3100
0010
0100
0001
0000
,  // measure 76
2001
0000
3010
0002
0000
0013
2000
0000
,  // measure 77
3100
0002
0000
0103
0010
0100
1000
0000
,  // measure 78
1002
0000
0013
2000
0000
3010
0002
0000
,  // measure 79
0103
2000
0000
3100
0010
0100
0001
0000
,  // measure 80
0101
1000
1100
0001
,  // measure 81
1001
0000
0000
0000
1001
0000
0000
0000
0100
0000
0010
0100
0010
0000
0000
0000
;

//---------------dance-single - ----------------
#NOTES:
     dance-single:
     :
     Hard:
     10:
     0.419982,0.429169,0.284988,0.764967,0.000000,392.000000,354.000000,38.000000,102.000000,0.000000,0.000000,0.419982,0.429169,0.284988,0.764967,0.000000,392.000000,354.000000,38.000000,102.000000,0.000000,0.000000:
0000
0000
0000
0000
,
0000
0000
0002
2003
,
3002
0000
0000
0020
0000
0000
0000
0000
,
0000
0000
0000
0033
,
0001
0000
0000
0010
0000
0000
1001
0000
,
1001
0000
2000
3002
,
2003
0000
0000
0020
0000
0000
0000
0000
,
0000
0000
0000
3030
,
1000
0000
0000
0010
0000
0000
1001
0000
,
0000
1001
0000
0000
0002
0000
2003
0000
,
3200
0000
0310
0001
1000
0000
0001
0000
,
0100
0000
0100
0000
0010
0100
0010
0000
,
1000
0000
0001
0000
0010
0100
0010
0000
,
0001
0001
2000
3002
,
0203
0000
0310
1000
0002
0000
0023
0000
,
0230
2300
3020
0230
,
0302
0000
1003
0001
1000
0100
0010
0000
,
0220
0000
0000
0330
,
0002
0000
0013
0200
0000
0310
0002
0000
,
1000
0000
1003
0000
0001
1000
0001
0000
,
2000
0000
3010
0200
0000
0310
2000
0000
,
0001
0000
3001
0000
1000
0001
1000
0000
,
0200
0000
0310
0002
0000
1003
0020
0000
,
0100
0000
0130
0000
0010
0100
0001
0000
,
0200
0000
0310
2000
0000
3001
0020
0000
,
0100
0000
0130
0000
0010
0100
1000
0000
,
2001
0000
3010
0200
0000
0310
0002
0000
,
0023
0000
2030
0000
3010
1000
0001
0000
,
1002
0000
0013
0200
0000
0310
2000
0000
,
3020
0000
0032
0000
0013
0001
1000
0000
,
2001
0000
3010
0200
0000
0310
0002
0000
,
0023
0000
2030
0000
3010
1000
0001
0000
,
1001
0000
0110
0000
,
2002
0000
0000
3003
,
1000
0000
0100
0000
0010
0001
0000
0011
,
0000
1000
0010
0000
0100
0001
0000
0101
,
0000
1000
0100
0000
0010
0001
0000
0011
,
0000
1000
0001
0000
1000
0001
1000
0000
,
0001
0000
0100
0000
0010
1000
0000
1010
,
0000
0001
0010
0000
0100
1000
0000
1100
,
0000
0001
0100
0000
0010
1000
0000
1010
,
0000
0001
0010
0000
0100
1000
0001
0000
,
2000
0000
3020
0000
1030
0010
0100
0000
,
0002
0000
0023
0000
0031
0010
0100
0000
,
2000
0000
3020
0000
1030
0010
0100
0001
,
0000
0101
1001
0011
,
0020
0000
0230
0000
1300
0001
0100
0000
,
0020
0000
0230
0000
0301
1000
0100
0000
,
0220
0000
0000
0000
0000
0000
0000
0330
,
0000
0000
2000
3020
,
0032
0000
0013
0200
0000
0310
2000
0000
,
0010
0000
3010
1000
0002
0000
0023
0000
,
2030
0000
3010
0200
0000
0310
0002
0000
,
0010
0000
0013
0000
0010
0001
1000
0000
,
0001
0000
0100
0000
0001
0100
0010
1000
,
0000
1010
0000
0001
0000
0001
1000
0000
,
0001
0000
0010
0000
0001
0010
0100
1000
,
0000
1100
0000
0001
2000
0000
3020
0000
,
0032
0000
0013
0100
0010
0000
2010
0000
,
0010
0000
3001
1000
0002
0000
0023
0000
,
2030
0000
3010
0100
0010
0000
0012
0000
,
0010
0000
1003
0001
2000
0000
3020
0000
,
0032
0000
0013
0100
0010
0000
2010
0000
,
0001
0000
3001
1000
0001
0000
0010
0000
,
1001
0000
0110
0000
,
0001
0000
1000
0000
0001
1000
0001
0000
,
1000
0100
0010
0001
0000
0010
0002
0000
,
0010
0000
0010
0000
1000
0000
0103
0001
,
0100
0000
0010
1000
0000
0001
0020
0000
,
0100
0000
0130
0000
1000
0001
1000
0000
,
0001
0100
0010
1000
0000
0010
2000
0000
,
0010
0000
0010
0000
0001
0000
3100
1000
,
0100
0000
0010
0001
0000
1000
0020
0000
,
0100
0000
0130
0000
0010
0100
0001
0000
,
1002
0000
0013
0200
0000
0310
2000
0000
,
3010
0200
0000
0310
0001
0000
0011
0000
,
2001
0000
3010
0200
0000
0310
0002
0000
,
0013
0200
0000
0310
1000
0000
1010
0000
,
1002
0000
0013
0200
0000
0310
2000
0000
,
3010
0200
0000
0310
0001
0000
0011
0000
,
1001
0000
1001
0000
,
1001
0000
1001
0000
0001
0100
1000
0000
;
