#TITLE:Exhaust Hype;
#SUBTITLE:;
#ARTIST:DJ Noriken;
#TITLETRANSLIT:;
#SUBTITLETRANSLIT:;
#ARTISTTRANSLIT:;
#GENRE:Hard Bass House;
#CREDIT:;
#BANNER:Exhaust Hype.png;
#BACKGROUND:Exhaust Hype-bg.png;
#LYRICSPATH:;
#CDTITLE:cdtitle.png;
#MUSIC:Exhaust Hype.ogg;
#OFFSET:-2.522245;
#SAMPLESTART:22.114082;
#SAMPLELENGTH:13.061220;
#SELECTABLE:YES;
#BPMS:0.000000=147.000000
;
#STOPS:
;
#BGCHANGES:-5.750=Exhaust Hype.mp4=1.000=1=0=1===CrossFade==,
99999=-nosongbg-=1.000=0=0=0 // don't automatically add -songbackground-
;
#KEYSOUNDS:;
#ATTACKS:;

//---------------dance-single - ----------------
#NOTES:
     dance-single:
     :
     Challenge:
     15:
     0.722036,0.794663,0.379069,0.426453,0.769984,640.000000,592.000000,48.000000,54.000000,20.000000,0.000000,0.722036,0.794663,0.379069,0.426453,0.769984,640.000000,592.000000,48.000000,54.000000,20.000000,0.000000:
// measure 0
0000
0000
0000
0000
,  // measure 1
0000
0000
0000
0000
,  // measure 2
0000
0000
0000
0000
,  // measure 3
0000
0000
0000
0000
,  // measure 4
1001
0000
0000
0000
1000
0000
0100
0000
0010
0000
0100
1000
0000
1000
0010
0000
,  // measure 5
1001
0000
0000
0000
0001
0000
0100
0000
0010
0000
0100
0001
0000
0001
0010
0000
,  // measure 6
1001
0000
1000
0010
1001
0000
0001
0010
,  // measure 7
0220
0000
0000
0000
0000
0000
0330
0000
0000
0000
0000
0000
0001
0000
0000
1000
0001
1000
0001
0000
0000
0000
0000
0000
,  // measure 8
1020
0001
0100
1030
,  // measure 9
0021
1000
0100
0031
,  // measure 10
1000
0000
1000
0000
0001
0000
0001
0000
1000
0010
1000
0010
0100
0001
0100
0001
,  // measure 11
2000
0000
0000
0000
0000
0000
3000
0000
0000
0000
0000
0000
0000
0000
0000
0001
1000
0001
1000
0000
0000
0000
0000
0000
,  // measure 12
1001
0000
0000
0000
0001
1000
0100
00M0
0100
0000
0001
0100
0001
0000
0010
0000
,  // measure 13
0011
0000
0000
0000
1000
0001
0100
00M0
0100
0000
1000
0010
1000
0000
0010
0000
,  // measure 14
0200
0000
0010
0000
0301
0100
00M0
0100
1000
0001
1000
0000
0100
0000
0010
0000
,  // measure 15
0200
0000
0010
0000
1300
0100
00M0
0100
0001
1000
0001
0000
0100
0000
0010
0000
,  // measure 16
1001
0000
0000
0000
0001
0010
0100
000M
0100
0000
0010
1000
0010
0000
1000
0000
,  // measure 17
1010
0000
0000
0000
1000
0010
0100
M000
0100
0000
0010
0001
0010
0000
0001
0000
,  // measure 18
0011
0000
0000
0000
1001
0000
0001
0000
0100
0000
0010
1000
0000
0010
1000
0000
,  // measure 19
1010
0000
0000
0000
1001
0000
0100
0010
0100
0000
0010
0000
2001
0000
0000
0000
,  // measure 20
3010
1000
0001
1000
0010
0M00
0010
0001
1000
0001
0010
0M00
0010
1000
0001
2000
,  // measure 21
0010
0000
3002
0010
0000
2003
0010
0000
3001
0010
0001
2000
0010
0000
3100
0000
,  // measure 22
0010
0001
1000
0001
0010
0M00
0010
1000
0001
1000
0010
0M00
0010
0001
1000
0000
,  // measure 23
0010
0000
0010
0000
0100
0010
0100
0010
1000
0001
1000
0100
0010
0000
0001
0000
,  // measure 24
0010
0001
1000
0001
0010
0M00
0010
1000
0001
1000
0010
0M00
0010
0001
1000
0002
,  // measure 25
0010
0000
2003
0010
0000
3002
0010
0000
1003
0010
1000
0002
0010
0000
0103
0000
,  // measure 26
0110
0000
0000
0000
1001
0000
1000
0000
0100
0000
0010
0001
0000
1000
0010
0000
,  // measure 27
0220
0000
0000
0330
,  // measure 28
1002
0000
0000
0000
0010
0000
0010
0000
1000
0000
0000
0000
0103
0010
1000
0001
,  // measure 29
0200
0000
0000
0000
1000
0000
0010
0000
0301
0000
0000
0001
0010
0000
0100
0000
,  // measure 30
2000
0000
0000
0000
0010
0000
0010
0000
0001
0000
0000
0000
3100
0010
0001
1000
,  // measure 31
0200
0000
0000
0000
0001
0000
0010
0000
1300
0000
0000
0000
1001
0000
0001
0100
,  // measure 32
0010
0000
0000
0100
0001
0000
1000
0100
0010
0000
0000
0100
1000
0000
0001
1000
,  // measure 33
0010
0000
0000
0100
0001
0000
1000
0001
0010
0000
0000
0100
1000
0000
0001
0100
,  // measure 34
0010
0000
0100
0000
0001
0000
1000
0000
0100
0000
0010
0001
0000
0010
0001
0000
,  // measure 35
0011
0000
0000
0000
0000
0000
1010
0000
0000
0000
0000
0000
1001
0000
0000
0001
1000
0001
1000
0000
0000
0000
0000
0000
,  // measure 36
0002
0000
0000
0000
0100
0000
0100
0000
0100
0000
0000
0010
0000
0000
0010
0000
,  // measure 37
2003
0000
0000
0000
0100
0000
0100
0000
0100
0000
0000
0010
0000
0000
0010
0000
,  // measure 38
3002
0000
0000
0000
0100
0000
0100
0000
0100
0000
0000
0010
0000
0000
0010
0000
,  // measure 39
2003
0000
0000
0000
0000
0000
0100
0000
0000
0100
0000
0000
3001
0000
0000
1000
0001
1000
0001
0000
0000
0100
0000
0000
,  // measure 40
0101
0000
0000
0000
0101
0000
1000
0000
1100
0000
0000
1010
0000
0000
1010
0000
,  // measure 41
1100
0000
0000
0000
1100
0000
0001
0000
0101
0000
0000
0011
0000
0000
0011
0000
,  // measure 42
0101
0000
0000
0000
0101
0000
1000
0000
1100
0000
0000
1010
0000
0000
0011
0000
,  // measure 43
2002
0000
0000
0000
0000
0000
3003
0000
0000
0000
0000
0000
1001
0000
0000
0001
1000
0001
1000
0000
0000
0000
0000
0000
,  // measure 44
0001
0000
0001
0000
1000
0010
0100
0002
0000
0103
0010
0100
0010
1000
0001
0000
,  // measure 45
1000
0000
1000
0000
0001
0010
0100
2000
0000
3100
0010
0100
0010
0001
1000
0000
,  // measure 46
0001
0000
0001
0000
1000
0010
1000
0200
0000
0310
0001
1000
0001
0100
0010
0000
,  // measure 47
1000
0000
1000
0000
0001
0010
0001
0100
0020
0000
0000
1030
0001
0000
0010
0000
,  // measure 48
0021
1000
0100
0031
,  // measure 49
1020
0000
0001
0000
0100
0000
1030
0010
,  // measure 50
1001
0000
0000
0000
0001
0010
0001
0000
1001
0000
1000
0010
1000
0001
0010
0001
,  // measure 51
2000
0000
0000
0000
0000
0000
0000
0000
0000
0000
0000
0000
3000
0000
0000
0000
0000
0000
0000
0000
0000
0000
0000
0000
0000
0000
0000
0000
0000
0000
1000
0000
0001
0000
1000
0000
0001
0000
0000
0000
0000
0000
1000
0000
0000
0010
0000
0000
,  // measure 52
0200
0000
0000
0000
0301
1000
0001
1000
0100
00M0
0200
0000
0301
0100
0010
1000
,  // measure 53
0001
0000
0000
0000
1000
0001
1000
0001
0100
00M0
0200
0000
1300
0100
0010
0001
,  // measure 54
1000
0000
0001
0100
0020
0000
0100
0000
0000
0000
1030
0100
0020
0000
0100
0000
,  // measure 55
0000
0000
0031
0010
0200
0000
0010
0000
0000
0000
1300
0010
0100
0000
0010
0000
,  // measure 56
1001
0000
0000
0000
0001
0010
0001
0010
0100
000M
0200
0000
0310
1000
0001
1000
,  // measure 57
0010
0000
0000
0000
1000
0010
1000
0010
0100
M000
0200
0000
0310
0001
1000
0001
,  // measure 58
0010
0000
0010
0000
0001
1000
0001
0200
0000
0310
1000
0010
1000
0001
0010
0000
,  // measure 59
0100
0000
0100
0000
0010
0001
1000
0002
0000
1003
0010
0100
0001
1000
0100
0000
,  // measure 60
0010
0001
0100
0001
0010
0M00
0010
1000
0100
1000
0010
0M00
0010
0001
0100
0002
,  // measure 61
0010
0000
2003
0010
0000
3002
0010
0000
1003
0010
1000
0002
0010
0000
0103
0000
,  // measure 62
0010
1000
0100
1000
0010
0M00
0010
0001
0100
0001
0010
0M00
0010
1000
0001
0000
,  // measure 63
0010
0000
0010
0000
0100
0010
0100
0010
0001
0100
0010
1000
0001
0010
0100
1000
,  // measure 64
0002
0000
0000
0000
0010
0000
0000
0000
1003
0000
0000
0001
0100
0000
0010
0000
,  // measure 65
2010
0000
0000
0000
0010
0000
0000
0000
0001
0000
0000
3100
0010
0000
0001
0000
,  // measure 66
1000
0000
1000
0000
0001
0000
0001
0000
1000
0010
0100
0001
1000
0001
0010
0100
,  // measure 67
2000
0000
0000
0000
0000
0000
3001
0000
0000
0100
0000
0000
0010
0000
0000
1000
0001
1000
0001
0000
0000
0010
0000
0000
,  // measure 68
0210
0000
0000
0000
0010
0000
0010
0000
0010
0000
0000
1300
0000
0000
0001
0000
,  // measure 69
0200
0000
0000
0000
0010
0000
0010
0000
0010
0000
0000
0301
0000
0000
1000
0000
,  // measure 70
0100
0000
0000
0000
0010
0000
0001
0000
1000
0000
0000
0010
0000
0000
0100
0000
,  // measure 71
0001
0000
0001
0000
0000
0001
0000
0000
1000
0000
0000
1000
0000
0000
1000
0000
;

//---------------dance-single - ----------------
#NOTES:
     dance-single:
     :
     Hard:
     11:
     0.464811,0.510855,0.236918,0.252713,0.106613,412.000000,382.000000,30.000000,32.000000,0.000000,0.000000,0.464811,0.510855,0.236918,0.252713,0.106613,412.000000,382.000000,30.000000,32.000000,0.000000,0.000000:
0000
0000
0000
0000
,
0000
0000
0000
0000
,
0000
0000
0000
0000
,
0000
0000
0000
0000
,
1001
0000
0000
0000
1000
0000
0010
0000
0100
0000
0000
0010
0000
0000
0010
0000
,
1010
0000
0000
0000
0001
0000
0010
0000
0100
0000
0000
0010
0000
0000
0010
0000
,
0011
0000
1000
0010
1010
0000
0001
0010
,
0200
0000
0000
0000
0300
0000
0000
0000
1000
0000
0001
1000
0001
0000
0000
0000
,
1020
0001
0100
1030
,
0021
1000
0100
0031
,
1000
0010
0100
0001
1000
0100
0010
0001
,
2000
0000
0000
0000
3000
0000
0000
0000
0000
0000
1000
0001
1000
0000
0000
0000
,
1001
0000
0001
0100
0001
0100
0010
0100
,
0001
0000
1000
0100
1000
0100
0010
0100
,
2000
0000
3010
0000
0001
0010
1000
0000
,
0002
0000
0013
0000
1000
0010
0001
0000
,
1001
0000
0001
0100
0010
1000
0100
0010
,
0001
0000
1000
0100
0010
0001
0100
0010
,
1000
0000
0000
0000
0010
0000
1000
0000
0100
0000
0000
0010
0000
0000
0010
0000
,
0100
0000
0010
0001
0100
0010
1010
0000
,
1000
0001
0010
0001
1000
0010
1000
0001
,
0010
0000
0000
0010
0000
0000
0010
0000
0001
0000
1000
0000
0010
0000
0000
0000
,
1000
0001
0100
0001
1000
0100
1000
0001
,
0010
0000
0001
0100
1000
0100
0001
0000
,
0001
1000
0010
1000
0001
0010
0001
1000
,
0010
0000
0000
0010
0000
0000
0010
0000
1000
0000
0001
0000
0010
0000
0000
0000
,
0001
0000
0000
0000
0010
0000
0001
0000
0100
0000
0000
0010
0000
0000
0010
0000
,
2002
0000
0000
3003
,
1002
0010
1000
0103
,
0201
1000
0010
0301
,
2001
0010
0001
3100
,
1200
0001
0010
1300
,
0001
0000
0001
0100
1000
0000
1000
0100
,
0001
0000
1000
0100
0001
0000
0001
0100
,
1000
0000
0000
0000
1000
0000
0001
0000
0100
0000
0000
0010
0000
0000
0010
0000
,
1010
0000
0000
0000
0011
0000
0000
0000
1000
0000
0001
1000
0001
0000
0000
0000
,
2000
0000
0010
0000
,
3002
0000
0010
0000
,
2003
0000
0010
0000
,
3002
0000
0000
0000
0000
0000
0000
0000
0013
0000
0001
1000
0001
0000
0000
0000
,
1001
0000
0000
0000
0001
0000
0200
0000
0010
0000
0000
0001
0000
0000
0301
0000
,
1001
0000
0000
0000
1000
0000
0200
0000
0010
0000
0000
1000
0000
0000
1300
0000
,
1001
0000
0000
0000
0001
0000
0200
0000
0010
0000
0000
0001
0000
0000
0301
0000
,
2002
0000
0000
0000
3003
0000
0000
0000
0001
0000
1000
0001
1000
0000
0000
0000
,
0001
0000
0010
0000
0100
0000
0000
0010
0000
0000
0100
0000
1000
0000
0000
0000
,
1000
0000
0010
0000
0100
0000
0000
0010
0000
0000
0100
0000
0001
0000
0000
0000
,
1000
0000
0001
0000
0010
0000
0000
1000
0000
0000
0010
0000
0001
0000
0000
0000
,
1000
0010
0001
0010
2000
0000
3001
0000
,
0021
1000
0100
0031
,
1020
0000
0001
0000
0100
0000
1030
0010
,
1010
0000
0001
0010
0011
0000
0100
0010
,
2002
0000
0000
0000
3003
0000
0000
0000
0000
0000
0001
1000
0001
0000
0000
0000
,
1001
0000
0001
0100
0001
0100
1000
0100
,
0001
0000
1000
0100
1000
0100
0001
0100
,
1000
0000
0001
0010
0001
0000
1000
0010
,
1000
0000
0001
0010
0001
0000
1000
0010
,
1010
0000
0001
0010
1000
0010
0001
1000
,
0100
0000
1000
0010
0001
0010
1000
0001
,
0100
0000
0010
0000
1000
0000
0000
0001
0000
0000
1000
0000
0100
0000
0000
0000
,
0100
0000
0010
0000
0001
0000
0000
1000
0000
0000
0001
0000
0100
0000
0000
0000
,
0001
0100
0010
0100
0001
0010
0001
0100
,
0010
0000
0000
0010
0000
0000
0010
0000
0100
0000
0001
0000
0010
0000
0000
0000
,
0100
1000
0010
1000
0100
0010
0100
1000
,
0010
0000
1000
0010
0001
0010
1000
0000
,
2010
0000
0001
0000
3100
0000
0010
0001
,
0012
0000
1000
0000
0103
0000
0010
1000
,
0001
0010
0100
1000
0001
0100
0010
1000
,
0200
0000
0000
0000
0310
0000
0100
0000
1000
0000
0001
1000
0001
0000
0100
0000
,
0120
0000
0000
0000
0000
0000
0000
0000
1000
0000
0000
1000
0000
0000
1000
0000
,
2030
0000
0000
0000
0000
0000
0000
0000
0001
0000
0000
0001
0000
0000
0001
0000
,
3002
0000
0000
0000
0000
0000
0000
0000
0010
0000
0000
0010
0000
0000
0010
0000
,
0013
0000
0000
0000
0100
0000
0000
0000
1000
0000
0000
0001
0000
0000
1000
0000
;

//---------------dance-single - ----------------
#NOTES:
     dance-single:
     :
     Medium:
     8:
     0.377941,0.395258,0.307994,0.292199,0.000000,335.000000,296.000000,39.000000,37.000000,0.000000,0.000000,0.377941,0.395258,0.307994,0.292199,0.000000,335.000000,296.000000,39.000000,37.000000,0.000000,0.000000:
0000
0000
0000
0000
,
0000
0000
0000
0000
,
0000
0000
0000
0000
,
0000
0000
0000
0000
,
1001
0000
0001
0100
0010
0000
1000
0000
,
1001
0000
1000
0100
0010
0000
0001
0000
,
0011
0000
1000
0000
1010
0000
0001
1000
,
0200
0000
0300
0000
1000
0001
1000
0000
,
0002
0100
0100
0100
,
2003
0100
0100
0100
,
3001
0000
1001
0000
1000
0010
1000
0010
,
0200
0000
0300
0000
0001
1000
0001
0000
,
0021
0100
0001
0031
,
1020
0100
1000
1030
,
0001
0010
0100
0000
0010
0100
1000
0000
,
0001
0100
0010
0000
0100
0010
1000
0000
,
2010
0000
0001
0000
3100
0010
0100
0000
,
0012
0000
1000
0000
0103
0010
0100
0000
,
1010
0000
1000
0001
0010
0000
0100
0000
,
0011
0000
0001
1000
0020
0000
0130
0000
,
0001
0101
1000
1100
,
0001
0000
0001
0000
1000
0010
0100
0001
,
1000
1010
0001
0011
,
1000
0000
0001
0100
0010
0100
0001
0000
,
1000
1100
0001
0101
,
1000
0000
1000
0000
0001
0010
0100
1000
,
0001
0000
1000
0001
0100
0000
0110
0000
,
2002
0000
0000
3003
,
0002
0010
0010
0010
,
2003
0100
0100
0100
,
3002
0100
0100
0100
,
2003
0010
0010
0010
,
3001
1000
0100
1000
,
0001
0100
0001
1000
,
1001
0000
0001
1000
0100
0000
0010
0000
,
0011
0000
1100
0000
0001
1000
0001
0000
,
0200
0000
0000
0000
,
0320
0000
0000
0000
,
2030
0000
0000
0000
,
3002
0000
0000
0000
1003
0001
1000
0000
,
1100
1100
0001
0010
,
0101
0101
1000
0010
,
1100
1100
0001
0010
,
1001
0000
0000
0000
1000
0001
1000
0000
,
0001
0100
0020
0000
1000
0000
1030
0000
,
1000
0100
0020
0000
0001
0000
0031
0000
,
0001
0100
0020
0000
0100
0000
1030
0000
,
1000
0100
0020
0000
0130
0000
1001
0000
,
2000
0010
0010
0010
,
3002
0010
0010
0010
,
1003
0000
0001
0100
0010
0000
1000
0100
,
0020
0000
0030
0000
0001
1000
0001
0000
,
1002
0100
0010
0103
,
2001
0100
0010
3100
,
1000
0001
0100
0000
0001
1000
0100
0000
,
1000
0001
0100
0000
0001
1000
0100
0000
,
0120
0000
0001
0000
0130
1000
0010
0000
,
0120
0000
1000
0000
0130
0001
0010
0000
,
0100
0010
0002
0000
0010
0000
0103
0000
,
0100
0010
2000
0000
0010
0000
3100
0000
,
1000
1100
0001
0011
,
1000
0000
1000
0000
0001
0100
0010
1000
,
0001
0101
1000
1010
,
0001
0000
1000
0100
0010
0100
1000
0000
,
0002
0100
0100
0100
,
2003
0100
0100
0100
,
3001
0000
1001
0000
1000
0010
0100
0001
,
0010
0000
0001
0010
0100
1000
0010
0000
,
0200
0000
0010
0000
,
0302
0000
1000
0000
,
0023
0000
0100
0000
,
0031
0000
1000
0000
;

//---------------dance-single - ----------------
#NOTES:
     dance-single:
     :
     Easy:
     5:
     0.230149,0.395258,0.150048,0.292199,0.000000,204.000000,185.000000,19.000000,37.000000,0.000000,0.000000,0.230149,0.395258,0.150048,0.292199,0.000000,204.000000,185.000000,19.000000,37.000000,0.000000,0.000000:
0000
0000
0000
0000
,
0000
0000
0000
0000
,
0000
0000
0000
0000
,
0000
0000
0000
0000
,
1000
0010
1000
0000
,
0001
0010
0001
0000
,
1000
0010
1000
0001
,
0020
0030
0010
0100
,
2000
0000
3001
0000
,
0002
0000
1003
0000
,
1000
0010
0100
0001
,
0020
0030
0000
1001
,
0002
0100
0103
0000
,
2000
0100
3100
0000
,
0001
0100
0010
1000
,
1000
0100
0010
0001
,
2000
0010
3010
0000
,
0002
0010
0013
0000
,
1000
0010
1000
0000
,
0001
0010
0001
0000
,
1000
0010
1000
0010
,
0100
0000
0100
0000
,
0001
0010
0001
0010
,
0100
0000
1001
0000
,
0001
0100
0001
0100
,
0010
0000
0010
0000
,
1000
0100
0010
0001
,
2000
0000
0000
3000
,
2001
0000
0010
0000
,
3002
0000
0100
0000
,
2003
0000
0100
0000
,
3002
0000
0010
0000
,
1003
0000
1000
0000
,
0001
0000
0001
0000
,
1000
0100
1000
0000
,
0001
0100
0001
1000
,
0200
0000
0000
0000
,
0320
0000
0000
0000
,
0032
0000
0000
0000
,
2003
0000
3001
1000
,
1010
1010
1010
0000
,
0011
0011
0011
0000
,
0101
0101
0101
0000
,
2200
3300
0001
0010
,
0100
0100
2000
3000
,
0001
0001
0200
0300
,
0010
1000
0002
0003
,
0010
0001
2000
3001
,
2000
0000
3001
0000
,
0002
0000
1003
0000
,
1000
0010
0100
0001
,
0020
0030
0000
1001
,
2000
0010
3001
0000
,
0002
0100
1003
0000
,
1001
0000
1100
0000
,
1001
0000
0101
0000
,
0002
0010
1003
0000
,
2000
0100
3001
0000
,
1000
0010
0200
0300
,
0001
0010
0200
0300
,
0010
0001
1000
0001
,
0100
0000
0100
0000
,
0010
1000
0001
1000
,
0100
0000
1001
0000
,
0002
0100
0100
0000
,
2003
0100
0100
0000
,
3001
0100
0010
1000
,
0100
0010
0100
1000
,
0020
0000
0000
0000
,
0230
0000
0000
0000
,
0302
0000
0000
0000
,
1003
0000
0100
0000
;

//---------------dance-single - ----------------
#NOTES:
     dance-single:
     :
     Beginner:
     3:
     0.157945,0.280353,0.126356,0.078973,0.000000,140.000000,124.000000,16.000000,10.000000,0.000000,0.000000,0.157945,0.280353,0.126356,0.078973,0.000000,140.000000,124.000000,16.000000,10.000000,0.000000,0.000000:
0000
0000
0000
0000
,
0000
0000
0000
0000
,
0000
0000
0000
0000
,
0000
0000
0000
0000
,
1000
0000
1000
0000
,
0001
0000
0001
0000
,
1000
0000
0001
0000
,
0010
0000
0000
0000
,
0002
0000
0003
0000
,
2000
0000
3000
0000
,
0001
0000
1000
0000
,
0010
0000
0000
0000
,
1001
0000
0100
0000
,
1001
0000
0010
0000
,
1000
0000
1000
0000
,
0001
0000
0001
0000
,
1001
0000
0010
0000
,
1001
0000
0100
0000
,
0001
0001
0001
0000
,
1000
1000
1000
0000
,
0001
0001
0001
0000
,
0010
0000
0010
0000
,
0001
0001
0001
0000
,
0100
0000
0010
0000
,
1000
1000
1000
0000
,
0010
0000
0010
0000
,
1000
1000
1000
0000
,
0100
0000
0000
0000
,
0020
0000
0030
0000
,
0002
0000
0003
0000
,
2000
0000
3000
0000
,
0020
0000
0030
0000
,
0100
0000
0100
0000
,
0010
0000
0010
0000
,
1000
1000
1000
0000
,
0001
0001
0001
0000
,
0010
0000
0000
0000
,
0000
0000
0000
0000
,
0000
0000
0000
0000
,
0000
0000
0000
0000
,
1001
0000
1001
0000
,
1001
0000
1001
0000
,
1001
0000
1001
0000
,
1001
0000
0000
0000
,
0001
0000
0001
0000
,
0010
0000
0010
0000
,
0100
0000
1000
0000
,
0001
0000
0100
0000
,
0020
0000
0030
0000
,
0200
0000
0300
0000
,
0010
0010
0010
0000
,
0100
0000
0000
0000
,
1001
0000
0001
0000
,
1001
0000
0010
0000
,
1000
0000
0100
0000
,
0010
0000
0001
0000
,
1001
0000
1000
0000
,
1001
0000
0010
0000
,
0001
0001
0001
0000
,
1000
1000
1000
0000
,
0010
0010
0010
0000
,
0100
0000
0001
0000
,
0010
0010
0010
0000
,
0100
0000
1000
0000
,
0002
0000
0003
0000
,
2000
0000
3000
0000
,
0010
0010
0010
0000
,
0100
0000
0010
0000
,
1001
0000
0000
0000
,
0100
0000
0000
0000
,
0100
0000
0000
0000
,
0010
0000
0000
0000
;
