#VERSION:0.83;
#TITLE:Excessive Sex;
#SUBTITLE:;
#ARTIST:Vospi;
#TITLETRANSLIT:;
#SUBTITLETRANSLIT:;
#ARTISTTRANSLIT:;
#GENRE:Excessive House;
#ORIGIN:;
#CREDIT:;
#BANNER:Excessive Sex.png;
#BACKGROUND:Excessive Sex-bg.png;
#PREVIEWVID:;
#JACKET:Excessive Sex-jacket.png;
#CDIMAGE:;
#DISCIMAGE:;
#LYRICSPATH:;
#CDTITLE:cdtitle.png;
#MUSIC:Excessive Sex.ogg;
#OFFSET:-0.051568;
#SAMPLESTART:73.897720;
#SAMPLELENGTH:14.769226;
#SELECTABLE:YES;
#BPMS:0.000=130.000;
#STOPS:;
#DELAYS:;
#WARPS:;
#TIMESIGNATURES:0.000=4=4;
#TICKCOUNTS:0.000=4;
#COMBOS:0.000=1;
#SPEEDS:0.000=1.000=0.000=0;
#SCROLLS:0.000=1.000;
#FAKES:;
#LABELS:0.000=Song Start;
#BGCHANGES:;
#KEYSOUNDS:;
#ATTACKS:
;

//---------------dance-single - ----------------
#NOTEDATA:;
#CHARTNAME:;
#STEPSTYPE:dance-single;
#DESCRIPTION:;
#CHARTSTYLE:;
#DIFFICULTY:Challenge;
#METER:16;
#RADARVALUES:0.765037,0.837407,0.679643,0.302973,1.236458,654.000000,571.000000,83.000000,37.000000,0.000000,0.000000,0.000000,0.000000,0.000000,0.765037,0.837407,0.679643,0.302973,1.236458,654.000000,571.000000,83.000000,37.000000,0.000000,0.000000,0.000000,0.000000,0.000000;
#CREDIT:;
#NOTES:
// measure 0
0000
0000
0000
0000
,  // measure 1
0000
0000
0000
0000
,  // measure 2
0000
0000
0000
0000
,  // measure 3
0000
0000
0000
0000
,  // measure 4
2000
0000
3000
0001
0010
0001
0100
0001
2000
0000
3001
0010
0000
0001
0100
0001
,  // measure 5
2000
0000
3000
0001
0000
0010
0001
0100
0000
0010
0000
0010
0000
1000
0100
0010
,  // measure 6
0002
0000
0003
1000
0010
1000
0100
1000
0002
0000
1003
0010
0000
1000
0100
1000
,  // measure 7
0002
0000
0003
1000
0000
0010
1000
0100
0000
0010
0000
0010
0000
0100
0010
0001
,  // measure 8
1001
0000
0000
0001
0100
0001
0100
0000
0101
0000
0000
0110
0000
0010
1000
0000
,  // measure 9
1001
0000
0000
1000
0100
1000
0100
0000
1100
0000
0000
0110
0000
0010
0001
0000
,  // measure 10
1001
0000
0000
0001
0100
0010
0100
0000
0110
0000
0000
1010
0000
0001
1000
0000
,  // measure 11
1100
0000
0000
1000
0100
0010
0100
0000
0110
0000
0000
0011
0000
0000
1001
0000
,  // measure 12
1001
0000
0001
0100
0010
0100
0001
0100
0010
0000
1000
0100
0000
0100
0010
0000
,  // measure 13
0011
0000
0001
0010
0100
0010
0001
0010
0100
0000
1000
0001
0000
0001
0100
0000
,  // measure 14
1010
0000
1000
0010
0100
0010
1000
0010
0100
0000
0001
1000
0000
1000
0100
0000
,  // measure 15
1100
0000
1000
0100
0010
0100
1000
0100
0010
0000
0100
0010
0001
1000
0001
1000
,  // measure 16
0002
0000
0000
0000
0000
0000
0000
0000
0000
0000
0000
0000
0000
0000
0000
0000
0000
0000
0000
0000
0000
0000
0000
0000
0000
0000
0000
0000
0000
0000
0000
0000
0000
0000
0000
0000
0000
0000
0000
0000
0000
0000
0000
0000
0000
0000
0000
0000
1003
0000
0000
0000
0000
0000
0000
0000
0000
0000
0000
0000
0000
0000
0000
0000
0000
0000
0000
0000
0000
0000
0000
0000
0000
0000
0000
0000
0000
0000
0000
0000
1000
0000
0000
0000
0000
0000
0000
0000
0000
0000
0000
0000
0000
0000
0000
0000
0010
0000
0000
0000
0000
0000
0000
1000
0000
0000
0000
0000
0000
0000
0010
0000
0000
0000
0000
0000
0000
0000
1000
0000
0000
0000
0000
0000
0000
0010
0000
0000
0000
0000
0000
0000
1000
0000
0000
0000
0000
0000
0000
0000
0000
0000
0000
0000
0000
0000
0000
0000
0000
0000
0000
0000
0000
0000
0000
0000
0000
0000
0000
0000
0000
0000
0000
0000
0000
0000
0000
0000
1010
0000
0000
0000
0000
0000
0000
0000
0000
0000
0000
0000
0000
0000
0000
0000
0000
0000
0000
0000
0000
0000
0000
0000
,  // measure 17
0000
0000
0000
0000
0000
0000
0000
0000
2001
0000
0000
0000
0000
0000
0000
0000
0000
0000
0000
0000
0000
0000
0000
0000
3100
0000
0000
0000
0000
0000
0000
0000
0000
0000
0000
0000
0000
0000
0000
0000
1000
0000
0000
0100
0000
0000
1000
0000
0000
0000
0000
0000
1100
0000
0000
0000
0000
0000
0000
0000
0000
0000
0000
0000
,  // measure 18
1001
0000
0000
0000
1020
0000
0000
0000
0031
0000
0010
1000
0000
0000
1010
0000
,  // measure 19
0000
0000
0000
0000
0000
0000
0000
0000
0000
1001
0000
0000
0000
0000
0000
0000
0000
0000
0000
0000
0000
1001
0000
0000
0000
0000
0000
0000
0000
0000
1000
0000
0100
0000
0010
0000
0001
0000
0000
0000
0000
0000
0001
0000
0000
0000
0000
0000
,  // measure 20
2000
0000
0000
0000
0000
0000
0000
0000
0000
0000
0000
0000
0000
0000
0000
0000
0000
0000
0000
0000
0000
0000
0000
0000
0000
0000
0000
0000
0000
0000
0000
0000
0000
0000
0000
0000
0000
0000
0000
0000
0000
0000
0000
0000
0000
0000
0000
0000
3001
0000
0000
0000
0000
0000
0000
0000
0000
0000
0000
0000
0000
0000
0000
0000
0000
0000
0000
0000
0000
0000
0000
0000
0000
0000
0000
0000
0000
0000
0000
0000
0001
0000
0000
0000
0000
0000
0000
0000
0000
0000
0000
0000
0000
0000
0000
0000
0010
0000
0000
0000
0000
0000
0000
0001
0000
0000
0000
0000
0000
0000
0010
0000
0000
0000
0000
0000
0000
0000
0001
0000
0000
0000
0000
0000
0000
0010
0000
0000
0000
0000
0000
0000
0001
0000
0000
0000
0000
0000
0000
0000
0000
0000
0000
0000
0000
0000
0000
0000
0000
0000
0000
0000
0000
0000
0000
0000
0000
0000
0000
0000
0000
0000
0000
0000
0000
0000
0000
0000
0011
0000
0000
0000
0000
0000
0000
0000
0000
0000
0000
0000
0000
0000
0000
0000
0000
0000
0000
0000
0000
0000
0000
0000
,  // measure 21
0000
0000
0000
0000
0000
0000
0000
0000
1002
0000
0000
0000
0000
0000
0000
0000
0000
0000
0000
0000
0000
0000
0000
0000
0103
0000
0000
0000
0000
0000
0000
0000
0000
0000
0000
0000
0000
0000
0000
0000
0001
0000
0000
0100
0000
0000
0001
0000
0000
0100
0000
0000
0001
0000
0000
0000
0000
0000
0000
0000
0000
0000
0000
0000
,  // measure 22
1001
0000
0000
0000
0000
0000
0000
0000
0001
0000
0000
0000
0020
0000
0000
0000
0000
0000
0000
0000
0000
0000
0000
0000
1030
0000
0000
0000
0000
0000
0010
0000
0000
0001
0000
0000
0000
0000
0000
0000
0000
0000
0011
0000
0000
0000
0000
0000
,  // measure 23
0000
0000
0000
0000
0000
0000
0000
0000
0000
1001
0000
0000
0000
0000
0000
0000
0000
0000
0000
0000
0000
1001
0000
0000
0000
0000
0000
0000
0000
0000
0001
0000
0100
0000
0010
0000
1000
0000
0000
0000
0000
0000
1000
0000
0000
0000
0000
0000
,  // measure 24
2001
0000
0000
0000
0000
0000
0000
0000
0000
0000
0000
0000
0000
0000
0000
0000
0000
0000
0000
0000
0000
0000
0000
0000
0000
0000
0000
0000
0000
0000
0000
0000
0000
0000
0000
0000
0000
0000
0000
0000
0000
0000
0000
0000
0000
0000
0000
0000
3100
0000
0000
0000
0000
0000
0000
0000
0000
0000
0000
0000
0000
0000
0000
0000
0000
0000
0000
0000
0000
0000
0000
0000
0000
0000
0000
0000
0000
0000
0000
0000
0100
0000
0000
0000
0000
0000
0000
0000
0000
0000
0000
0000
0000
0000
0000
0000
0010
0000
0000
0000
0000
0000
0000
0001
0000
0000
0000
0000
0000
0000
1000
0000
0000
0000
0000
0000
0000
0000
0001
0000
0000
0000
0000
0000
0000
1000
0000
0000
0000
0000
0000
0000
0010
0000
0000
0000
0000
0000
0000
0000
0000
0000
0000
0000
0000
0000
0000
0000
0000
0000
0000
0000
0000
0000
0000
0000
0000
0000
0000
0000
0000
0000
0000
0000
0000
0000
0000
0000
0110
0000
0000
0000
0000
0000
0000
0000
0000
0000
0000
0000
0000
0000
0000
0000
0000
0000
0000
0000
0000
0000
0000
0000
,  // measure 25
0000
0000
0000
0000
0000
0000
0000
0000
0201
0000
0000
0000
0000
0000
0000
0000
0000
0000
0000
0000
0000
0000
0000
0000
1000
0000
0000
0000
0000
0000
0000
0000
0000
0000
0000
0000
0000
0000
0000
0000
0301
0000
0000
0100
0000
0000
0010
0000
0000
1000
0000
0000
0001
0000
0000
0000
0000
0000
0000
0000
0000
0000
0000
0000
,  // measure 26
1001
0000
0000
0000
0022
0000
0033
0000
1010
0000
0010
0100
0000
0000
1001
0000
,  // measure 27
0000
0000
0000
0000
0000
0000
0000
0000
0000
1001
0000
0000
0000
0000
0000
0000
0000
0000
0000
0000
0000
1001
0000
0000
0000
0000
0000
0000
0000
0000
1000
0000
0001
0000
1000
0000
0100
0000
0000
0000
0000
0000
0100
0000
0000
0000
0000
0000
,  // measure 28
1002
0000
0000
0000
0000
0000
0000
0000
0000
0000
0000
0000
0000
0000
0000
0000
0000
0000
0000
0000
0000
0000
0000
0000
0000
0000
0000
0000
0000
0000
0000
0000
0000
0000
0000
0000
0000
0000
0000
0000
0000
0000
0000
0000
0000
0000
0000
0000
0103
0000
0000
0000
0000
0000
0000
0000
0000
0000
0000
0000
0000
0000
0000
0000
0000
0000
0000
0000
0000
0000
0000
0000
0000
0000
0000
0000
0000
0000
0000
0000
0100
0000
0000
0000
0000
0000
0000
0000
0000
0000
0000
0000
0000
0000
0000
0000
0010
0000
0000
0000
0000
0000
0000
1000
0000
0000
0000
0000
0000
0000
0001
0000
0000
0000
0000
0000
0000
0000
1000
0000
0000
0000
0000
0000
0000
0001
0000
0000
0000
0000
0000
0000
0010
0000
0000
0000
0000
0000
0000
0000
0000
0000
0000
0000
0000
0000
0000
0000
0000
0000
0000
0000
0000
0000
0000
0000
0000
0000
0000
0000
0000
0000
0000
0000
0000
0000
0000
0000
0110
0000
0000
0000
0000
0000
0000
0000
0000
0000
0000
0000
0000
0000
0000
0000
0000
0000
0000
0000
0000
0000
0000
0000
,  // measure 29
0000
0000
0000
0000
0000
0000
0000
0000
1200
0000
0000
0000
0000
0000
0000
0000
0000
0000
0000
0000
0000
0000
0000
0000
0001
0000
0000
0000
0000
0000
0000
0000
0000
0000
0000
0000
0000
0000
0000
0000
1300
0000
0000
0100
0000
0000
0010
0000
0000
0001
0000
0000
1000
0000
0000
0000
0000
0000
0000
0000
0000
0000
0000
0000
,  // measure 30
1001
0000
0000
0000
0000
0000
0000
0000
1000
0000
0000
0000
2020
0000
0000
0000
0000
0000
3030
0000
0000
0000
0000
0000
0011
0000
0000
0000
0000
0000
0010
0000
0000
0100
0000
0000
0000
0000
0000
0000
0000
0000
1001
0000
0000
0000
0000
0000
,  // measure 31
1001
0000
0000
0000
0000
0000
1001
0000
0000
0000
0000
0000
1001
0000
0000
1000
0001
1000
0020
0000
0000
0000
0000
0000
,  // measure 32
0030
0000
0000
0000
0000
0000
1000
0010
1000
0000
0010
0000
1000
0000
0001
0000
0000
0000
0000
0000
1000
0000
0010
0000
0000
0000
1000
0000
0001
0000
1000
0000
,  // measure 33
0000
0000
0000
0100
0000
1000
0001
1000
0000
0010
0000
0010
0000
0100
0010
1000
,  // measure 34
0001
0000
0000
0010
0001
0010
0001
1000
0000
0000
0001
0010
0000
0001
1000
0001
,  // measure 35
0000
0000
0000
0100
0000
0001
1000
0001
0000
0010
0000
0010
0000
0100
1000
0001
,  // measure 36
0100
0000
0000
0000
0000
0000
0010
0100
0010
0000
0100
0000
0001
0000
1000
0000
0000
0000
0000
0000
0100
0000
0010
0000
0000
0000
0100
0000
1000
0000
0001
0000
,  // measure 37
0000
0000
0000
0100
0000
0010
1000
0001
0000
0010
0000
0100
0000
0010
0001
1000
,  // measure 38
0010
0000
0000
0100
0001
1000
0100
0010
0000
0100
0000
0100
0000
0010
0001
1000
,  // measure 39
0020
0001
0100
1030
,  // measure 40
2001
0000
0000
0000
0000
0000
3010
1000
0001
0000
1000
0000
0100
0000
0010
0000
0000
0000
0100
0000
0000
0000
0110
0000
0000
0000
0010
0000
0100
0000
0001
0000
,  // measure 41
0000
0000
0001
0100
0000
0010
0001
1000
0000
0010
0000
0010
0000
0100
0001
1000
,  // measure 42
0100
0000
0000
0100
0010
0100
1000
0001
0000
0100
0000
0110
0000
0100
0010
0001
,  // measure 43
0000
0000
0001
0010
0000
0100
0010
1000
0000
0100
0000
0100
0000
0010
0001
1000
,  // measure 44
1002
0000
0000
0000
0000
0000
0013
0001
1000
0000
0001
0000
0100
0000
0010
0000
0000
0000
0100
0000
0000
0000
0110
0000
0000
0000
0010
0000
0100
0000
1000
0000
,  // measure 45
0000
0000
1000
0100
0000
0010
1000
0001
0000
0010
0000
0010
0000
0100
1000
0001
,  // measure 46
0100
0000
0000
0010
1000
0001
1000
0100
0000
0010
0000
0010
0000
0100
0010
0001
,  // measure 47
0000
2000
3000
0000
0202
0303
2020
3030
,  // measure 48
1001
0000
0000
0000
1000
0000
0100
0010
0100
0000
1000
0000
0001
0000
0100
0000
0010
0000
0000
0000
0100
0000
0010
0000
0100
0000
0001
0000
1000
0000
0100
0000
,  // measure 49
0010
0000
0100
1000
0001
0100
0010
1000
0000
1001
0000
1010
0000
1000
0010
1000
,  // measure 50
0100
0000
0000
0000
0001
0000
0000
0000
0100
0000
0000
0000
0010
0100
1000
0000
0000
0000
1000
0000
0000
0000
1000
0000
0001
0000
0000
0000
1000
0000
0001
0100
,  // measure 51
0010
0000
0000
0000
0000
0000
0000
0000
0000
0000
0000
0000
0000
0000
0000
0000
0000
0000
0000
0000
0000
0000
0000
0000
0001
0000
0000
0000
0000
0000
0000
0000
0000
0000
0000
0000
0000
0000
0000
0000
0000
0000
0000
0000
0000
0000
0000
0000
0010
0000
0000
0000
0000
0000
0000
0000
0000
0000
0100
0000
0000
0000
0000
0000
0000
0000
0000
0010
0000
0000
0000
0000
0000
0000
0000
0000
0000
0100
0000
0000
0000
0000
0000
0000
0000
0000
0010
0000
0000
0000
0000
0000
0000
0000
0000
0000
1000
0000
0000
0000
0000
0000
0000
0000
0000
0000
0000
0000
0000
0000
0000
0000
0000
0000
0000
0000
0000
0000
0000
0000
0001
0000
0000
0000
0000
0000
0000
0000
1000
0000
0000
0000
0000
0000
0000
0000
0001
0000
0000
0000
0000
0000
0000
0000
1000
0000
0000
0000
0000
0000
0000
0000
0000
0000
0000
0000
0000
0000
0000
0000
0000
0000
0000
0000
0000
0000
0000
0000
0100
0000
0000
0000
0000
0000
0000
0000
0010
0000
0000
0000
0000
0000
0000
0000
0001
0000
0000
0000
0000
0000
0000
0000
,  // measure 52
1000
0000
0000
0000
0001
0000
0100
0010
0100
0000
0001
0000
1000
0000
0100
0000
0010
0000
0000
0000
0100
0000
0010
0000
0100
0000
1000
0000
0001
0000
0100
0000
,  // measure 53
0010
0000
0100
0001
1000
0100
0010
0001
0000
1001
0000
0011
0000
0001
0010
0001
,  // measure 54
0100
0000
0000
0000
0000
0000
0000
0000
0000
0000
0000
0000
0000
0000
0000
0000
0000
0000
0000
0000
0000
0000
0000
0000
1000
0000
0000
0000
0000
0000
0000
0000
0000
0000
0000
0000
0000
0000
0000
0000
0000
0000
0000
0000
0000
0000
0000
0000
0100
0000
0000
0000
0000
0000
0000
0000
0000
0000
0000
0000
0000
0000
0000
0000
0000
0000
0000
0000
0000
0000
0000
0000
0010
0000
0000
0000
0000
0000
0100
0000
0000
0000
0000
0000
0001
0000
0000
0000
0000
0000
0000
0000
0000
0000
0000
0000
0000
0000
0000
0000
0000
0000
0000
0000
0000
0000
0000
0000
0001
0000
0000
0000
0000
0000
0000
0000
0000
0000
0000
0000
0000
0000
0000
0000
0000
0000
0000
0000
0000
0000
0000
0000
0001
0000
0000
0000
0000
0000
0000
0000
0000
0000
0000
0000
1000
0000
0000
0000
0000
0000
0000
0000
0010
0000
0000
0000
0000
0000
0000
0000
1000
0000
0000
0000
0000
0000
0000
0000
0001
0000
0000
0000
0000
0000
0000
0000
0010
0000
0000
0000
0000
0000
0000
0000
0001
0000
0000
0000
0000
0000
0000
0000
,  // measure 55
1000
0000
0001
0100
0001
0000
1000
0100
1000
0000
0000
0000
0110
0000
0000
0000
,  // measure 56
2001
0000
0000
0000
0000
0000
0000
0000
0000
0000
0000
0000
0000
0000
0000
0000
0000
0000
0000
0000
0000
0000
0000
0000
0000
0000
0000
0000
0000
0000
0000
0000
0000
0000
0000
0000
0000
0000
0000
0000
0000
0000
0000
0000
0000
0000
0000
0000
3010
0000
0000
0000
0000
0000
0000
0000
0000
0000
0000
0000
0000
0000
0000
0000
0000
0000
0000
0000
0000
0000
0000
0000
0000
0000
0000
0000
0000
0000
0000
0000
1000
0000
0000
0000
0000
0000
0000
0000
0000
0000
0000
0000
0000
0000
0000
0000
0010
0000
0000
0000
0000
0000
0000
1000
0000
0000
0000
0000
0000
0000
0001
0000
0000
0000
0000
0000
0000
0000
1000
0000
0000
0000
0000
0000
0000
0100
0000
0000
0000
0000
0000
0000
0010
0000
0000
0000
0000
0000
0000
0000
0000
0000
0000
0000
0000
0000
0000
0000
0000
0000
0000
0000
0000
0000
0000
0000
0000
0000
0000
0000
0000
0000
0000
0000
0000
0000
0000
0000
0110
0000
0000
0000
0000
0000
0000
0000
0000
0000
0000
0000
0000
0000
0000
0000
0000
0000
0000
0000
0000
0000
0000
0000
,  // measure 57
0000
0000
0000
0000
0000
0000
0000
0000
0012
0000
0000
0000
0000
0000
0000
0000
0000
0000
0000
0000
0000
0000
0000
0000
1000
0000
0000
0000
0000
0000
0000
0000
0000
0000
0000
0000
0000
0000
0000
0000
0103
0000
0000
0001
0000
0000
1000
0000
0000
0000
0000
0000
1001
0000
0000
0000
0000
0000
0000
0000
0000
0000
0000
0000
,  // measure 58
1100
0000
0000
0000
2002
0000
3003
0000
1010
0000
0010
0001
0000
0000
1010
0000
,  // measure 59
0000
0000
0000
0000
0000
0000
0000
0000
0000
0101
0000
0000
0000
0000
0000
0000
0000
0000
0000
0000
0000
1100
0000
0000
0000
0000
0000
0000
0000
0000
0001
0000
0100
0000
0001
0000
1000
0000
0000
0000
0000
0000
0001
0000
0000
0000
0000
0000
,  // measure 60
1002
0000
0000
0000
0000
0000
0000
0000
0000
0000
0000
0000
0000
0000
0000
0000
0000
0000
0000
0000
0000
0000
0000
0000
0000
0000
0000
0000
0000
0000
0000
0000
0000
0000
0000
0000
0000
0000
0000
0000
0000
0000
0000
0000
0000
0000
0000
0000
0013
0000
0000
0000
0000
0000
0000
0000
0000
0000
0000
0000
0000
0000
0000
0000
0000
0000
0000
0000
0000
0000
0000
0000
0000
0000
0000
0000
0000
0000
0000
0000
0001
0000
0000
0000
0000
0000
0000
0000
0000
0000
0000
0000
0000
0000
0000
0000
0010
0000
0000
0000
0000
0000
0000
0001
0000
0000
0000
0000
0000
0000
1000
0000
0000
0000
0000
0000
0000
0000
0001
0000
0000
0000
0000
0000
0000
0100
0000
0000
0000
0000
0000
0000
0010
0000
0000
0000
0000
0000
0000
0000
0000
0000
0000
0000
0000
0000
0000
0000
0000
0000
0000
0000
0000
0000
0000
0000
0000
0000
0000
0000
0000
0000
0000
0000
0000
0000
0000
0000
0110
0000
0000
0000
0000
0000
0000
0000
0000
0000
0000
0000
0000
0000
0000
0000
0000
0000
0000
0000
0000
0000
0000
0000
,  // measure 61
0000
0000
0000
0000
0000
0000
0000
0000
2010
0000
0000
0000
0000
0000
0000
0000
0000
0000
0000
0000
0000
0000
0000
0000
0001
0000
0000
0000
0000
0000
0000
0000
0000
0000
0000
0000
0000
0000
0000
0000
3100
0000
0000
1000
0000
0000
0001
0000
0000
1000
0000
0000
0010
0000
0000
0000
0000
0000
0000
0000
0000
0000
0000
0000
,  // measure 62
0101
0000
0000
0000
0000
0000
0000
0000
1000
0000
0000
0000
2002
0000
0000
0000
0000
0000
3003
0000
0000
0000
0000
0000
0011
0000
0000
0000
0000
0000
0010
0000
0000
1000
0000
0000
0000
0000
0000
0000
0000
0000
0011
0000
0000
0000
0000
0000
,  // measure 63
0000
0000
0000
0000
0000
0000
0001
0000
0000
0100
0000
0000
0001
0000
0000
0000
0000
0000
1000
0000
0000
0100
0000
0000
1000
0000
0000
0000
0000
0000
0010
0000
0000
0000
0000
0000
1001
0000
0000
0000
1001
0000
0000
0000
1001
0000
0000
0000
;

//---------------dance-single - ----------------
#NOTEDATA:;
#CHARTNAME:;
#STEPSTYPE:dance-single;
#DESCRIPTION:;
#CHARTSTYLE:;
#DIFFICULTY:Hard;
#METER:13;
#RADARVALUES:0.582551,0.628055,0.638700,0.466743,0.736962,498.000000,420.000000,78.000000,57.000000,0.000000,0.000000,0.000000,0.000000,0.000000,0.582551,0.628055,0.638700,0.466743,0.736962,498.000000,420.000000,78.000000,57.000000,0.000000,0.000000,0.000000,0.000000,0.000000;
#CREDIT:;
#NOTES:
0000
0000
0000
0000
,
0000
0000
0000
0000
,
0000
0000
0000
0000
,
0000
0000
0000
0000
,
2001
0000
3000
0000
0010
0000
0010
0000
2001
0000
3000
0100
0000
0000
0100
0000
,
2001
0000
3000
0010
0000
1000
0000
0010
0000
1000
0000
0100
0000
0000
0010
0000
,
1002
0000
0003
0000
0010
0000
0010
0000
1002
0000
0003
0100
0000
0000
0100
0000
,
1002
0000
0003
0010
0000
0001
0000
0010
0000
0001
0000
0100
0000
0000
0010
0000
,
1020
0000
0000
0130
0010
0000
1000
0000
1010
0000
0000
1001
0000
0000
1100
0000
,
0021
0000
0000
0130
0010
0000
0001
0000
0011
0000
0000
1001
0000
0000
0101
0000
,
0210
0000
0000
0310
0100
0000
0001
0000
1001
0000
0000
0011
0000
0000
1100
0000
,
0210
0000
0000
0310
0100
0000
1000
0000
0002
0000
0000
2003
0000
0000
3001
0000
,
1001
0000
1000
0000
0010
0000
0001
0000
0010
0000
1000
0100
0000
0100
0010
0000
,
0001
0000
0010
0000
1000
0000
0010
0000
0001
0000
0100
0010
0000
0010
1000
0000
,
0100
0000
0001
0000
0100
0000
1000
0000
0001
0000
0100
1000
0000
0100
0001
0000
,
1000
0100
0010
0001
0200
0000
0300
0000
,
1002
0000
0000
0000
0000
0000
0000
0000
0000
0000
0000
0000
0013
0000
0000
0000
0000
0000
0000
0000
0010
0000
0000
0000
0002
0000
0000
0000
0000
0000
0000
0000
0000
0103
0000
0000
0000
0000
0000
0000
0000
0000
0101
0000
0000
0000
0000
0000
,
0000
0000
2001
0000
0000
0000
3100
0000
0000
0000
1002
0000
0000
0103
0000
0000
,
0110
0000
0000
0000
2020
0000
3030
0000
0011
0000
0001
1000
0000
0000
0101
0000
,
0000
0000
0000
0001
0000
0000
0000
0001
0000
0000
0001
1000
0100
0000
0100
0000
,
2001
0000
0000
0000
0000
0000
0000
0000
0000
0000
0000
0000
3010
0000
0000
0000
0000
0000
0000
0000
0010
0000
0000
0000
2000
0000
0000
0000
0000
0000
0000
0000
0000
3100
0000
0000
0000
0000
0000
0000
0000
0000
1100
0000
0000
0000
0000
0000
,
0000
0000
1002
0000
0000
0000
0103
0000
0000
0000
2001
0000
0000
3100
0000
0000
,
0110
0000
0000
0000
0000
0000
0000
0000
0020
0000
0000
0000
0002
0000
0000
0000
0000
0000
0033
0000
0000
0000
0000
0000
1010
0000
0000
0000
0000
0000
1000
0000
0000
0001
0000
0000
0000
0000
0000
0000
0000
0000
1100
0000
0000
0000
0000
0000
,
0000
0000
0000
1000
0000
0000
0000
1000
0000
0000
1000
0001
0100
0000
0010
0000
,
1020
0000
0000
0000
0000
0000
0000
0000
0000
0000
0000
0000
0031
0000
0000
0000
0000
0000
0000
0000
0001
0000
0000
0000
0020
0000
0000
0000
0000
0000
0000
0000
0000
1030
0000
0000
0000
0000
0000
0000
0000
0000
1001
0000
0000
0000
0000
0000
,
0000
0000
1200
0000
0000
0000
0301
0000
0000
0000
0201
0000
0000
0310
0000
0000
,
1100
0000
0000
0000
2002
0000
3003
0000
1010
0000
0001
0010
0000
0000
1001
0000
,
0000
0000
0000
0001
0000
0000
0000
0001
0000
0000
0100
0001
0010
0000
0010
0000
,
0021
0000
0000
0000
0000
0000
0000
0000
0000
0000
0000
0000
1030
0000
0000
0000
0000
0000
0000
0000
1000
0000
0000
0000
0020
0000
0000
0000
0000
0000
0000
0000
0000
0031
0000
0000
0000
0000
0000
0000
0000
0000
1001
0000
0000
0000
0000
0000
,
0000
0000
0201
0000
0000
0000
1300
0000
0000
0000
1200
0000
0000
0310
0000
0000
,
0101
0000
0000
0000
0000
0000
0000
0000
0002
0000
0000
0000
2000
0000
0000
0000
0000
0000
3003
0000
0000
0000
0000
0000
0011
0000
0000
0000
0000
0000
1000
0000
0000
0010
0000
0000
0000
0000
0000
0000
0000
0000
0110
0000
0000
0000
0000
0000
,
1001
1001
1001
0020
,
0030
0000
0000
0000
1000
0000
0010
1000
0000
0000
0000
0010
0000
1000
0010
1000
,
0000
0000
0000
0010
0000
1000
0001
1000
0000
0100
0000
0100
0000
1000
0010
0000
,
2000
0000
3000
0000
0001
0000
0010
0001
0000
0000
0000
0010
0000
0001
0010
0001
,
0000
0000
0000
0010
0000
0001
1000
0001
0000
0100
0000
0100
0000
0001
0010
0000
,
0002
0000
0003
0000
1000
0000
0010
0100
0000
0000
0000
0001
0000
0001
0010
0100
,
0000
0000
0000
1000
0000
1000
0010
0100
0000
0001
0000
0001
0000
1000
0100
0000
,
0020
0000
0030
0000
0100
0000
1000
0001
0000
0000
0000
1000
0000
0001
0100
0000
,
0210
1000
0001
0310
,
1001
0000
0000
0001
1000
0100
0000
0010
0000
0100
0000
0100
0000
0010
0100
0001
,
0000
0000
0100
0010
0000
0100
1000
0001
0000
1000
0000
1000
0000
0010
0100
0000
,
0110
0000
0000
0010
1000
0010
0000
0100
0000
0010
0000
0010
0000
0100
0010
0001
,
0000
0000
0010
1000
0000
0001
1000
0100
0000
0001
0000
0100
0000
0010
0001
0000
,
1001
0000
0000
1000
0001
0100
0000
0010
0000
0100
0000
0100
0000
0010
0100
1000
,
0000
0000
0100
0010
0000
0100
0001
1000
0000
0001
0000
0001
0000
0010
0100
0000
,
0110
0000
0000
0000
1000
0000
0000
0001
0000
0000
0000
0001
0000
0000
1000
0000
,
0000
0020
0030
0000
0202
0303
2020
3030
,
1001
0000
0001
1000
0100
0000
0100
0010
0000
0001
0000
0001
0000
0100
0010
1000
,
0000
0001
0000
0001
0000
1000
0100
0010
0000
1000
0000
1000
0000
0010
0100
0000
,
1000
0000
0001
0000
1000
0000
0010
0100
0000
0100
0000
0100
0001
0000
1000
0000
,
0100
0000
0001
0000
0100
0000
1000
0000
1001
0000
0000
0000
1000
0000
0001
1000
,
0001
0000
1000
0001
0100
0000
0100
0010
0000
1000
0000
1000
0000
0100
0010
0001
,
0000
1000
0000
1000
0000
0001
0100
0010
0000
0001
0000
0001
0000
0010
0100
0000
,
0001
0000
1000
0000
0001
0000
0010
0100
0000
0100
0000
0100
1000
0000
0001
0000
,
0100
0000
0000
0010
1000
0000
0000
0001
0010
0000
0000
0000
1001
0000
0000
0000
,
0201
0000
0000
0000
0000
0000
0000
0000
0000
0000
0000
0000
1300
0000
0000
0000
0000
0000
0000
0000
1000
0000
0000
0000
0200
0000
0000
0000
0000
0000
0000
0000
0000
0301
0000
0000
0000
0000
0000
0000
0000
0000
1001
0000
0000
0000
0000
0000
,
0000
0000
0021
0000
0000
0000
1030
0000
0000
0000
1000
0010
0000
0110
0000
0000
,
0011
0000
0000
0000
2002
0000
3003
0000
0101
0000
1000
0100
0000
0000
1001
0000
,
0000
0000
0000
1000
0000
0000
0000
1000
0000
0000
0010
1000
0100
0000
0100
0000
,
1200
0000
0000
0000
0000
0000
0000
0000
0000
0000
0000
0000
0301
0000
0000
0000
0000
0000
0000
0000
0001
0000
0000
0000
0200
0000
0000
0000
0000
0000
0000
0000
0000
1300
0000
0000
0000
0000
0000
0000
0000
0000
1001
0000
0000
0000
0000
0000
,
0000
0000
1020
0000
0000
0000
0031
0000
0000
0000
0001
0010
0000
0110
0000
0000
,
1010
0000
0000
0000
0000
0000
0000
0000
2000
0000
0000
0000
0002
0000
0000
0000
0000
0000
3003
0000
0000
0000
0000
0000
1100
0000
0000
0000
0000
0000
0001
0000
0000
0100
0000
0000
0000
0000
0000
0000
0000
0000
1001
0000
0000
0000
0000
0000
,
0000
0000
0000
0000
0000
0000
1000
0000
0000
0001
0000
0000
1000
0000
0000
0000
0000
0000
0001
0000
0000
1000
0000
0000
0001
0000
0000
0000
0000
0000
0010
0000
0000
0000
0000
0000
0100
0000
0000
0000
0100
0000
0000
0000
0100
0000
0000
0000
;

//---------------dance-single - ----------------
#NOTEDATA:;
#CHARTNAME:;
#STEPSTYPE:dance-single;
#DESCRIPTION:;
#CHARTSTYLE:;
#DIFFICULTY:Medium;
#METER:10;
#RADARVALUES:0.418782,0.471042,0.597758,0.409423,0.192429,358.000000,285.000000,73.000000,50.000000,0.000000,0.000000,0.000000,0.000000,0.000000,0.418782,0.471042,0.597758,0.409423,0.192429,358.000000,285.000000,73.000000,50.000000,0.000000,0.000000,0.000000,0.000000,0.000000;
#CREDIT:;
#NOTES:
0000
0000
0000
0000
,
0000
0000
0000
0000
,
0000
0000
0000
0000
,
0000
0000
0000
0000
,
2001
3010
2001
3100
,
2001
0000
3010
0000
1000
0010
1000
0000
,
1002
0013
1002
0103
,
1002
0000
0013
0000
0100
0010
0001
1000
,
1001
0000
0000
0000
1010
0000
0000
0000
1000
0000
0000
1000
0000
0000
0010
0000
,
1001
0000
0000
0000
0011
0000
0000
0000
0001
0000
0000
0001
0000
0000
0010
0000
,
1001
0000
0000
0000
0101
0000
0000
0000
1000
0000
0000
1000
0000
0000
0100
0000
,
1001
0000
0000
0000
0110
0000
0000
0000
0002
0000
0000
1000
0000
0000
1003
0000
,
1001
0000
0000
0000
0001
0000
0100
0000
0101
0000
0000
0010
0000
0000
0100
0000
,
1010
0000
0000
0000
1000
0000
0100
0000
1100
0000
0000
0010
0000
0000
0100
0000
,
0011
0000
0000
0000
1000
0000
0010
0000
0110
0000
0000
0001
0000
0000
1000
0000
,
1001
0000
0100
0010
0220
0000
0330
0000
,
1002
0000
0000
0000
0013
0000
0000
0000
1002
0000
0000
0103
0000
0000
0100
0000
,
0000
0000
0210
0000
0000
0000
0301
0000
0000
0000
0120
0000
0000
1030
0000
0000
,
1000
0000
0000
0000
1002
0000
0000
0000
0010
0000
0000
0103
0000
0000
0011
0000
,
0000
0000
0000
1000
0000
0000
0000
0001
0000
0000
1000
0000
0001
0000
0000
0000
,
2001
0000
0000
0000
3010
0000
0000
0000
2001
0000
0000
3100
0000
0000
0100
0000
,
0000
0000
0210
0000
0000
0000
1300
0000
0000
0000
0120
0000
0000
0031
0000
0000
,
0001
0000
0000
0000
2001
0000
0000
0000
0010
0000
0000
3100
0000
0000
1010
0000
,
0000
0000
0000
0001
0000
0000
0000
1000
0000
0000
0001
0000
1000
0000
0000
0000
,
1020
0000
0000
0000
0031
0000
0000
0000
0021
0000
0000
0100
0000
0000
1030
0000
,
0000
0000
2001
0000
0000
0000
3100
0000
0000
0000
1200
0000
0000
0010
0000
0000
,
0301
0000
0000
0000
0201
0000
0000
0000
0310
0000
0000
1100
0000
0000
1001
0000
,
0000
0000
0000
1000
0000
0000
0000
0001
0000
0000
1000
0000
0001
0000
0000
0000
,
0021
0000
0000
0000
1030
0000
0000
0000
1020
0000
0000
0100
0000
0000
0031
0000
,
0000
0000
1002
0000
0000
0000
0103
0000
0000
0000
0201
0000
0000
0010
0000
0000
,
1300
0000
0000
0000
1200
0000
0000
0000
0310
0000
0000
0101
0000
0000
1001
0000
,
1001
1001
1001
0020
,
0030
0001
0000
0001
,
0000
0001
0010
0100
,
0000
1000
0000
1000
,
0000
1000
0010
0100
,
0000
0001
0000
1000
,
0000
0001
1000
0001
,
0010
0100
1000
0001
,
0200
1000
0010
0301
,
1002
0000
0000
0000
0013
0000
0001
0000
0010
0000
0000
0001
0000
0000
0010
0000
,
0000
0000
1001
0000
0000
0000
0001
0000
0010
0000
0001
0000
0000
0100
0000
0000
,
1002
0000
0000
0000
0103
0000
0001
0000
0100
0000
0000
0010
0000
0000
0100
0000
,
0000
0000
1001
0000
1000
0000
0000
0100
0000
0000
0010
0000
0110
0000
0000
0000
,
2001
0000
0000
0000
3010
0000
1000
0000
0010
0000
0000
1000
0000
0000
0010
0000
,
0000
0000
1001
0000
0000
0000
1000
0000
0010
0000
1000
0000
0000
0100
0000
0000
,
0002
0003
0000
0000
,
0000
0200
0300
0000
2200
3300
0022
0033
,
1001
0000
1000
0010
0001
0000
0001
0010
,
1000
0000
1000
0010
0001
1000
0100
0001
,
1000
0000
0100
0000
0010
0100
0100
0000
,
0010
0001
0100
0000
0010
1000
0001
0000
,
1001
0000
0001
0010
1000
0000
1000
0010
,
0001
0000
0001
0010
1000
0001
0100
1000
,
0001
0000
0100
0000
0001
0100
0010
1000
,
0100
0000
0000
0100
0010
0000
0000
0010
0001
0000
0000
0000
1001
0000
0000
0000
,
0201
0000
0000
0000
1300
0000
0000
0000
1200
0000
0000
0010
0000
0000
0301
0000
,
0000
0000
1002
0000
0000
0000
0013
0000
0000
0000
0001
0020
0000
0100
0000
0000
,
1030
0000
0000
0000
1020
0000
0000
0000
0130
0000
0010
0001
0000
0000
1001
0000
,
0000
0000
0000
0001
0000
0000
0000
1000
0000
0000
0001
0000
1000
0000
0000
0000
,
1200
0000
0000
0000
0301
0000
0000
0000
0201
0000
0000
0010
0000
0000
1300
0000
,
0000
0000
2001
0000
0000
0000
3010
0000
0000
0000
1000
0020
0000
0100
0000
0000
,
0031
0000
0000
0000
0021
0000
0000
0000
0130
0000
0010
1000
0000
0000
1001
0000
,
0000
0000
0000
0000
0000
0000
0000
0000
0000
1000
0000
0000
0001
0000
0000
0000
0000
0000
0000
0000
0000
0001
0000
0000
1000
0000
0000
0000
0000
0000
0000
0000
0000
0000
0000
0000
0100
0000
0000
0000
0010
0000
0000
0000
0100
0000
0000
0000
;

//---------------dance-single - ----------------
#NOTEDATA:;
#CHARTNAME:;
#STEPSTYPE:dance-single;
#DESCRIPTION:;
#CHARTSTYLE:;
#DIFFICULTY:Easy;
#METER:6;
#RADARVALUES:0.259691,0.366366,0.442177,0.630512,0.040942,222.000000,168.000000,54.000000,77.000000,0.000000,0.000000,0.000000,0.000000,0.000000,0.259691,0.366366,0.442177,0.630512,0.040942,222.000000,168.000000,54.000000,77.000000,0.000000,0.000000,0.000000,0.000000,0.000000;
#CREDIT:;
#NOTES:
0000
0000
0000
0000
,
0000
0000
0000
0000
,
0000
0000
0000
0000
,
0000
0000
0000
0000
,
2000
3000
2000
3000
,
2000
3000
0010
1000
,
0002
0003
0002
0003
,
0002
0003
0010
0001
,
1001
0000
1000
0010
,
1001
0000
1000
0100
,
1001
0000
0001
0100
,
1001
0000
0002
0000
,
0013
0100
0010
0001
,
1000
0010
0100
0010
,
1000
0001
0010
0100
,
1000
0001
0200
0300
,
0020
0000
0000
0000
1030
0000
0000
0000
2020
0000
0000
0030
0000
0000
3000
0000
,
0000
0000
2002
0000
0000
0000
3003
0000
0000
0000
2200
0000
0000
0300
0000
0000
,
3000
0000
0000
0000
0010
0000
0000
0000
2002
0000
0000
0003
0000
0000
3000
0000
,
0000
0000
0000
2000
0000
0000
0000
0200
0000
0000
3000
0000
0300
0000
0000
0000
,
0020
0000
0000
0000
0031
0000
0000
0000
0022
0000
0000
0030
0000
0000
0003
0000
,
0000
0000
2002
0000
0000
0000
3003
0000
0000
0000
0202
0000
0000
0300
0000
0000
,
0003
0000
0000
0000
0010
0000
0000
0000
2002
0000
0000
3000
0000
0000
0003
0000
,
0000
0000
0000
0002
0000
0000
0000
0200
0000
0000
0003
0000
0300
0000
0000
0000
,
2010
0000
0000
0000
3100
0000
0000
0000
0022
0000
0000
0030
0000
0000
0003
0000
,
0000
0000
0202
0000
0000
0000
0303
0000
0000
0000
2200
0000
0000
0300
0000
0000
,
3000
0000
0000
0000
1010
0000
0000
0000
0022
0000
0000
0030
0000
0000
0003
0000
,
0000
0000
0000
1001
0000
0000
0000
2002
0000
0000
3000
0000
0003
0000
0000
0000
,
0012
0000
0000
0000
0103
0000
0000
0000
2020
0000
0000
0030
0000
0000
3000
0000
,
0000
0000
2200
0000
0000
0000
3300
0000
0000
0000
0202
0000
0000
0300
0000
0000
,
0003
0000
0000
0000
0011
0000
0000
0000
2020
0000
0000
0030
0000
0000
3000
0000
,
1001
1001
1001
0020
,
0030
1000
0000
1000
,
0000
1000
0010
1000
,
0000
0001
0000
0001
,
0000
0001
0010
0001
,
0000
1000
0000
0001
,
0000
1000
0001
1000
,
0000
0010
0000
0100
,
0220
0000
0000
0330
,
0001
0100
0001
0100
,
0000
0001
0000
1000
0000
0001
0000
0000
,
0010
0001
0010
0001
,
0000
1000
0000
0000
0001
0000
1001
0000
,
1000
0010
1000
0010
,
0000
1000
0000
0001
0000
1000
0000
0000
,
0200
0300
0000
0000
,
0000
0200
0300
0000
1100
0000
0011
0000
,
1001
0010
1000
0010
,
0001
0010
1000
0001
,
0010
0100
0010
0100
,
1000
0010
0100
0001
,
1001
0010
0001
0010
,
1000
0010
0001
1000
,
0010
0100
0010
2001
,
3100
0100
0011
1001
,
0201
0000
0000
0000
1300
0000
0000
0000
0202
0000
0000
0300
0000
0000
0003
0000
,
0000
0000
0022
0000
0000
0000
0033
0000
0000
0000
2020
0000
0000
0030
0000
0000
,
3000
0000
0000
0000
1100
0000
0000
0000
0202
0000
0000
0300
0000
0000
0003
0000
,
0000
0000
0000
1001
0000
0000
0000
2002
0000
0000
0003
0000
3000
0000
0000
0000
,
1200
0000
0000
0000
0301
0000
0000
0000
2200
0000
0000
0300
0000
0000
3000
0000
,
0000
0000
2020
0000
0000
0000
3030
0000
0000
0000
0022
0000
0000
0030
0000
0000
,
0003
0000
0000
0000
0101
0000
0000
0000
2200
0000
0000
0300
0000
0000
3000
0000
,
0000
0000
0000
0000
0000
0000
0000
0000
0000
1001
0000
0000
0000
0000
0000
0000
0000
0000
0000
0000
0000
1001
0000
0000
0000
0000
0000
0000
0000
0000
0000
0000
0000
0000
0000
0000
0020
0000
0000
0000
0000
0000
0000
0000
0030
0000
0000
0000
;

//---------------dance-single - ----------------
#NOTEDATA:;
#CHARTNAME:;
#STEPSTYPE:dance-single;
#DESCRIPTION:;
#CHARTSTYLE:;
#DIFFICULTY:Beginner;
#METER:1;
#RADARVALUES:0.033924,0.078507,0.032754,0.008188,0.000000,29.000000,25.000000,4.000000,1.000000,0.000000,0.000000,0.000000,0.000000,0.000000,0.033924,0.078507,0.032754,0.008188,0.000000,29.000000,25.000000,4.000000,1.000000,0.000000,0.000000,0.000000,0.000000,0.000000;
#CREDIT:;
#NOTES:
0000
0000
0000
0000
,
0000
0000
0000
0000
,
0000
0000
0000
0000
,
0000
0000
0000
0000
,
1000
0000
0000
0000
,
0000
0000
0000
0000
,
0001
0000
0000
0000
,
0000
0000
0000
0000
,
0100
0000
0000
0000
,
0000
0000
0000
0000
,
0100
0000
0000
0000
,
0000
0000
0000
0000
,
0001
0000
0000
0000
,
0000
0000
0000
0000
,
1000
0000
0000
0000
,
0000
0000
0000
0000
,
0001
0000
0000
0000
,
0000
0000
0000
0000
,
0000
0000
0000
0000
,
0000
0000
0000
0000
,
1000
0000
0000
0000
,
0000
0000
0000
0000
,
0000
0000
0000
0000
,
0000
0000
0000
0000
,
1001
0000
0000
0000
,
0000
0000
0000
0000
,
0000
0000
0000
0000
,
0000
0000
0000
0000
,
1001
0000
0000
0000
,
0000
0000
0000
0000
,
0000
0000
0000
0000
,
0000
0000
0000
0000
,
1000
0000
0000
0000
,
0000
0000
0000
0000
,
0100
0000
0000
0000
,
0000
0000
0000
0000
,
0010
0000
0000
0000
,
0000
0000
0000
0000
,
0001
0000
0000
0000
,
0000
0000
0000
0000
,
0001
0000
0000
0000
,
0000
0000
0000
0000
,
0100
0000
0000
0000
,
0000
0000
0000
0000
,
0010
0000
0000
0000
,
0000
0000
0000
0000
,
1000
0000
0000
0000
,
0000
0000
0000
0000
,
0001
0000
0000
0000
,
0000
0000
0000
0000
,
1000
0000
0000
0000
,
0000
0000
0000
0000
,
0001
0000
0000
0000
,
0000
0000
0000
0000
,
1000
0000
0000
0000
,
0000
0000
0000
0000
,
1001
0000
0000
0000
,
0000
0000
0000
0000
,
0000
0000
0000
0000
,
0000
0000
0000
0000
,
1001
0000
0000
0000
,
0000
0000
0000
0000
,
0000
0000
0000
0000
,
0000
0000
0000
0000
0000
0000
0000
0000
0000
0020
0000
0030
;
