#TITLE:Epistrofi;
#SUBTITLE:;
#ARTIST:Sephid;
#TITLETRANSLIT:;
#SUBTITLETRANSLIT:;
#ARTISTTRANSLIT:;
#GENRE:Fantasy Drumstep;
#CREDIT:;
#BANNER:Epistrofi.png;
#BACKGROUND:Epistrofi-bg.png;
#LYRICSPATH:;
#CDTITLE:cdtitle.png;
#MUSIC:Epistrofi.ogg;
#OFFSET:0.617310;
#SAMPLESTART:75.598907;
#SAMPLELENGTH:10.378376;
#LASTBEATHINT:413.992737;
#SELECTABLE:YES;
#BPMS:0.000000=185.000000
;
#STOPS:
;
#BGCHANGES:;
#KEYSOUNDS:;
#ATTACKS:;

//---------------dance-single - ----------------
#NOTES:
     dance-single:
     :
     Challenge:
     17:
     0.852304,1.082702,0.192456,0.599574,0.825339,806.000000,780.000000,26.000000,81.000000,18.000000,0.000000,0.852304,1.082702,0.192456,0.599574,0.825339,806.000000,780.000000,26.000000,81.000000,18.000000,0.000000:
// measure 0
0000
0000
0000
0000
,  // measure 1
0000
0000
0000
0000
,  // measure 2
0000
0000
0000
0000
,  // measure 3
0000
0000
0000
0000
,  // measure 4
0000
0000
0000
0000
,  // measure 5
0000
0000
0000
0000
,  // measure 6
0000
0000
0000
0000
,  // measure 7
0000
0000
0000
0000
,  // measure 8
0000
0000
0000
0000
,  // measure 9
2000
0000
3010
0100
0000
0010
0000
2000
,  // measure 10
0000
3100
0000
0100
0010
0000
0001
1000
,  // measure 11
0020
0000
0130
0001
0000
1000
0000
0200
,  // measure 12
0000
0000
0310
0000
0100
0000
1000
0000
0001
0100
0010
1000
0001
1000
0010
0100
,  // measure 13
0002
0000
0013
0100
0000
0010
0000
0002
,  // measure 14
0000
0103
0000
0100
0010
0000
1000
0001
,  // measure 15
0020
0000
0130
1000
0000
0010
0000
0200
,  // measure 16
0000
0000
0301
0000
1000
0100
0010
0100
0010
0001
1000
0010
0100
0010
0100
0001
,  // measure 17
2000
0000
0001
0001
3001
0011
0000
1100
,  // measure 18
0000
0000
0000
0000
,  // measure 19
0000
0000
0000
0000
,  // measure 20
0000
0000
0000
0100
,  // measure 21
1001
0000
0001
0001
0100
0010
0100
0001
,  // measure 22
1001
1000
0100
0000
0100
0010
0100
1000
,  // measure 23
1001
0000
0001
0000
0100
0000
0100
0000
0010
1000
0001
0010
0001
1000
0010
1000
,  // measure 24
0200
0010
0010
0010
0310
0000
0110
0000
,  // measure 25
1001
0000
0000
0000
0001
1000
0001
0100
00M0
0100
1000
0000
0001
1000
0200
0000
,  // measure 26
0300
0000
0010
0M00
0010
0000
1000
0001
0010
0100
0010
0100
1000
0001
0100
0000
,  // measure 27
0001
0000
1000
0001
0010
0M00
0010
1000
0001
1000
0100
00M0
0100
0001
1000
0100
,  // measure 28
0010
0001
0010
0100
1000
0001
0100
0000
0000
0000
0010
0000
0100
0000
0001
0000
,  // measure 29
1001
0000
0000
0000
1000
0100
1000
0001
0100
00M0
0100
1000
0000
0001
0200
0000
,  // measure 30
0300
0001
0010
0M00
0010
0000
1000
0010
0100
0001
1000
0100
1000
0100
0010
0000
,  // measure 31
0002
0000
0000
0000
0000
0000
0103
0001
2000
0000
0000
0000
0000
0000
3100
1000
,  // measure 32
0002
0203
0000
0302
0000
0023
0000
0031
,  // measure 33
1001
0000
0000
0000
1000
0001
1000
0100
00M0
0100
0001
0000
0010
0001
0200
0000
,  // measure 34
0300
0001
0010
0M00
0010
0000
1000
0010
0100
0001
0010
0001
0010
0100
1000
0000
,  // measure 35
0001
0000
0001
1000
0010
000M
0010
0100
1000
0001
0100
00M0
0100
1000
0001
0100
,  // measure 36
0010
1000
0010
0100
0001
1000
0100
0000
0000
0000
0010
0001
1000
0001
0100
0000
,  // measure 37
0110
0000
0000
0000
0001
1000
0010
1000
0100
00M0
0100
0001
0000
1000
0200
0000
,  // measure 38
0300
1000
0010
0M00
0010
0000
0001
0010
0100
0010
0001
0100
0001
0100
0010
0000
,  // measure 39
2000
0000
0000
0000
3010
0000
1000
0001
0020
0000
0000
0000
0130
0000
1000
0001
,  // measure 40
0100
0000
0001
1000
0100
0000
0010
0000
0001
0000
1000
0000
0010
0000
0000
0000
,  // measure 41
0210
0000
0010
0000
1000
1000
0000
0010
,  // measure 42
0010
0000
0010
0000
0001
0001
0000
0301
,  // measure 43
0101
0000
0000
0000
1000
0001
0100
0000
0001
0010
0001
1000
0000
1000
0001
0100
,  // measure 44
0001
1000
0100
0000
0010
0001
0000
1000
0010
0100
0001
1000
0100
0000
0010
0000
,  // measure 45
0210
0000
0010
0000
0001
0001
0000
0010
,  // measure 46
0010
0000
0010
0000
1000
1000
0000
1300
,  // measure 47
1100
0000
0000
0000
0001
1000
0100
0000
1000
0010
1000
0100
0000
0000
0010
0001
,  // measure 48
1000
0010
1000
0010
0100
0001
0010
0100
2000
0000
3010
0000
1000
0010
0100
0010
,  // measure 49
1000
0000
0010
0100
0000
0010
1000
0000
,  // measure 50
0100
0000
0000
0000
1000
0000
0100
0000
0000
0000
1000
0100
0010
0100
0010
0100
,  // measure 51
1000
0000
0000
0000
0010
0000
1000
0000
0000
0000
0010
0000
1000
0010
1000
0001
,  // measure 52
0010
0000
0100
1000
0000
0001
0000
0100
,  // measure 53
0001
0000
0010
0100
0000
0010
0001
0000
,  // measure 54
0100
0000
0000
0000
0001
0000
0100
0000
0000
0000
0001
0100
0010
0100
0010
0100
,  // measure 55
0001
0000
0000
0000
1000
0000
0100
0000
0000
0000
0100
0000
0010
0001
1000
0010
,  // measure 56
0200
0000
0000
0000
,  // measure 57
0310
0000
0100
0000
0001
0000
0000
0000
0001
0000
0001
0000
1000
0001
0100
0010
,  // measure 58
2000
0000
3002
0000
0023
0000
0032
0000
2003
0000
3020
0000
1030
0001
0010
0100
,  // measure 59
2000
0000
3001
0100
0010
0000
1010
0000
0000
0001
1000
0000
0100
0000
1200
0000
,  // measure 60
0000
0000
0302
0000
0000
0000
0103
0010
0100
0000
1000
0000
0001
0000
0100
0000
,  // measure 61
0020
0000
1030
0001
0010
0000
0110
0000
0000
0100
1000
0000
0001
0000
1002
0000
,  // measure 62
0000
0000
1003
0000
0010
0000
0100
0000
0001
0010
0100
1000
0001
1000
0010
0100
,  // measure 63
0002
0000
1003
0100
0010
0000
0011
0000
0000
1000
0001
0000
0100
0000
0201
0000
,  // measure 64
0000
0000
2300
0000
0000
0000
3100
0010
0100
0000
0001
0000
1000
0000
0100
0000
,  // measure 65
0020
0000
0031
1000
0010
0000
0110
0000
0000
0100
0010
0000
0100
0000
1002
0000
,  // measure 66
0000
0000
1003
0000
0100
0000
0010
0001
0100
0010
1000
0100
0010
0001
0100
0010
,  // measure 67
2000
0000
3001
1000
0100
1000
0100
0002
,  // measure 68
0000
2003
0000
3010
0001
0000
1000
0001
,  // measure 69
1000
0100
0010
0001
0100
0001
0100
2000
,  // measure 70
0000
0000
3001
0000
0010
0000
1000
0000
0001
0100
0010
1000
0001
1000
0100
0010
,  // measure 71
0002
0000
1003
0010
0100
0000
0110
0000
0000
0001
1000
0000
0100
0000
0210
0000
,  // measure 72
0000
0000
0302
0000
0000
0000
0103
0010
0100
0000
1000
0000
0001
0000
0100
0000
,  // measure 73
0010
1000
0010
1000
0001
0010
0001
0010
,  // measure 74
0100
1000
0001
0100
0010
1000
0001
0010
0100
1000
0001
0100
0010
1000
0001
1000
,  // measure 75
0200
0000
0000
0000
0310
0000
0001
0000
2000
3001
0100
0000
0010
0000
0100
0000
,  // measure 76
2000
3000
0100
0000
0010
0000
1000
0010
2000
3000
0001
0000
0010
0000
0100
1000
,  // measure 77
0002
0003
1000
0010
1000
0010
0100
0001
2000
0000
0000
3200
0000
0000
0302
0000
,  // measure 78
0000
0000
1003
0010
0000
0100
0010
0000
0001
1000
0001
0100
0010
0000
1000
0000
,  // measure 79
2000
0000
0000
0000
3001
0000
0010
0000
0200
1300
0001
0000
0100
0000
0010
0000
,  // measure 80
0002
0003
0010
0000
0100
0000
0001
1000
0002
0003
0010
0000
0100
0000
1000
0000
,  // measure 81
0002
1000
1000
0000
0100
0103
0010
2010
,  // measure 82
0000
0001
3001
0000
1000
0100
0010
0001
,  // measure 83
0200
0000
0000
0000
0310
0000
1000
0000
0002
1003
0100
0000
0010
0000
0100
0000
,  // measure 84
0002
0003
0100
0000
0010
0000
0001
0010
0002
0003
1000
0000
0010
0000
0100
0001
,  // measure 85
2000
3000
0001
0010
0001
0010
0100
1000
0002
0000
0000
0203
0000
0000
2300
0000
,  // measure 86
0000
0000
3001
0010
0000
0100
0010
0000
1000
0001
1000
0100
0010
0000
0001
0000
,  // measure 87
0002
0000
0000
0000
1003
0000
0010
0000
0200
0301
1000
0000
0100
0000
0010
0000
,  // measure 88
2000
3000
0010
0000
0100
0000
1000
0001
2000
3000
0010
0100
0001
1000
0100
0010
,  // measure 89
0001
0001
0100
0100
0010
0010
1000
0001
,  // measure 90
1000
0100
0010
0100
1000
0001
0100
0010
0100
0001
1000
0100
0010
0001
1000
0001
,  // measure 91
0200
0000
0000
0000
0301
1000
0001
0100
00M0
0100
1000
0000
0010
1000
0200
0000
,  // measure 92
0300
1000
0010
0M00
0010
0000
0001
0010
0100
1000
0010
1000
0010
0100
0001
0000
,  // measure 93
1000
0000
1000
0001
0010
M000
0010
0100
0001
1000
0100
00M0
0100
0001
1000
0100
,  // measure 94
0010
0001
0010
0100
1000
0001
0100
0000
0000
0000
0100
0001
1000
0001
0010
0000
,  // measure 95
0200
0000
0000
0000
1300
0001
0010
0001
0100
00M0
0100
1000
0000
0001
0200
0000
,  // measure 96
0300
0001
0010
0M00
0010
0000
1000
0010
0100
0010
1000
0100
1000
0100
0010
0000
,  // measure 97
0002
0000
0000
0000
0013
0000
0001
1000
0020
0000
0000
0000
0130
0000
0001
1000
,  // measure 98
0100
0000
1000
0001
0100
0000
0010
0000
1000
0000
0001
0000
0010
0000
0000
0000
,  // measure 99
0110
0000
0010
0100
0000
1000
0000
0001
,  // measure 100
0000
0100
0000
0100
0010
0000
1000
0001
;

//---------------dance-single - ----------------
#NOTES:
     dance-single:
     :
     Hard:
     15:
     0.683112,0.821360,0.192456,0.666193,0.329395,646.000000,620.000000,26.000000,90.000000,12.000000,0.000000,0.683112,0.821360,0.192456,0.666193,0.329395,646.000000,620.000000,26.000000,90.000000,12.000000,0.000000:
// measure 0
0000
0000
0000
0000
,  // measure 1
0000
0000
0000
0000
,  // measure 2
0000
0000
0000
0000
,  // measure 3
0000
0000
0000
0000
,  // measure 4
0000
0000
0000
0000
,  // measure 5
0000
0000
0000
0000
,  // measure 6
0000
0000
0000
0000
,  // measure 7
0000
0000
0000
0000
,  // measure 8
0000
0000
0000
0000
,  // measure 9
0002
0000
0013
0100
0000
0010
0000
0002
,  // measure 10
0000
0103
0000
0100
0010
0000
1000
0001
,  // measure 11
0020
0000
0130
1000
0000
0001
0000
0200
,  // measure 12
0000
0310
0100
0001
1000
0100
0010
0001
,  // measure 13
2000
0000
3010
0100
0000
0010
0000
2000
,  // measure 14
0000
3100
0000
0100
0010
0000
0001
1000
,  // measure 15
0020
0000
0130
0001
0000
0010
0000
0200
,  // measure 16
0000
0000
1300
0000
0001
0100
0001
0000
1000
0000
0001
0010
0001
0000
1000
0000
,  // measure 17
0020
0000
0100
0100
0130
0110
0000
1001
,  // measure 18
0000
0000
0000
0000
,  // measure 19
0000
0000
0000
0000
,  // measure 20
0000
0000
0000
0100
,  // measure 21
1001
0000
1000
1000
0100
0010
0100
1000
,  // measure 22
1001
0001
0100
0000
0100
0010
0100
0001
,  // measure 23
1001
0000
0000
0000
0001
0000
0010
0000
0100
1000
0001
0000
1000
0001
0100
0000
,  // measure 24
0020
0000
0000
0130
,  // measure 25
1001
0000
0000
0000
0001
0000
1000
0100
00M0
0100
0001
0000
1000
0000
0002
0000
,  // measure 26
0003
0000
0010
0M00
0010
0000
1000
0001
1000
0000
0010
0000
0100
0000
0001
0000
,  // measure 27
1000
0000
0001
0010
0001
0000
1000
0010
1000
0000
0001
0000
0010
0000
0100
0000
,  // measure 28
0001
0100
1000
0001
0000
0010
0100
1000
,  // measure 29
1001
0000
0000
0000
0001
0000
1000
0001
1000
0000
0001
0100
00M0
0100
2000
0000
,  // measure 30
3000
0000
0010
0M00
0010
0000
0001
1000
0001
0000
0010
0000
0100
0000
1000
0000
,  // measure 31
0002
0000
0000
0103
0020
0000
0000
0130
,  // measure 32
1000
0200
0000
0302
0000
0023
0000
0130
,  // measure 33
0110
0000
0000
0000
0001
0000
1000
0100
00M0
0100
0001
0000
0100
0010
2000
0000
,  // measure 34
0000
0000
3010
0M00
0010
0000
0001
1000
0100
0000
0010
0001
1000
0000
0001
0000
,  // measure 35
0100
0000
0001
0010
0001
0000
1000
0010
1000
0000
0100
0000
0001
0000
0100
0000
,  // measure 36
1000
0010
0001
0010
0000
1000
0010
1000
,  // measure 37
1001
0000
0000
0000
0001
1000
0001
1000
0001
0000
1000
0100
00M0
0100
0002
0000
,  // measure 38
0003
0000
0010
0M00
0010
0000
1000
0010
0100
0000
0010
0100
0001
0000
1000
0000
,  // measure 39
0200
0000
0301
1000
0020
0000
0031
0100
,  // measure 40
1000
0002
0000
0023
0000
2030
0000
3001
,  // measure 41
2001
0000
0001
0000
3100
0010
0000
0100
,  // measure 42
0020
0000
0100
0000
0031
1000
0000
0001
,  // measure 43
0101
0000
0000
0000
0001
0000
0100
0000
0001
0010
0001
0000
0010
0000
0100
0000
,  // measure 44
1000
0001
0000
0000
0100
0010
0000
0000
1000
0001
0010
0000
0100
0000
1000
0000
,  // measure 45
1002
0000
1000
0000
0103
0010
0000
0100
,  // measure 46
0020
0000
0100
0000
1030
0001
0000
1000
,  // measure 47
1100
0000
0000
0000
1000
0000
0100
0000
1000
0010
1000
0010
0000
0000
0100
0000
,  // measure 48
0001
0000
1000
0000
0100
0010
0100
0010
0200
0000
0000
0000
0310
0001
0010
0100
,  // measure 49
1000
0000
0010
0100
0000
0010
1000
0000
,  // measure 50
0100
0000
1000
0100
0000
0010
0100
1000
,  // measure 51
0001
0000
1000
0010
0000
0100
0001
1000
,  // measure 52
0100
0000
0010
0001
0000
0100
0000
0100
,  // measure 53
0001
0000
0010
0100
0000
0010
0001
0000
,  // measure 54
0100
0000
0001
0100
0000
0010
0100
0001
,  // measure 55
1000
0000
0100
0001
0000
0100
1000
0010
,  // measure 56
0002
0000
0000
0000
,  // measure 57
0013
1000
0001
0000
0001
0001
2000
3200
,  // measure 58
0320
0000
0032
0000
0203
0000
0320
0000
2030
0000
3020
0000
1030
0100
1000
0100
,  // measure 59
0020
0000
0031
1002
0000
0103
0000
0210
,  // measure 60
0000
0000
1300
0000
0000
0000
0100
0010
0100
0000
0001
0000
1000
0000
0100
0000
,  // measure 61
0020
0000
0031
2001
0000
3010
0000
0210
,  // measure 62
0000
0000
1300
0000
0100
0000
0001
0000
0010
0100
1000
0000
0001
0100
0001
0100
,  // measure 63
0020
0000
1030
2001
0000
3100
0000
0210
,  // measure 64
0000
0000
0301
0000
0000
0000
0100
0010
0100
0000
1000
0000
0001
0000
0100
0000
,  // measure 65
0020
0000
1030
1002
0000
0013
0000
0120
,  // measure 66
0000
0000
1030
0000
0010
0000
0001
0000
1000
0001
0100
0000
0010
1000
0010
1000
,  // measure 67
0002
0000
0000
0000
0000
0023
0000
2030
,  // measure 68
0000
3002
0000
0103
2000
0000
3100
0010
,  // measure 69
0002
0000
1003
0020
0000
0032
0000
2003
,  // measure 70
0000
0000
3100
0000
0001
0000
1000
0000
0100
0010
0001
0000
0100
0010
0100
0010
,  // measure 71
2000
0000
3001
0012
0000
1003
0000
1020
,  // measure 72
0000
0000
0031
0000
0000
0000
0010
0100
0010
0000
1000
0000
0001
0000
0010
0000
,  // measure 73
0100
1000
0100
1000
0001
0100
0001
0100
,  // measure 74
0010
1000
0100
0000
0010
0001
0100
0000
0010
1000
0100
0000
0010
0001
0010
0001
,  // measure 75
2000
0000
3001
0100
0010
0100
0001
0100
,  // measure 76
1000
0100
0001
0100
1000
0100
0001
0100
,  // measure 77
0010
0000
1000
0001
1000
0001
1000
0000
0200
0000
0000
0302
0000
0000
2003
0000
,  // measure 78
0000
0000
3020
0000
0000
0032
0000
0000
1003
0000
0001
0100
0010
0000
1000
0000
,  // measure 79
0002
0000
0013
0100
0001
0100
1000
0010
,  // measure 80
0001
0010
1000
0001
0010
0100
1000
0001
,  // measure 81
0200
0010
0010
0000
0010
0310
0000
0110
,  // measure 82
0000
0000
1001
0000
0001
0100
0010
1000
,  // measure 83
0002
0000
1003
0100
0010
0100
1000
0100
,  // measure 84
0001
0100
1000
0100
0001
0100
1000
0100
,  // measure 85
0010
0000
0001
1000
0001
1000
0001
0000
0200
0000
0000
2300
0000
0000
3002
0000
,  // measure 86
0000
0000
0023
0000
0000
2030
0000
0000
3001
0000
1000
0100
0010
0000
0001
0000
,  // measure 87
2000
0000
3010
0100
1000
0100
0001
0010
,  // measure 88
1000
0000
0010
0000
0001
0000
1000
0000
0010
0000
0100
0010
0100
0000
0001
0000
,  // measure 89
2000
0000
0100
3200
0000
0320
0000
0032
,  // measure 90
0000
0000
1003
0000
0001
0100
0001
0100
0010
0000
1000
0100
1000
0100
0010
0000
,  // measure 91
0002
0000
0000
0000
1003
0000
0001
0100
00M0
0100
1000
0000
0100
0010
0002
0000
,  // measure 92
0000
0000
0013
0M00
0010
0000
1000
0001
0100
0000
0010
1000
0001
0000
1000
0000
,  // measure 93
0100
0000
1000
0010
1000
0000
0001
0010
0001
0000
0100
0000
1000
0000
0100
0000
,  // measure 94
0001
0010
1000
0010
0000
0010
0100
0010
,  // measure 95
0002
0000
0000
0000
1003
0001
1000
0001
1000
0000
0001
0100
00M0
0100
2000
0000
,  // measure 96
3000
0000
0010
0M00
0010
0000
0001
0010
0100
0000
0010
0100
1000
0000
0001
0000
,  // measure 97
0200
0000
1300
0001
0020
0000
1030
0100
,  // measure 98
0001
2000
0000
3020
0000
0032
0000
1003
,  // measure 99
1001
0000
0001
0100
0000
0010
0000
1000
,  // measure 100
0000
0100
0000
0100
0010
0000
0001
1000
;

//---------------dance-single - ----------------
#NOTES:
     dance-single:
     :
     Medium:
     12:
     0.499116,0.560018,0.281281,0.481139,0.022206,472.000000,434.000000,38.000000,65.000000,12.000000,0.000000,0.499116,0.560018,0.281281,0.481139,0.022206,472.000000,434.000000,38.000000,65.000000,12.000000,0.000000:
// measure 0
0000
0000
0000
0000
,  // measure 1
0000
0000
0000
0000
,  // measure 2
0000
0000
0000
0000
,  // measure 3
0000
0000
0000
0000
,  // measure 4
0000
0000
0000
0000
,  // measure 5
0000
0000
0000
0000
,  // measure 6
0000
0000
0000
0000
,  // measure 7
0000
0000
0000
0000
,  // measure 8
0000
0000
0000
0000
,  // measure 9
2000
0000
3010
0100
0000
0010
0000
2000
,  // measure 10
0000
3100
0000
0100
0010
0000
0001
1000
,  // measure 11
0020
0000
0130
0001
0000
1000
0000
0200
,  // measure 12
0000
0310
0001
0000
1000
0010
1000
0000
,  // measure 13
0002
0000
0013
0100
0000
0010
0000
0002
,  // measure 14
0000
0103
0000
0100
0010
0000
1000
0001
,  // measure 15
0020
0000
0130
1000
0000
0010
0000
0200
,  // measure 16
0000
0301
1000
0000
0001
0010
0100
1000
,  // measure 17
0002
0000
0000
0003
0000
1010
0000
0101
,  // measure 18
0000
0000
0000
0000
,  // measure 19
0000
0000
0000
0000
,  // measure 20
0000
0000
0000
0100
,  // measure 21
1001
0000
0001
0010
0001
0010
0100
0000
,  // measure 22
1001
0000
1000
0010
1000
0010
0100
0000
,  // measure 23
0001
1000
0100
0000
1000
0001
0100
0010
,  // measure 24
2000
0000
0000
3001
,  // measure 25
1001
0000
1000
0001
0100
00M0
1100
0000
,  // measure 26
0000
1000
0001
1000
0100
00M0
0101
0000
,  // measure 27
1000
0010
1000
0000
0001
0010
0001
0000
,  // measure 28
1000
0010
0100
0001
0000
0001
0010
0100
,  // measure 29
1000
0000
0001
1000
0010
0M00
0011
0000
,  // measure 30
0000
0001
1000
0001
0010
0M00
1010
0000
,  // measure 31
0002
0000
0000
0013
0200
0000
0000
1300
,  // measure 32
0001
0200
0000
0320
0000
2030
0000
3000
,  // measure 33
2001
0000
3010
1000
0100
00M0
0101
0000
,  // measure 34
1000
0001
0010
0001
0100
00M0
1100
0000
,  // measure 35
0001
0100
1000
0000
0100
0001
0010
0000
,  // measure 36
1000
0010
0001
1000
0000
1000
0010
0100
,  // measure 37
0002
0000
0013
0001
0100
00M0
1100
0000
,  // measure 38
0001
1000
0010
1000
0100
00M0
0101
0000
,  // measure 39
2000
0000
0000
3100
0020
0000
0000
0031
,  // measure 40
0100
0020
0000
2030
0000
3002
0000
0003
,  // measure 41
2001
0001
0100
0000
,  // measure 42
0001
0001
3010
0000
,  // measure 43
0110
0000
0001
0000
1000
0001
1000
0000
,  // measure 44
0001
0000
0010
0000
0100
0010
0001
0000
,  // measure 45
1002
1000
0100
0000
,  // measure 46
1000
1000
0013
0000
,  // measure 47
0110
0000
1000
0000
0001
0100
0010
0000
,  // measure 48
1000
0100
0010
0100
2000
0000
3010
0010
,  // measure 49
1000
0000
0000
0010
0000
0000
1000
0000
,  // measure 50
0100
0000
0000
1000
0000
0000
0100
1000
,  // measure 51
0001
0000
0000
0100
0000
0000
0010
1000
,  // measure 52
0001
0000
0000
0010
0000
0100
0000
0010
,  // measure 53
0001
0000
0000
0010
0000
0000
0001
0000
,  // measure 54
0100
0000
0000
0001
0000
0000
0100
0001
,  // measure 55
1000
0000
0000
0100
0000
0000
0010
0001
,  // measure 56
0200
0000
0000
0000
,  // measure 57
0310
1000
0001
0000
0001
0001
1000
0100
,  // measure 58
0020
0000
0000
0000
0000
0000
0130
0010
,  // measure 59
0002
0000
0103
0010
0000
0100
0000
2000
,  // measure 60
0000
3100
0000
0010
0100
0000
0001
1000
,  // measure 61
0200
0000
0310
1000
0000
0010
0000
0200
,  // measure 62
0000
0310
0001
1000
0001
0001
0100
0010
,  // measure 63
2000
0000
3100
0010
0000
0100
0000
0002
,  // measure 64
0000
0103
0000
0010
0100
0000
1000
0001
,  // measure 65
0200
0000
0310
0001
0000
0010
0000
0200
,  // measure 66
0000
0310
1000
0100
0010
0001
0100
0010
,  // measure 67
2000
0000
0000
0000
0000
3200
0000
0320
,  // measure 68
0000
0032
0000
1003
0020
0000
0130
0001
,  // measure 69
2000
0000
3100
0020
0000
0032
0000
2003
,  // measure 70
0000
3010
0100
0001
1000
0100
0010
0001
,  // measure 71
2000
0000
3010
0100
0000
0010
0000
0002
,  // measure 72
0000
0013
0000
0100
0010
0000
1000
0001
,  // measure 73
2000
0000
3100
0001
0000
0100
0000
2000
,  // measure 74
0000
3010
0100
0001
0010
0001
0100
0010
,  // measure 75
2000
3010
1010
0001
,  // measure 76
0101
0001
0101
1000
,  // measure 77
1010
0000
0000
0000
0001
0000
0010
0000
0100
0000
0000
0010
0000
0000
0002
0000
,  // measure 78
0000
0000
1003
0000
0000
0010
0000
0000
0100
0000
0000
0001
0000
0000
1000
0000
,  // measure 79
0200
0310
0110
0001
,  // measure 80
0110
1000
0110
0001
,  // measure 81
2002
0000
3003
0000
0001
0100
0000
0100
,  // measure 82
0000
0100
0010
1000
,  // measure 83
0002
0013
0011
1000
,  // measure 84
1100
1000
1100
0001
,  // measure 85
0011
0000
0000
0000
1000
0000
0010
0000
0100
0000
0000
0010
0000
0000
2000
0000
,  // measure 86
0000
0000
3001
0000
0000
0010
0000
0000
0100
0000
0000
1000
0000
0000
0001
0000
,  // measure 87
0200
0310
0110
1000
,  // measure 88
0110
0000
0001
0000
0110
0000
1000
0001
,  // measure 89
0020
0000
0130
1000
0000
0001
0000
0200
,  // measure 90
0000
0310
0100
0001
1000
1000
0100
0010
,  // measure 91
0002
0000
0013
0001
0100
00M0
1100
0000
,  // measure 92
0001
1000
0010
1000
0100
00M0
0101
0000
,  // measure 93
1000
0100
0001
0000
0100
1000
0010
0000
,  // measure 94
0001
0010
1000
0001
0000
0001
0010
0100
,  // measure 95
2000
0000
3010
1000
0100
00M0
0101
0000
,  // measure 96
1000
0001
0010
0001
0100
00M0
1100
0000
,  // measure 97
0002
0000
0000
0103
0020
0000
0000
1030
,  // measure 98
0100
0020
0000
0032
0000
2003
0000
3000
,  // measure 99
1001
0000
1000
0010
0000
0100
0000
0001
,  // measure 100
0000
1000
0000
1000
0100
0000
0010
0001
;

//---------------dance-single - ----------------
#NOTES:
     dance-single:
     :
     Easy:
     8:
     0.319350,0.447460,0.140641,0.384911,0.000000,302.000000,283.000000,19.000000,52.000000,6.000000,0.000000,0.319350,0.447460,0.140641,0.384911,0.000000,302.000000,283.000000,19.000000,52.000000,6.000000,0.000000:
0000
0000
0000
0000
,
0000
0000
0000
0000
,
0000
0000
0000
0000
,
0000
0000
0000
0000
,
0000
0000
0000
0000
,
0000
0000
0000
0000
,
0000
0000
0000
0000
,
0000
0000
0000
0000
,
0000
0000
0000
0000
,
0002
0000
0003
0010
0000
0100
0000
0020
,
0000
0031
0000
0000
1000
0000
0000
0000
,
0002
0000
0003
0100
0000
0010
0000
0200
,
0000
0300
0001
0000
0010
0000
0001
0000
,
2000
0000
3000
0010
0000
0100
0000
0020
,
0000
1030
0000
0000
0001
0000
0000
0000
,
2000
0000
3000
0100
0000
0010
0000
0002
,
0000
0003
0100
0000
0010
0000
1000
0000
,
2002
0000
0000
3003
0000
1001
0000
1001
,
0000
0000
0000
0000
,
0000
0000
0000
0000
,
0000
0000
0000
0100
,
1001
1000
0100
0000
,
1001
0001
0100
0000
,
0001
0100
0001
0010
,
0220
0000
0000
0330
,
0001
1000
0001
0100
,
00M0
0100
1000
0001
,
0100
0100
0010
1000
,
0001
0000
0000
0010
0000
0000
0100
0000
,
1000
0001
1000
0100
,
00M0
0100
0001
1000
,
0200
0000
0320
0000
,
0032
0000
0000
0203
0000
0320
0000
0000
,
1030
0010
1000
0100
,
00M0
0100
0001
0010
,
0001
0001
1000
0010
,
0100
0000
0000
0001
0000
0000
1000
0000
,
0100
0010
0001
0100
,
00M0
0100
1000
0010
,
2000
3100
0020
0031
,
0200
0000
0000
0010
0000
0310
0000
0000
,
2010
0000
0001
0000
,
0100
0000
3100
0000
,
0100
0010
0001
0000
,
1000
0010
0100
0001
,
0012
0000
1000
0000
,
0100
0000
0103
0000
,
0010
0100
0001
1000
,
0200
0000
0310
0100
,
1000
0000
0000
0000
,
0010
0000
0000
0000
,
0100
0000
0000
0000
,
0001
0000
0000
0000
,
0010
0000
0000
0000
,
0100
0000
0000
0000
,
1000
0000
0001
0100
,
0020
0000
0000
0000
,
0130
0100
0001
0010
,
0200
0000
0000
0310
,
1002
0000
0003
0100
0000
0010
0000
0100
,
0000
0002
0000
1003
0001
0000
1000
0000
,
1002
0000
0003
0010
0000
0001
0000
0200
,
0000
0300
0001
0000
1000
0001
1000
0000
,
2001
0000
3000
0100
0000
0010
0000
0100
,
0000
2000
0000
3001
1000
0000
0001
0000
,
2001
0000
3000
0010
0000
1000
0000
0200
,
0000
0300
0010
0000
0001
1000
0001
0000
,
0200
0000
0000
0000
0300
0010
0000
0020
,
0000
1030
0000
0001
1000
0000
0100
0000
,
0200
0000
0300
0010
0000
0100
0000
0020
,
0000
0030
0001
0000
1000
0001
1000
0000
,
1002
0000
0003
0100
0000
0010
0000
2000
,
0000
3100
0000
0010
0001
0000
1000
0000
,
2001
0000
3000
0010
0000
0100
0000
0002
,
0000
0013
0100
0000
1000
0001
1000
0000
,
2002
0003
0001
0000
,
0010
0000
0001
0000
,
3100
0000
0010
0000
0001
0000
1000
0010
,
0000
1000
0010
0000
0100
0000
0001
0000
,
2002
0003
0100
0000
,
0010
0000
0001
0000
,
3100
0000
0010
0000
0001
0000
0000
0001
,
0000
0100
0010
1000
,
2002
3000
1000
0000
,
0010
0000
1000
0000
,
0103
0000
0010
0000
1000
0000
0001
0010
,
0000
0001
0010
0000
0100
0000
1000
0000
,
2002
3000
0100
0000
,
0010
0000
1000
0000
,
0103
0000
0010
1000
0000
0001
0000
0010
,
0000
0100
1000
0000
0010
0100
0001
0000
,
1000
0100
1000
0010
,
0M00
0010
0001
0100
,
0001
0001
1000
0100
,
0010
0000
0000
0001
0000
0000
1000
0000
,
0010
0100
0001
0010
,
0M00
0010
1000
0100
,
2000
3010
0200
0301
,
0020
0000
0000
0100
0000
0130
0000
0000
,
0110
0000
0000
1000
0000
0001
0000
0100
,
0000
0010
0000
0000
1000
0000
0001
0000
;

//---------------dance-single - ----------------
#NOTES:
     dance-single:
     :
     Beginner:
     5:
     0.199858,0.293125,0.022206,0.185054,0.000000,189.000000,186.000000,3.000000,25.000000,0.000000,0.000000,0.199858,0.293125,0.022206,0.185054,0.000000,189.000000,186.000000,3.000000,25.000000,0.000000,0.000000:
0000
0000
0000
0000
,
0000
0000
0000
0000
,
0000
0000
0000
0000
,
0000
0000
0000
0000
,
0000
0000
0000
0000
,
0000
0000
0000
0000
,
0000
0000
0000
0000
,
0000
0000
0000
0000
,
0000
0000
0000
0000
,
1000
0000
0010
0000
,
1000
0000
0000
0000
,
0001
0000
0010
0000
,
0001
0000
0000
0000
,
0001
0000
0100
0000
,
0001
0000
0000
0000
,
1000
0000
0100
0000
,
1000
0000
0001
0000
,
2002
0000
0000
0000
0000
3000
0000
0003
,
0000
0000
0000
0000
,
0000
0000
0000
0000
,
0000
0000
0000
0000
,
1000
1000
1000
0000
,
0001
0001
0001
0000
,
0100
0010
0100
0000
,
0220
0000
0330
0000
,
1000
0000
0010
0000
,
1000
0000
0100
0000
,
1000
0000
0001
0000
,
1000
0010
1000
0000
,
0001
0000
0010
0000
,
0001
0000
0100
0000
,
0002
0003
2000
3000
,
0200
0300
0020
0030
,
0001
0001
0010
0000
,
0001
0001
0100
0000
,
0001
0000
1000
0000
,
0001
0010
0001
0000
,
1000
1000
0010
0000
,
1000
1000
0100
0000
,
0020
0030
0002
0003
,
2000
3000
0020
0030
,
0200
0000
0300
0000
,
0020
0000
0030
0000
,
1000
0010
1000
0000
,
0001
0010
0001
0000
,
0020
0000
0030
0000
,
0200
0000
0300
0000
,
1000
0100
1000
0000
,
0001
0000
0001
0100
,
0010
0000
0000
0000
,
1000
0000
0000
0000
,
0001
0000
0000
0000
,
0010
0000
0000
0000
,
0100
0000
0000
0000
,
1000
0000
0000
0000
,
0001
0000
0000
0000
,
0200
0000
0000
0000
,
0300
0000
0000
0000
,
0220
0000
0330
0000
,
1000
0010
0100
0000
,
0001
0000
0001
0000
,
1000
0100
0010
0000
,
0100
0000
1000
1000
,
0001
0010
0100
0000
,
1000
0000
1000
0000
,
0001
0100
0010
0000
,
1000
0000
0001
0001
,
0002
0000
0003
0000
,
1000
0000
0100
0000
,
0010
0000
0001
0000
,
0100
0000
0010
0000
,
1000
0001
0010
0000
,
0100
0000
1000
0000
,
0001
1000
0010
0000
,
0100
0000
0001
1000
,
0001
0000
0001
0000
,
0010
0000
0010
0000
,
0001
0001
0100
0000
,
0010
0000
0100
0100
,
0001
0000
0001
0000
,
0010
0000
0100
0000
,
2000
0000
3000
0000
,
1000
0000
0001
0000
,
1000
0000
1000
0000
,
0010
0000
0010
0000
,
1000
1000
0100
0000
,
0010
0000
0100
0100
,
1000
0000
1000
0000
,
0010
0000
0100
0000
,
0001
0010
0100
0000
,
1000
0000
0001
0001
,
1000
1000
0010
0000
,
1000
1000
0100
0000
,
1000
0000
0001
0000
,
1000
0010
1000
0000
,
0001
0001
0010
0000
,
0001
0001
0100
0000
,
0020
0030
2000
3000
,
0002
0003
0020
0030
,
0100
0000
0000
0000
;
