#VERSION:0.83;
#TITLE:Empire State Glory;
#SUBTITLE:;
#ARTIST:Dirty Androids;
#TITLETRANSLIT:;
#SUBTITLETRANSLIT:;
#ARTISTTRANSLIT:;
#GENRE:Cyberpunk;
#ORIGIN:;
#CREDIT:;
#BANNER:Empire State Glory.png;
#BACKGROUND:Empire State Glory-bg.png;
#PREVIEWVID:;
#JACKET:Empire State Glory-jacket.png;
#CDIMAGE:;
#DISCIMAGE:;
#LYRICSPATH:;
#CDTITLE:cdtitle.png;
#MUSIC:Empire State Glory.ogg;
#OFFSET:-0.340390;
#SAMPLESTART:57.219002;
#SAMPLELENGTH:11.098263;
#SELECTABLE:YES;
#BPMS:0.000=86.500,
18.000=173.000,
114.000=86.500,
130.000=173.000;
#STOPS:;
#DELAYS:;
#WARPS:;
#TIMESIGNATURES:0.000=4=4;
#TICKCOUNTS:0.000=4;
#COMBOS:0.000=1;
#SPEEDS:0.000=1.000=0.000=0;
#SCROLLS:0.000=1.000;
#FAKES:;
#LABELS:0.000=Song Start;
#BGCHANGES:;
#KEYSOUNDS:;
#ATTACKS:
;

//---------------dance-single - ----------------
#NOTEDATA:;
#CHARTNAME:;
#STEPSTYPE:dance-single;
#DESCRIPTION:;
#CHARTSTYLE:;
#DIFFICULTY:Challenge;
#METER:16;
#RADARVALUES:0.834469,0.863526,0.315054,0.613079,0.698229,686.000000,649.000000,37.000000,72.000000,0.000000,0.000000,0.000000,0.000000,0.000000,0.834469,0.863526,0.315054,0.613079,0.698229,686.000000,649.000000,37.000000,72.000000,0.000000,0.000000,0.000000,0.000000,0.000000;
#CREDIT:;
#DISPLAYBPM:87.000000:173.000000;
#NOTES:
// measure 0
0000
0000
0000
0000
,  // measure 1
0000
0000
0000
0000
,  // measure 2
1000
0100
0010
0000
0100
0010
0010
0001
0000
0100
0010
0000
0100
0010
1000
0000
,  // measure 3
0001
0000
0010
0000
0001
0000
1000
0000
0010
0000
1000
0000
0001
0000
0010
0000
0000
0000
0100
0010
0100
0000
0000
1000
0000
0000
0001
0000
0000
0000
2002
0000
,  // measure 4
0000
0000
0000
0000
0000
3003
0000
0000
1000
0000
0001
0000
0100
0000
0001
0000
,  // measure 5
1000
0001
0010
0001
0100
0001
1000
0001
,  // measure 6
0010
0001
0100
0100
0001
1000
0100
1000
,  // measure 7
0001
1000
0010
1000
0100
1000
0001
1000
,  // measure 8
0010
1000
0100
0100
0010
0001
1000
0010
,  // measure 9
1000
0001
0010
1000
0010
0001
1000
0010
,  // measure 10
0001
0010
1000
1000
0001
0001
1000
1000
,  // measure 11
0001
0000
0001
0000
1000
0000
0002
0000
0000
0010
0000
0000
2003
0000
0000
0010
,  // measure 12
0000
0000
3002
0000
0000
0000
0013
0001
0100
0000
0000
0000
0001
0100
0010
0000
,  // measure 13
0100
0010
1000
0000
1010
0000
0000
0000
0001
0000
0001
0000
0100
0010
1000
0000
,  // measure 14
0001
0000
0100
0000
1000
0000
0100
0000
0001
0000
0000
0000
1000
0100
0010
0000
,  // measure 15
0100
0010
0001
0000
0011
0000
0000
0000
1000
0000
1000
0000
0100
0010
0001
0000
,  // measure 16
1000
0100
0001
0200
2300
3002
2003
0000
,  // measure 17
0010
0000
0010
0000
0000
0000
0010
0000
0010
0000
0000
0000
3001
1000
0010
0000
,  // measure 18
0000
1010
0000
2000
3020
2030
3002
0000
,  // measure 19
0010
0000
0010
0000
0000
0000
0010
0000
0010
0000
0000
1003
0100
0000
0010
0000
,  // measure 20
0000
0100
0010
0000
2002
0000
3003
0000
0001
0000
0001
0000
0100
0000
0001
0100
,  // measure 21
0010
0000
1010
0000
0000
0000
0001
0000
1000
0000
1000
0000
0100
0000
1000
0100
,  // measure 22
0010
0000
0011
0000
0000
0000
1000
0000
0001
0000
0001
0000
0100
0000
0001
0100
,  // measure 23
0010
0000
1010
0000
0000
0000
0001
0000
1000
0000
1000
0000
0100
0000
0010
0001
,  // measure 24
1000
0001
0100
0000
0010
0000
0200
0000
0302
0000
2003
0000
3002
0000
0000
0000
,  // measure 25
0010
0000
0010
0000
0000
0000
0010
0000
0010
0000
0000
0000
1003
0001
0010
0000
,  // measure 26
0000
0011
0000
1000
0010
0010
0100
0100
,  // measure 27
0001
0000
0001
0000
1000
0000
1000
0000
0100
0010
0100
0010
0001
1000
0001
1000
,  // measure 28
0010
0000
0100
0000
0001
0000
0000
0000
2002
0000
3003
0000
0001
0002
0000
0010
,  // measure 29
0023
0000
0100
0230
0000
1000
2300
0000
0010
3020
0000
0100
0230
0000
0001
0302
,  // measure 30
0000
0000
1000
0000
2003
0000
0000
0000
3001
1000
0001
0000
1000
0000
0000
0000
0001
0000
0010
0000
0100
0000
0010
0000
0001
0000
0000
0000
0011
0000
0000
0000
,  // measure 31
1000
0010
0100
0010
1000
0000
0001
0010
1000
0010
0001
0000
1000
0010
0001
0010
,  // measure 32
1000
0000
0000
0000
0002
0000
0003
2000
0000
3000
0200
0000
0300
0000
0000
0000
1000
0000
0000
0000
0100
0000
0010
0000
0001
0000
0000
0000
0000
0000
0000
0000
,  // measure 33
0010
0000
0011
0000
1000
0001
1000
0000
0001
0000
0100
0010
1000
0000
0000
0000
,  // measure 34
0010
0000
1010
0000
0001
1000
0001
0000
1000
0000
0100
0010
0001
0000
0000
0000
,  // measure 35
0010
0000
0011
0000
1000
0001
1000
0000
0001
0000
0100
0010
1000
0000
0000
0000
,  // measure 36
1000
0000
0010
1000
0001
1000
0100
0000
0010
0000
0100
2000
0001
0000
0000
0000
,  // measure 37
3010
0000
1010
0000
1000
0010
1000
0000
0010
0000
0100
0002
1000
0000
0000
0000
,  // measure 38
0013
0000
0011
0000
0001
0010
0001
0000
0010
0000
0100
2000
0001
0000
0000
0000
,  // measure 39
3010
0000
1010
0000
1000
0010
1000
0000
0010
0000
0100
0002
1000
0000
0000
0000
,  // measure 40
1003
0100
0010
0001
1000
0001
0100
0010
1000
0000
1000
0000
0010
0000
0100
0010
,  // measure 41
0100
0000
0010
0000
1000
0000
0010
0000
0021
0000
0000
0000
0230
0300
0020
0030
,  // measure 42
2000
3000
0002
0003
0020
0030
0000
0000
0001
0000
0001
0000
0010
0000
0100
0010
,  // measure 43
0100
0000
0010
0000
0001
0000
0010
0000
1020
0000
0000
0130
0010
0000
0012
0003
,  // measure 44
0000
0100
0010
0000
2010
3000
0001
0000
1000
0000
1000
0000
0100
0000
0010
0001
,  // measure 45
1000
0000
0001
0000
0100
0000
0010
0000
2000
3002
0023
0032
2003
3002
0203
0302
,  // measure 46
2003
3000
0002
0003
0020
0030
0001
0000
1001
0000
0001
0100
0000
0100
0010
0000
,  // measure 47
1000
0100
0000
0100
0010
0000
0002
2003
3002
0003
0200
0300
0020
0030
2000
3000
,  // measure 48
2002
0000
0000
0000
3003
0000
0000
0000
1000
0000
0100
0000
0010
0000
0100
1000
,  // measure 49
0001
1000
0010
0000
0100
0000
1000
0000
0100
0000
0010
0000
1000
0000
0100
0010
,  // measure 50
0001
0000
0010
0000
0011
0000
0000
0000
0001
0000
0100
0000
0010
0000
0100
0001
,  // measure 51
1000
0001
0010
0000
0100
0000
0001
0000
0100
0000
0010
0000
0001
0000
0100
0010
,  // measure 52
1000
0000
0010
0000
1010
0000
0000
0000
0001
0000
0010
0000
0100
0000
0010
0001
,  // measure 53
1000
0001
0100
0000
0010
0000
0100
0000
1000
0000
0100
0000
0001
0000
1000
0001
,  // measure 54
1000
0100
0001
0100
0010
0010
0001
0001
,  // measure 55
1000
0000
1000
0000
0010
0000
0010
0000
0100
0001
0100
0001
1000
0100
1000
0100
,  // measure 56
0010
0001
0010
0001
0100
0000
0000
0000
0001
0100
0001
0100
0010
0000
0000
0000
,  // measure 57
0100
0000
0101
0000
1000
0001
1000
0000
0001
0010
0001
0010
0100
0000
0000
0000
,  // measure 58
0010
0000
0011
0000
1000
0001
1000
0000
0001
0100
0001
0100
0010
0000
0000
0000
,  // measure 59
0100
0000
0101
0000
1000
0001
1000
0000
0001
0010
0001
0010
0100
1000
0000
0100
,  // measure 60
1000
0000
0001
0100
0010
1000
0001
0000
0010
0001
1000
0002
0100
0000
0000
0000
,  // measure 61
1003
0000
1001
0000
1000
0001
1000
0000
0010
1000
0001
2000
0100
0000
0000
0000
,  // measure 62
3001
0000
1001
0000
0001
1000
0001
0000
0010
0001
1000
0002
0100
0000
0000
0000
,  // measure 63
1003
0000
1001
0000
1000
0001
1000
0000
0010
1000
0001
2000
0100
0000
0000
3001
,  // measure 64
0100
0000
0010
0000
1000
0010
0100
0001
1000
0100
1000
0100
0010
0000
0000
0000
,  // measure 65
0100
0000
1100
0000
0001
1000
0001
0000
1000
0010
1000
0010
0100
0000
0000
0000
,  // measure 66
0010
0000
1010
0000
0001
1000
0001
0000
1000
0100
1000
0100
0010
0000
0000
0000
,  // measure 67
0100
0000
1100
0000
0001
1000
0001
0000
1000
0010
1000
0010
0100
0001
0000
0100
,  // measure 68
0001
0000
1000
0100
0010
0001
1000
0000
0010
1000
0100
2000
0010
0000
0000
0000
,  // measure 69
3001
0000
1001
0000
0001
1000
0001
0000
0010
0001
0100
0002
0010
0000
0000
0000
,  // measure 70
1003
0000
1001
0000
1000
0001
1000
0000
0010
1000
0100
2000
0010
0000
0000
0000
,  // measure 71
3001
0000
1001
0000
0001
1000
0001
0000
0010
0001
0100
0002
0010
0000
0000
0000
,  // measure 72
1003
0010
0100
0001
1000
0100
0010
0001
0000
0000
0000
0000
0000
0000
0000
0000
;

//---------------dance-single - ----------------
#NOTEDATA:;
#CHARTNAME:;
#STEPSTYPE:dance-single;
#DESCRIPTION:;
#CHARTSTYLE:;
#DIFFICULTY:Hard;
#METER:14;
#RADARVALUES:0.679982,0.802537,0.332084,0.672684,0.272480,559.000000,520.000000,39.000000,79.000000,0.000000,0.000000,0.000000,0.000000,0.000000,0.679982,0.802537,0.332084,0.672684,0.272480,559.000000,520.000000,39.000000,79.000000,0.000000,0.000000,0.000000,0.000000,0.000000;
#CREDIT:;
#DISPLAYBPM:87.000000:173.000000;
#NOTES:
// measure 0
0000
0000
0000
0000
,  // measure 1
0000
0000
0000
0000
,  // measure 2
1000
0000
0100
0000
0010
0000
0000
0001
0000
0000
0100
0000
0010
0000
1000
0000
,  // measure 3
0001
0000
0000
0000
0010
0000
0000
0000
0100
0000
0000
0000
0000
0000
1000
0000
0000
0000
0000
0000
0010
0000
0000
0100
0000
0000
0002
0000
0000
0000
2000
0000
,  // measure 4
0000
0000
3003
0000
0001
0000
1000
0001
,  // measure 5
0100
0000
1001
0000
1000
0001
0010
0000
,  // measure 6
1001
0000
1000
0001
0100
0000
0001
1000
,  // measure 7
0100
0000
1001
0000
0001
1000
0010
0000
,  // measure 8
1001
0000
0001
1000
0100
0000
0010
0001
,  // measure 9
0100
0000
1001
0000
0010
1000
0100
0000
,  // measure 10
1001
0000
0001
0100
0010
1000
0010
1000
,  // measure 11
0010
0000
1000
0000
0010
0000
2000
0000
0000
0010
0000
0000
3002
0000
0000
0010
,  // measure 12
0000
1003
0000
1002
0103
0000
0001
0100
,  // measure 13
0010
1000
0001
0000
0001
0100
0010
1000
,  // measure 14
0001
0001
1001
0000
1000
0000
1000
0100
,  // measure 15
0010
0001
1000
0000
1000
0100
0010
0001
,  // measure 16
1000
1000
0001
0100
0010
1000
2000
0000
,  // measure 17
0001
3002
0000
1000
2003
0000
0100
3100
,  // measure 18
0000
1001
0000
1000
0010
0100
0200
0000
,  // measure 19
0001
0000
0302
0000
0000
0000
1000
0000
2003
0000
0000
3100
0010
0000
0001
0000
,  // measure 20
0000
0100
0010
0000
1000
0000
0001
0000
1000
0000
0100
0000
1000
0000
0100
0000
,  // measure 21
0010
0011
0000
1000
0001
0100
0001
0100
,  // measure 22
0010
1010
0000
0001
1000
0100
1000
0100
,  // measure 23
0010
0011
0000
1000
0001
0100
0010
0100
,  // measure 24
0001
0001
1000
0100
0010
0001
0002
0000
,  // measure 25
1000
2003
0000
0001
3002
0000
0100
0103
,  // measure 26
0000
1001
0000
0001
1000
0100
0010
0100
,  // measure 27
1000
0001
0100
0010
0200
0302
2003
3002
,  // measure 28
0013
0000
0100
0000
1000
0000
0000
0000
2002
0000
3003
0000
0000
0002
0000
0000
,  // measure 29
0203
0000
0000
0320
0000
0000
2030
0000
0000
3200
0000
0000
0320
0000
0000
0032
,  // measure 30
0000
0000
2003
0000
3010
0100
0001
0000
1000
0100
1000
0100
0010
0000
0001
0000
,  // measure 31
1000
0010
1000
0010
0100
0000
0001
0010
0001
0010
0100
0000
1000
0010
1000
0010
,  // measure 32
0100
0000
0000
0000
0002
0000
0003
2000
0000
3000
0200
0000
0300
0000
0000
0000
1000
0000
0000
0000
0010
0000
0000
0000
0110
0000
0000
0000
0000
0000
0000
0000
,  // measure 33
0010
0100
0001
1000
0001
0010
0110
0000
,  // measure 34
0010
0100
1000
0001
1000
0010
0110
0000
,  // measure 35
0010
0100
0001
1000
0001
0010
0110
0000
,  // measure 36
0010
0002
2003
3002
0103
0010
1010
0000
,  // measure 37
1000
0000
0010
0000
1000
0001
1000
0000
0100
0000
0010
0000
0011
0000
0000
0000
,  // measure 38
0001
0000
0010
0000
0001
1000
0001
0000
0100
0000
0010
0000
1010
0000
0000
0000
,  // measure 39
1000
0000
0010
0000
1000
0001
1000
0000
0100
0000
0010
0000
0011
0000
0000
0000
,  // measure 40
2000
3020
0230
0302
1003
1000
0001
0010
,  // measure 41
0010
0001
1000
0001
0102
0003
0200
0302
,  // measure 42
2003
3002
0023
0030
0001
0001
1000
0010
,  // measure 43
0010
0000
1000
0000
0001
0000
1000
0000
2100
0000
3000
0001
0010
0000
0002
0000
,  // measure 44
0003
1000
0010
0000
2000
0000
3000
0000
0001
0000
0001
0000
0010
0000
0001
0000
,  // measure 45
0001
1000
0001
0100
0002
0023
0032
0023
,  // measure 46
2030
0000
3020
0000
0032
0000
1003
0000
1010
0000
0000
0001
0000
0000
0011
0000
,  // measure 47
0000
1000
0000
0000
1010
0000
2000
0000
3020
0000
0032
0000
0023
0000
2030
0000
,  // measure 48
0002
0000
3003
0000
2001
0000
3100
0010
,  // measure 49
1000
0000
0010
0000
0001
0000
0000
0000
1000
0000
0100
0000
0010
0000
0001
1000
,  // measure 50
0001
0100
0010
1000
1002
0000
0103
0010
,  // measure 51
0001
0000
0010
0000
1000
0000
0000
0000
0001
0000
0100
0000
0010
0000
1000
0001
,  // measure 52
1000
0100
0010
0001
1002
0000
0013
0100
,  // measure 53
0001
0100
2000
0000
3010
0100
1000
0100
,  // measure 54
0001
1000
0100
0010
0001
0001
1000
1000
,  // measure 55
0001
0001
1000
1000
0002
0203
0302
0203
,  // measure 56
0320
0000
1030
0001
0010
0000
0000
0000
0001
0000
0010
0000
0110
0000
0000
0000
,  // measure 57
0010
0000
0001
0000
1000
0001
1000
0000
0001
0000
0100
0000
0110
0000
0000
0000
,  // measure 58
0100
0000
0001
0000
1000
0001
1000
0000
0001
0000
0010
0000
0110
0000
0000
0000
,  // measure 59
0010
0000
0001
0000
1000
0001
1000
0000
0001
0000
0100
0000
0110
0000
0000
0000
,  // measure 60
0010
0000
2000
0000
3002
0000
2003
0000
3100
0000
0010
0000
0001
1000
0000
1000
,  // measure 61
0001
0000
0100
0000
0001
0100
0001
0000
0100
0000
0010
0000
1000
0001
0000
0001
,  // measure 62
1000
0000
0100
0000
1000
0100
1000
0000
0100
0000
0010
0000
0001
1000
0000
1000
,  // measure 63
0001
0000
0100
0000
0001
0100
0001
0000
0100
0000
0010
0000
1000
0001
0000
1000
,  // measure 64
0100
0000
0110
0000
0000
0001
1000
0001
1000
0000
0010
0000
0110
0000
0000
0000
,  // measure 65
0010
0000
1000
0000
0001
1000
0001
0000
1000
0000
0100
0000
0110
0000
0000
0000
,  // measure 66
0100
0000
1000
0000
0001
1000
0001
0000
1000
0000
0010
0000
0110
0000
0000
0000
,  // measure 67
0010
0000
1000
0000
0001
1000
0001
0000
1000
0000
0100
0000
0110
0000
0000
0000
,  // measure 68
0010
0000
0002
0000
2003
0000
3002
0000
0103
0000
0010
0000
1000
0001
0000
0001
,  // measure 69
0010
0000
0100
0000
1000
0001
1000
0000
0100
0000
0010
0000
0001
1000
0000
1000
,  // measure 70
0010
0000
0100
0000
0001
1000
0001
0000
0100
0000
0010
0000
1000
0001
0000
0001
,  // measure 71
0010
0000
0100
0000
1000
0001
1000
0000
0100
0000
0010
0000
0001
1000
0000
0001
,  // measure 72
0200
0320
0230
2300
3000
0000
0000
0000
;

//---------------dance-single - ----------------
#NOTEDATA:;
#CHARTNAME:;
#STEPSTYPE:dance-single;
#DESCRIPTION:;
#CHARTSTYLE:;
#DIFFICULTY:Medium;
#METER:10;
#RADARVALUES:0.461026,0.555124,0.332084,0.349114,0.034060,379.000000,340.000000,39.000000,41.000000,0.000000,0.000000,0.000000,0.000000,0.000000,0.461026,0.555124,0.332084,0.349114,0.034060,379.000000,340.000000,39.000000,41.000000,0.000000,0.000000,0.000000,0.000000,0.000000;
#CREDIT:;
#DISPLAYBPM:87.000000:173.000000;
#NOTES:
// measure 0
0000
0000
0000
0000
,  // measure 1
0000
0000
0000
0000
,  // measure 2
1000
0000
0000
0100
0000
0000
0010
0000
0000
0001
0000
0000
0100
0000
0000
0010
,  // measure 3
0000
0000
1000
0000
0000
0001
0000
0000
0010
0000
0000
0100
0000
0000
2000
0000
,  // measure 4
0000
0000
0000
0000
0000
3000
0000
0000
0001
0000
0000
0000
0001
0000
0000
0000
,  // measure 5
0001
0100
0010
0010
,  // measure 6
0100
0001
1000
1000
,  // measure 7
1000
0100
0010
0010
,  // measure 8
0100
1000
0001
0001
,  // measure 9
0100
0010
1000
0100
,  // measure 10
0010
0001
1000
0001
,  // measure 11
1000
0001
2002
0000
,  // measure 12
0000
0000
3003
0000
0001
0000
1000
0010
,  // measure 13
0100
0000
0010
0000
0100
0010
1000
0000
,  // measure 14
0001
1000
0001
0000
1000
0000
0001
0010
,  // measure 15
0100
0000
0010
0000
0100
0010
0001
0000
,  // measure 16
1000
0001
1000
0000
0002
0000
0203
0000
,  // measure 17
0310
1000
0000
0010
1000
0000
0010
1000
,  // measure 18
0000
1020
0000
0000
2030
0000
3200
0000
,  // measure 19
0310
0001
0000
0010
0001
0000
0010
0001
,  // measure 20
0000
0001
2000
0000
3001
0100
0010
0000
,  // measure 21
1000
0000
1010
0000
1000
0100
0010
0000
,  // measure 22
0001
0000
0011
0000
0001
0100
0010
0000
,  // measure 23
1000
0000
1010
0000
1000
0100
0010
0000
,  // measure 24
0001
1000
0001
0000
2000
0000
3020
0000
,  // measure 25
0130
0001
0000
1000
0100
0000
0010
0001
,  // measure 26
0000
1000
0010
0000
0100
0000
0100
0000
,  // measure 27
0010
0000
0010
0000
1000
0001
1000
0001
,  // measure 28
1000
1001
0002
0023
,  // measure 29
0230
0000
0000
2300
0000
0000
3020
0000
0000
0230
0000
0000
0302
0000
0000
0023
,  // measure 30
0000
0230
2300
3002
0103
0010
1000
1000
,  // measure 31
0100
0010
0001
0001
0010
0100
1000
0001
,  // measure 32
1000
2002
0000
3003
1000
0010
0100
0000
,  // measure 33
0000
0010
1000
0000
0001
0010
0100
0000
,  // measure 34
0000
0010
0001
0000
1000
0010
0100
0000
,  // measure 35
0000
0010
1000
0000
0001
0010
0100
0000
,  // measure 36
0010
0000
0001
0000
1000
0001
0100
0000
,  // measure 37
0000
0010
1010
0000
0001
1000
0100
0000
,  // measure 38
0000
0010
0011
0000
1000
0001
0100
0000
,  // measure 39
0000
0010
1010
0000
0001
1000
0100
0000
,  // measure 40
0220
0000
0330
0000
1001
0000
0001
0100
,  // measure 41
0001
0100
0010
0000
2010
0000
0000
0000
,  // measure 42
0010
0000
3001
0000
1001
0000
1000
0100
,  // measure 43
1000
0100
0010
0000
0012
0000
0000
0010
,  // measure 44
0000
0000
1003
0000
1001
0000
0001
0100
,  // measure 45
0010
1000
0001
0000
0020
0000
0000
0000
,  // measure 46
0130
0010
0001
0000
2002
0000
0000
0000
,  // measure 47
3003
0000
1001
0000
1000
0010
0100
0001
,  // measure 48
2000
0000
3000
0000
0002
0000
1003
0100
,  // measure 49
0001
0000
1100
0000
0011
0000
0010
0100
,  // measure 50
1000
0000
0001
0000
0200
0000
0301
0100
,  // measure 51
1000
0000
0101
0000
1010
0000
0010
0100
,  // measure 52
0001
0000
1000
0000
0200
0000
0301
0100
,  // measure 53
1000
0000
0110
0000
1001
0000
0001
0100
,  // measure 54
1000
0100
0001
0001
,  // measure 55
1000
1000
0002
2003
,  // measure 56
3001
1000
1001
0000
0001
0010
0100
0000
,  // measure 57
0000
0010
0011
0000
0001
0100
0010
0000
,  // measure 58
0000
0100
0101
0000
0001
0010
0100
0000
,  // measure 59
0000
0010
0011
0000
0001
0100
0010
0000
,  // measure 60
0100
0010
1000
0000
0001
1000
0100
0000
,  // measure 61
0000
0010
1001
0000
1000
0001
0100
0000
,  // measure 62
0000
0010
1001
0000
0001
1000
0100
0000
,  // measure 63
0000
0010
1001
0000
1000
0001
0100
0000
,  // measure 64
0220
0000
0330
0000
1000
0010
0100
0000
,  // measure 65
0000
0010
1010
0000
1000
0100
0010
0000
,  // measure 66
0000
0100
1100
0000
1000
0010
0100
0000
,  // measure 67
0000
0010
1010
0000
1000
0100
0010
0000
,  // measure 68
0100
0010
0001
0000
1000
0010
0100
0000
,  // measure 69
0000
0100
1010
0000
0001
0010
0100
0000
,  // measure 70
0000
0100
0011
0000
1000
0010
0100
0000
,  // measure 71
0000
0100
1010
0000
0001
0010
0100
0000
,  // measure 72
0220
0000
0000
0000
0000
0000
0000
0330
0000
0000
0000
0000
0000
0000
0000
0000
;

//---------------dance-single - ----------------
#NOTEDATA:;
#CHARTNAME:;
#STEPSTYPE:dance-single;
#DESCRIPTION:;
#CHARTSTYLE:;
#DIFFICULTY:Easy;
#METER:6;
#RADARVALUES:0.290726,0.308402,0.255450,0.349114,0.000000,239.000000,209.000000,30.000000,41.000000,0.000000,0.000000,0.000000,0.000000,0.000000,0.290726,0.308402,0.255450,0.349114,0.000000,239.000000,209.000000,30.000000,41.000000,0.000000,0.000000,0.000000,0.000000,0.000000;
#CREDIT:;
#DISPLAYBPM:87.000000:173.000000;
#NOTES:
// measure 0
0000
0000
0000
0000
,  // measure 1
0000
0000
0000
0000
,  // measure 2
1000
0100
0010
0001
,  // measure 3
1000
0010
0100
0001
,  // measure 4
0020
0000
0000
0000
0000
0030
0000
0000
0001
0000
0000
0000
0000
0000
0000
0000
,  // measure 5
0010
0100
0000
0010
,  // measure 6
0100
0000
1000
0000
,  // measure 7
0010
0100
0000
0010
,  // measure 8
0100
0000
0001
0000
,  // measure 9
1000
0100
0000
0010
,  // measure 10
0001
0000
1000
0001
,  // measure 11
1000
0001
2002
0000
,  // measure 12
0000
3003
1000
0000
,  // measure 13
0010
0000
1000
0010
,  // measure 14
0100
0001
0001
0000
,  // measure 15
0010
0000
0001
0010
,  // measure 16
0100
1000
2000
0000
,  // measure 17
0010
0000
0010
0010
,  // measure 18
3001
0000
0002
0000
,  // measure 19
0010
0000
1003
0001
,  // measure 20
1001
0000
0001
0001
,  // measure 21
0101
0000
1000
1000
,  // measure 22
1100
0000
0001
0001
,  // measure 23
0011
0000
1000
1000
,  // measure 24
1010
0000
0002
0000
,  // measure 25
0010
0000
0010
0010
,  // measure 26
1003
0000
1000
1000
,  // measure 27
0001
0001
0100
0010
,  // measure 28
1000
0000
0002
0003
,  // measure 29
0020
0030
0200
0300
,  // measure 30
2000
3000
0001
0100
,  // measure 31
0010
1000
0100
0010
,  // measure 32
0002
0000
1003
1020
,  // measure 33
0030
1000
0001
0021
,  // measure 34
0030
0001
1000
1020
,  // measure 35
0030
1000
0002
0010
,  // measure 36
2003
0010
3100
0120
,  // measure 37
0030
0001
0100
0120
,  // measure 38
0030
1000
0100
0120
,  // measure 39
0030
0001
0100
0010
,  // measure 40
2002
3003
1000
0100
,  // measure 41
0010
0100
1000
0000
,  // measure 42
1100
0000
0001
0100
,  // measure 43
0010
0100
0001
0000
,  // measure 44
0101
0000
1000
0100
,  // measure 45
0010
0001
1000
0000
,  // measure 46
1001
0000
0001
0100
,  // measure 47
0010
1000
0002
0000
,  // measure 48
0003
0000
1000
0100
,  // measure 49
0001
0000
0001
0100
,  // measure 50
1000
0000
1000
0010
,  // measure 51
0001
0000
0001
0010
,  // measure 52
1000
0000
0001
0010
,  // measure 53
1000
0000
1000
0010
,  // measure 54
0001
0000
0001
0100
,  // measure 55
1000
0100
0002
0000
,  // measure 56
0003
1001
0001
0021
,  // measure 57
0030
0001
1000
1020
,  // measure 58
0030
1000
0001
0021
,  // measure 59
0030
0001
2000
0010
,  // measure 60
3002
0010
0103
0120
,  // measure 61
0030
1000
0100
0120
,  // measure 62
0030
0001
0100
0120
,  // measure 63
0030
1000
0100
0010
,  // measure 64
0001
1000
0001
2010
,  // measure 65
3000
0001
1000
0012
,  // measure 66
0003
1000
0001
2010
,  // measure 67
3000
0001
2000
0100
,  // measure 68
3002
0100
0013
2100
,  // measure 69
3000
1000
0010
0102
,  // measure 70
0003
0001
0010
2100
,  // measure 71
3000
1000
0010
0100
,  // measure 72
2002
0000
0000
0000
0000
0000
0000
3003
0000
0000
0000
0000
0000
0000
0000
0000
;

//---------------dance-single - ----------------
#NOTEDATA:;
#CHARTNAME:;
#STEPSTYPE:dance-single;
#DESCRIPTION:;
#CHARTSTYLE:;
#DIFFICULTY:Beginner;
#METER:3;
#RADARVALUES:0.172733,0.241214,0.017030,0.153270,0.000000,142.000000,140.000000,2.000000,18.000000,0.000000,0.000000,0.000000,0.000000,0.000000,0.172733,0.241214,0.017030,0.153270,0.000000,142.000000,140.000000,2.000000,18.000000,0.000000,0.000000,0.000000,0.000000,0.000000;
#CREDIT:;
#OFFSET:-0.340390;
#BPMS:0.000000=173.000000
;
#STOPS:;
#DELAYS:;
#WARPS:;
#TIMESIGNATURES:0.000000=4=4
;
#TICKCOUNTS:0.000000=4
;
#COMBOS:0.000000=1
;
#SPEEDS:0.000000=1.000000=0.000000=0
;
#SCROLLS:0.000000=1.000000
;
#FAKES:;
#LABELS:0.000000=Song Start
;
#DISPLAYBPM:87.000000:173.000000;
#NOTES:
// measure 0
0000
0000
0000
0000
,  // measure 1
0000
0000
0000
0000
,  // measure 2
0000
0000
0000
0000
,  // measure 3
0000
0000
0000
0000
,  // measure 4
1000
0000
0000
0000
,  // measure 5
0100
0000
0000
0000
,  // measure 6
0010
0000
0000
0000
,  // measure 7
0002
0000
0000
0000
0000
0000
0000
0003
,  // measure 8
0000
0000
0000
0000
,  // measure 9
1000
0000
0010
0000
,  // measure 10
1000
0000
0000
0000
,  // measure 11
0001
0000
0010
0000
,  // measure 12
0001
0000
0000
0000
,  // measure 13
1000
0000
0010
0000
,  // measure 14
0100
0000
0000
0000
,  // measure 15
0001
0000
0010
0000
,  // measure 16
0200
0000
0300
0000
,  // measure 17
1000
0000
1000
0000
,  // measure 18
1000
1000
1000
0000
,  // measure 19
0001
0000
0001
0000
,  // measure 20
0001
0001
0001
0000
,  // measure 21
0200
0000
0300
0000
,  // measure 22
0100
0000
0010
0000
,  // measure 23
0200
0000
0300
0000
,  // measure 24
0100
0000
0010
0000
,  // measure 25
1000
1000
1000
0000
,  // measure 26
0001
0001
0001
0000
,  // measure 27
1000
1000
1000
0000
,  // measure 28
0001
0001
0001
0000
,  // measure 29
0020
0000
0030
0000
,  // measure 30
0010
0000
0100
0000
,  // measure 31
0020
0000
0030
0000
,  // measure 32
0001
0000
1000
0000
,  // measure 33
0001
0000
0000
0000
,  // measure 34
0000
0000
0000
0000
,  // measure 35
0000
0000
0000
0000
,  // measure 36
0000
0000
0000
0000
,  // measure 37
0002
0000
0003
0000
,  // measure 38
0200
0000
0300
0000
,  // measure 39
0020
0000
0030
0000
,  // measure 40
2000
0000
3000
0000
,  // measure 41
0001
0000
0010
0000
,  // measure 42
0001
0000
0010
0000
,  // measure 43
0001
0000
0010
0000
,  // measure 44
0001
0000
0001
0001
,  // measure 45
1000
0000
0010
0000
,  // measure 46
1000
0000
0010
0000
,  // measure 47
1000
0000
0010
0000
,  // measure 48
1000
0000
1000
1000
,  // measure 49
0002
0000
0003
0000
,  // measure 50
0010
0010
0010
0000
,  // measure 51
2000
0000
3000
0000
,  // measure 52
0010
0010
0010
0000
,  // measure 53
0002
0000
0003
0000
,  // measure 54
1000
0000
0001
0000
,  // measure 55
2002
0000
3003
0000
,  // measure 56
0010
0010
0000
0000
,  // measure 57
1000
1000
1000
0000
,  // measure 58
0100
0000
0010
0000
,  // measure 59
0001
0001
0001
0000
,  // measure 60
0100
0000
0010
0000
,  // measure 61
1000
1000
1000
0000
,  // measure 62
0100
0000
0010
0000
,  // measure 63
0001
0000
1000
0000
,  // measure 64
0002
0000
0003
0000
,  // measure 65
1000
0000
0010
0000
,  // measure 66
1000
0000
0010
0000
,  // measure 67
1000
0000
0010
0000
,  // measure 68
1000
0000
1000
1000
,  // measure 69
0001
0000
0010
0000
,  // measure 70
0001
0000
0010
0000
,  // measure 71
0001
0000
0010
0000
,  // measure 72
0001
0000
0001
0001
,  // measure 73
1000
0000
0010
0000
,  // measure 74
0100
0000
0001
0000
,  // measure 75
0100
0000
0010
0000
,  // measure 76
1000
0000
1000
1000
,  // measure 77
0001
0000
0010
0000
,  // measure 78
0100
0000
1000
0000
,  // measure 79
0100
0000
0010
0000
,  // measure 80
0001
0000
0000
0000
0000
0000
0000
0000
2002
0000
0000
0000
0000
0000
0000
3003
;
