#VERSION:0.83;
#TITLE:Eira;
#SUBTITLE:;
#ARTIST:DJ TOTTO;
#TITLETRANSLIT:;
#SUBTITLETRANSLIT:;
#ARTISTTRANSLIT:;
#GENRE:Artcore;
#ORIGIN:;
#CREDIT:;
#BANNER:Eira.png;
#BACKGROUND:Eira-bg.png;
#PREVIEWVID:;
#JACKET:Eira-jacket.png;
#CDIMAGE:;
#DISCIMAGE:;
#LYRICSPATH:;
#CDTITLE:cdtitle.png;
#MUSIC:Eira.ogg;
#OFFSET:-0.244807;
#SAMPLESTART:20.889969;
#SAMPLELENGTH:10.302582;
#SELECTABLE:YES;
#BPMS:0.000=93.000,
16.000=186.000,
40.000=93.000,
43.250=186.000,
124.000=93.000,
132.000=186.000,
148.000=93.000,
172.000=186.000,
196.000=93.000,
200.000=186.000,
264.000=93.000,
272.000=186.000;
#STOPS:43.250=0.242;
#DELAYS:;
#WARPS:;
#TIMESIGNATURES:0.000=4=4;
#TICKCOUNTS:0.000=4;
#COMBOS:0.000=1;
#SPEEDS:0.000=1.000=0.000=0;
#SCROLLS:0.000=1.000;
#FAKES:;
#LABELS:0.000=Song Start;
#BGCHANGES:;
#KEYSOUNDS:;
#ATTACKS:
;

//---------------dance-single - ----------------
#NOTEDATA:;
#CHARTNAME:;
#STEPSTYPE:dance-single;
#DESCRIPTION:;
#CHARTSTYLE:;
#DIFFICULTY:Challenge;
#METER:18;
#RADARVALUES:0.988749,1.313472,0.715990,0.839437,1.197432,841.000000,754.000000,87.000000,102.000000,7.000000,0.000000,0.000000,0.000000,0.000000,0.988749,1.313472,0.715990,0.839437,1.197432,841.000000,754.000000,87.000000,102.000000,7.000000,0.000000,0.000000,0.000000,0.000000;
#CREDIT:;
#OFFSET:-0.244807;
#BPMS:0.000000=93.000000
,16.000000=186.000000
,40.000000=93.000000
,43.250000=186.000000
,124.000000=93.000000
,132.000000=186.000000
,148.000000=93.000000
,172.000000=186.000000
,196.000000=93.000000
,200.000000=186.000000
,264.000000=93.000000
,272.000000=186.000000
;
#STOPS:43.250000=0.241936
;
#DELAYS:;
#WARPS:;
#TIMESIGNATURES:0.000000=4=4
;
#TICKCOUNTS:0.000000=4
;
#COMBOS:0.000000=1
;
#SPEEDS:0.000000=1.000000=0.000000=0
;
#SCROLLS:0.000000=1.000000
;
#FAKES:;
#LABELS:0.000000=Song Start
;
#NOTES:
0000
0000
0000
0000
,
0000
0000
0000
0000
,
0000
0000
0000
0000
,
0000
0000
0000
0000
,
2000
3200
1300
0002
0203
0301
2000
3200
,
1300
0002
0203
0310
2000
3200
0310
0002
,
2003
3020
1030
0002
0023
0031
2000
3020
,
1030
0000
0000
0000
0000
0000
0000
0000
0002
0000
0000
0000
0000
0000
0000
0000
0013
0000
0000
0000
0000
0000
0000
0000
0100
0000
0000
0000
0000
0000
0000
0000
0002
0000
0000
0000
0000
0000
0000
0000
0203
0000
0000
0000
0000
0000
0000
0000
0320
0000
0000
0000
0000
0000
0000
0000
0032
0000
0000
0000
0000
0000
0000
0003
,
0011
2001
3010
1010
1002
0013
0011
2001
,
3010
0100
0001
1000
0100
0010
0100
0010
0001
0100
0010
1000
0100
0010
0001
0100
,
0020
0000
0000
0000
0000
0000
1030
0010
0100
0001
0100
0001
1000
0100
1000
0100
0010
0000
0100
1000
0001
0100
0010
0000
0110
0000
1001
0000
1000
0000
0001
0000
,
1000
0100
1000
0100
0010
0000
0100
0010
0100
0010
0001
0000
0010
0001
0100
0001
,
0010
0000
0001
0100
0020
0000
2000
0000
3030
0000
1010
0000
1001
0000
0000
0000
,
0001
0100
0001
1000
0100
0000
1000
0100
1000
0001
0100
0000
0010
1000
0001
0010
,
0100
0000
1000
0000
0010
0000
0100
0002
0000
1003
0100
0010
0001
0000
1000
0000
,
0001
0100
0001
0100
0010
0000
0100
0010
0100
0010
1000
0000
0010
1000
0100
1000
,
0010
0000
1000
0100
0020
0000
0002
0000
0033
0000
0011
0000
1001
0000
0000
0000
,
1000
0010
0100
0001
0000
0001
0010
0100
1000
0000
0001
0000
0100
0000
0010
0000
,
1000
0001
2000
0000
0000
0000
0100
0000
3100
0000
0010
0100
1000
0001
1000
0001
,
1000
0010
0100
0010
1000
0000
0010
1000
0100
1000
0010
0000
1000
0010
0100
0010
,
0001
0000
0010
0100
0020
0000
2000
0000
3030
0000
1010
0000
1001
0000
0000
0000
,
0001
0010
0100
0010
0001
0000
0010
0001
0100
0001
0010
0000
0001
0010
0100
0010
,
1000
0000
0010
0000
0100
0000
0010
0002
0000
0013
0001
1000
0001
0000
0100
0010
,
0200
0000
0000
0000
0310
0000
2001
0000
0000
0000
0010
0000
3010
0000
1000
0001
,
1000
0000
0100
0000
0001
0000
0100
1000
0000
1000
0010
0000
0001
0000
0010
0000
,
1000
0010
1000
0010
1000
0010
0100
0001
0010
0001
0010
0001
0010
0001
0100
0010
,
2000
0000
3000
0101
0000
0011
1100
0000
,
1010
0010
1001
0000
0011
0010
0010
1001
,
0000
0000
1010
0000
0001
0000
0011
0000
1000
0000
1010
0000
0000
0000
0001
0100
,
0010
0000
0010
0000
0101
0000
1001
0000
0011
0000
0000
0000
1000
0000
1000
0100
,
0010
0000
0010
0000
1100
0000
1001
0000
1010
0000
0000
0000
1000
0010
0100
0001
,
2000
0000
0000
0000
0010
0000
0000
0000
3100
0000
0000
0000
1000
0000
0100
0000
0001
0000
0000
0001
0000
0000
0001
0000
0100
1000
0001
1000
0100
0010
0001
1000
,
0010
0000
0100
0010
0100
0000
0110
0000
0000
0000
1010
0000
0000
0000
0001
0010
0001
0000
0000
0110
0000
0000
1001
0000
1000
0010
0100
0001
1000
0000
0100
0000
,
0011
1000
1100
0000
1010
0001
0001
0101
,
0000
0000
0011
0000
0100
0000
1010
0000
0100
0000
0011
0000
0000
0000
1000
0001
,
0100
0000
0101
0000
1010
0000
1100
0000
0011
0000
0000
0000
0001
0000
0001
1000
,
0100
0000
1100
0000
0011
0000
0101
0000
1010
0000
0000
0000
0001
0010
0100
1000
,
0002
0000
0000
0000
0010
0000
0000
0000
0103
0000
0000
0000
0001
0000
0100
0000
1000
0000
0000
1000
0000
0000
1000
0000
0100
0001
1000
0001
0100
0010
1000
0001
,
0010
0000
0100
0010
0100
0000
0110
0000
0000
0000
0011
0000
1000
0000
0010
0100
0010
0000
0000
1001
0000
0000
1001
0000
0001
0100
0010
1000
0001
1000
0100
0010
,
0002
0000
0010
0023
0000
0100
0230
0000
0301
0100
1000
0001
0010
0100
1000
0001
,
0200
0000
0000
0000
0010
0000
0320
0000
0000
0000
1000
0000
1030
0000
0000
0000
1001
0000
0000
0000
0000
0000
0001
0010
0001
0000
0000
0010
0000
0000
0100
0000
,
2000
0000
0010
3020
0000
0100
0230
0000
1300
0100
0001
1000
0010
0100
0001
1000
,
0002
0000
0000
0000
0010
0000
2003
0000
0000
0000
0010
0000
3001
0000
0020
0000
0100
0000
0100
0000
0100
0000
0100
0000
0100
0000
0130
0000
0010
0100
1000
0001
,
2000
3020
1030
0002
0023
0031
2000
3020
,
1030
0002
0023
0130
2000
3020
0130
0002
,
2003
3200
1300
0002
0203
0301
2000
3200
,
1300
0000
0000
0000
0000
0000
0000
0000
0002
0000
0000
0000
0000
0000
0000
0000
0103
0000
0000
0000
0000
0000
0000
0000
0010
0000
0000
0000
0000
0000
0000
0000
0002
0000
0000
0000
0000
0000
0000
0000
0023
0000
0000
0000
0000
0000
0000
0000
0230
0000
0000
0000
0000
0000
0000
0000
0302
0000
0000
0000
0000
0000
0000
0003
,
0101
2010
3001
1100
0012
1003
0101
1020
,
0130
0001
1000
0100
0010
0100
0010
0001
0100
0010
1000
0100
0010
0001
0100
0010
,
2000
0000
0000
0000
0000
0000
3001
0010
0100
1000
0100
1000
0001
0100
0001
0100
0010
0000
0100
0001
1000
0100
0010
0000
0001
0000
1000
0000
0010
0000
0100
0010
,
0100
0001
1000
0001
0010
0M00
0010
1000
0100
1000
0010
0M00
0010
0001
1000
0001
,
0100
0000
0010
0000
0001
0000
0010
0100
0000
0010
0100
0000
0001
0000
1000
0000
,
0100
1000
0001
1000
0100
00M0
0100
0001
1000
0001
0000
0001
0010
0M00
0010
0000
,
1000
0010
0100
0010
0001
0000
0010
0100
0001
1000
0100
0010
0100
0000
0010
0000
,
0001
0000
0010
0001
0100
0000
0202
0000
0303
0000
0001
0000
0100
0000
0010
0000
,
1000
0000
0010
1000
0100
0000
2200
0000
3300
0000
1001
0000
1000
0010
0100
0001
,
0010
0100
0010
0100
1000
0001
0100
0010
1000
0000
1010
0000
1001
0000
0011
0000
,
2002
0000
0000
0000
3003
0000
0001
0100
1000
0100
0001
0000
1000
0000
0001
1000
,
0100
1000
0001
1000
0010
0M00
0010
0001
0100
0001
0010
0M00
0010
1000
0001
1000
,
0100
0000
0010
0000
1000
0000
0010
0100
0000
0010
0100
0000
1000
0000
0001
0000
,
1000
0010
0100
0001
0010
0001
0100
0010
1000
0100
00M0
0100
0001
0000
1000
0100
,
0010
0000
0000
0011
0000
0000
1001
0000
0001
0100
0001
0100
0010
1000
0100
1000
,
0020
0000
0130
0010
0100
0000
2010
0000
3001
0100
0010
0000
1000
0000
0001
0000
,
0021
0000
0130
0010
0100
0000
0012
0000
1003
0100
0010
0000
0001
0100
0010
1000
,
0001
0010
0100
0010
1000
0010
0100
0010
0001
0100
0001
0100
1000
0100
1000
0100
,
0002
0000
0000
0000
0000
0000
1003
0100
0002
0000
0000
0000
0000
0000
0103
0000
,
0210
0000
0000
2000
0000
0000
3300
0000
2001
0000
0000
0020
0000
0000
3030
0000
,
0220
0000
0000
0000
0330
0000
0202
0000
0000
0000
0000
0000
0303
0000
0000
0000
2002
0000
0000
0000
3003
0000
0022
0000
0033
0010
0100
1000
0001
1000
0100
0010
,
0001
0100
0100
1000
0000
1000
0100
0100
0001
0000
0001
0100
0000
0101
0000
1001
,
0000
0000
1001
0000
0001
0010
0010
1000
0000
1001
0000
1001
0000
1000
0010
0000
,
1000
0100
0100
0001
0000
0001
0100
0100
1000
0000
1000
0100
0000
1100
0000
1001
,
0000
0000
1001
0000
1000
0010
0010
0001
0000
0001
0010
0100
0010
1000
0010
0100
,
0010
0001
0100
0010
0100
1000
0200
0000
0000
0000
0000
0000
0000
0000
0000
0000
,
0000
0000
0000
0000
,
0000
0000
0000
0000
,
0000
0000
0000
0000
,
0300
0000
0000
0000
;

//---------------dance-single - ----------------
#NOTEDATA:;
#CHARTNAME:;
#STEPSTYPE:dance-single;
#DESCRIPTION:;
#CHARTSTYLE:;
#DIFFICULTY:Hard;
#METER:15;
#RADARVALUES:0.758315,0.938194,0.403259,0.625463,0.695416,645.000000,596.000000,49.000000,76.000000,0.000000,0.000000,0.000000,0.000000,0.000000,0.758315,0.938194,0.403259,0.625463,0.695416,645.000000,596.000000,49.000000,76.000000,0.000000,0.000000,0.000000,0.000000,0.000000;
#CREDIT:;
#OFFSET:-0.244807;
#BPMS:0.000000=93.000000
,16.000000=186.000000
,40.000000=93.000000
,43.250000=186.000000
,124.000000=93.000000
,132.000000=186.000000
,148.000000=93.000000
,172.000000=186.000000
,196.000000=93.000000
,200.000000=186.000000
,264.000000=93.000000
,272.000000=186.000000
;
#STOPS:43.250000=0.241936
;
#DELAYS:;
#WARPS:;
#TIMESIGNATURES:0.000000=4=4
;
#TICKCOUNTS:0.000000=4
;
#COMBOS:0.000000=1
;
#SPEEDS:0.000000=1.000000=0.000000=0
;
#SCROLLS:0.000000=1.000000
;
#FAKES:;
#LABELS:0.000000=Song Start
;
#NOTES:
// measure 0
0000
0000
0000
0000
,  // measure 1
0000
0000
0000
0000
,  // measure 2
0000
0000
0000
0000
,  // measure 3
0000
0000
0000
0000
,  // measure 4
2000
0100
3000
0002
0100
0003
2000
0010
,  // measure 5
3000
0002
0010
0003
2000
0001
3000
1000
,  // measure 6
0002
0100
0003
2000
0100
3000
0002
0010
,  // measure 7
0003
1001
0000
1000
0010
0001
0010
1000
,  // measure 8
2001
0100
3000
1002
0100
0003
2001
0010
,  // measure 9
3000
1002
0010
0003
0012
1003
2010
3001
,  // measure 10
2001
0000
0000
0000
0000
0000
3001
0010
0001
0000
0010
0000
0100
0000
1000
0000
0001
0000
1000
0000
0100
0000
0010
0000
0011
0000
1001
0000
0000
0000
0000
0000
,  // measure 11
0001
0100
0001
0000
0100
0000
0010
0100
0010
0000
0100
0000
0010
1000
0001
0000
,  // measure 12
1000
0000
0001
1000
0100
0000
0020
0000
0000
0000
0001
0000
0031
0000
0000
0000
,  // measure 13
0001
0010
0001
0000
0100
0000
0010
1000
0010
0000
0100
0000
0001
1000
0100
0000
,  // measure 14
0010
0000
0001
0000
2000
0000
0000
3020
0000
0000
0130
0010
0100
0000
0001
0000
,  // measure 15
1000
0100
1000
0000
0100
0000
0010
0100
0010
0000
0100
0000
0010
0001
1000
0000
,  // measure 16
0001
0000
1000
0001
0100
0000
0020
0000
0000
0000
1000
0000
1030
0000
0000
0000
,  // measure 17
0001
0010
1000
0010
0001
0100
1000
0100
,  // measure 18
0220
0000
0000
0000
0330
0000
0001
0000
0001
0000
1000
0001
1000
0000
0001
0000
,  // measure 19
0010
0100
0010
0000
1000
0000
0010
0100
0010
0000
0001
0000
1000
0100
0010
0000
,  // measure 20
0001
0000
0100
0010
1000
0000
0002
0000
0000
0000
1000
0000
1003
0000
0000
0000
,  // measure 21
0010
0100
0010
0000
0001
0000
0010
0100
0010
0000
1000
0000
0001
0100
0010
0000
,  // measure 22
1000
0000
0100
0000
0020
0000
0000
0032
0000
0000
1003
0001
1000
0000
0010
0000
,  // measure 23
0220
0000
0000
0000
0330
0000
2002
0000
0000
0000
3003
0000
1000
0000
0001
1000
,  // measure 24
0001
0000
0010
0000
0100
0000
1000
0010
0000
0100
0001
0000
1000
0000
0100
0000
,  // measure 25
0010
0001
0010
0000
0001
0000
1000
0000
0010
1000
0010
0000
1000
0000
0001
0000
,  // measure 26
0020
0000
0000
0100
0000
0001
0031
0000
,  // measure 27
1000
1000
1010
0000
0001
0001
0001
0011
,  // measure 28
0000
0000
1000
0000
1000
0000
1000
0000
1010
0000
1001
0000
0000
0000
1000
0001
,  // measure 29
1000
0000
0100
0000
0001
0000
0100
0000
1100
0000
0000
0000
1000
0000
0001
1000
,  // measure 30
0001
0000
0100
0000
1000
0000
0100
0000
0101
0000
0000
0000
0001
1000
0001
1000
,  // measure 31
0002
0000
0000
0000
0000
0000
0000
0000
0013
0000
0000
0000
0100
0000
0010
0000
0000
0000
1001
0000
0000
0000
1000
0000
0010
0100
0010
0000
0100
0000
0001
0000
,  // measure 32
1000
0000
0100
0000
0001
0000
0200
0000
0000
0000
0001
0000
0000
0000
0010
0000
0000
0000
1300
0000
0000
0000
0001
1000
0001
0000
0100
0000
0010
0000
1000
0000
,  // measure 33
0001
0001
0011
0000
1000
1000
1000
1010
,  // measure 34
0000
0000
0001
0000
0001
0000
0001
0000
0011
0000
1001
0000
0000
0000
1000
0001
,  // measure 35
0100
0000
0010
0000
0001
0000
0010
0000
1010
0000
0000
0000
1000
0000
0001
1000
,  // measure 36
0100
0000
0010
0000
1000
0000
0010
0000
0011
0000
0000
0000
1000
0001
1000
0001
,  // measure 37
2000
0000
0000
0000
0000
0000
0000
0000
3010
0000
0000
0000
0100
0000
0010
0000
0000
0000
1001
0000
0000
0000
0001
0000
0010
0100
0010
0000
0100
0000
1000
0000
,  // measure 38
0001
0000
0100
0000
1000
0000
0200
0000
0000
0000
0310
0000
1000
0000
0001
0000
0000
0000
1001
0000
0000
0000
0001
0010
0100
0000
0010
0000
0100
0000
1000
0000
,  // measure 39
0001
0000
0100
0010
0000
0100
0010
0000
1000
0010
1000
0001
0010
0001
1000
0010
,  // measure 40
1000
0000
0000
0000
0001
0000
0010
0000
0000
0000
0001
0000
0010
0000
0000
0000
0100
0000
0000
0000
0000
0000
0100
0010
0100
0000
0000
1000
0000
0000
0001
0000
,  // measure 41
1000
0000
0010
0100
0000
0010
0100
0000
0001
0100
0001
1000
0100
1000
0001
0100
,  // measure 42
0001
0000
1000
0100
0000
1000
0100
0002
0000
0000
0000
0000
0003
0100
0010
0100
,  // measure 43
2000
0010
3000
0002
0010
0003
2000
0100
,  // measure 44
3000
0002
0100
0003
2000
0001
3000
1000
,  // measure 45
0002
0010
0003
2000
0010
3000
0002
0100
,  // measure 46
0003
1001
0000
1000
0100
0001
0100
1000
,  // measure 47
2010
0001
3000
0012
1000
0003
2100
0001
,  // measure 48
3000
0102
1000
0003
1002
0103
2001
3100
,  // measure 49
1002
0000
0000
0000
0000
0000
1003
0010
1000
0000
0010
0000
0100
0000
0001
0000
1000
0000
0001
0000
0100
0000
0010
0000
2000
0000
3200
0000
0320
0000
0032
0000
,  // measure 50
1003
0100
1000
0000
0100
0000
0010
0100
0010
0000
1000
0000
0010
0100
0010
0000
,  // measure 51
0001
0000
0100
0000
1000
0000
0100
0001
0000
1000
0010
0000
0100
0000
0001
0000
,  // measure 52
1000
0100
0010
0000
0001
0000
0010
0001
0100
0000
0001
0000
0100
0000
0010
0000
,  // measure 53
1000
0010
0100
0001
1000
0000
0100
0000
0010
0100
0010
0100
0010
0000
0001
0000
,  // measure 54
1000
0000
0001
1000
0010
0000
0220
0000
0330
0000
1000
0000
0010
0000
1000
0000
,  // measure 55
0001
0000
1000
0001
0010
0000
0220
0000
0330
0000
0001
0000
0010
0000
0001
0000
,  // measure 56
1000
0010
0100
0000
0001
0010
0100
0000
1000
0000
0001
0000
0100
0000
0010
0000
,  // measure 57
0220
0000
0000
0000
0330
0000
0001
1000
0001
0000
0010
0000
0100
0000
1000
0000
,  // measure 58
0001
0100
0001
0000
0100
0000
0010
0100
0010
0000
0001
0000
0010
0100
0010
0000
,  // measure 59
1000
0000
0100
0000
0001
0000
0100
1000
0000
0001
0010
0000
0100
0000
1000
0000
,  // measure 60
0001
0100
0010
0000
1000
0000
0001
0000
1000
0100
0010
0000
0001
0000
1000
0000
,  // measure 61
1010
0000
0000
0110
0000
0000
0101
0000
2002
0000
0000
0000
3003
0000
0001
1000
,  // measure 62
0001
0000
0010
0001
0100
0000
0001
0000
0100
0001
0010
0000
0001
0000
0001
0000
,  // measure 63
1000
0000
0010
1000
0100
0000
1000
0000
0100
1000
0010
0000
1000
0000
1000
0000
,  // measure 64
0001
0010
0001
0000
1000
0010
1000
0000
0001
0100
0010
1000
0001
0000
1000
0100
,  // measure 65
0020
0000
0000
0000
0000
0000
0031
0100
0020
0000
0000
0000
0000
0000
0130
0000
,  // measure 66
0120
0000
0000
2000
0000
0000
3030
0000
2001
0000
0000
0200
0000
0000
3300
0000
,  // measure 67
0220
0000
0330
0022
0000
0000
0033
0000
2002
0000
3003
0202
0000
0000
0303
0000
,  // measure 68
1000
0010
1000
0010
0000
1000
0010
1000
0010
0000
1000
0010
0000
0100
0000
0100
,  // measure 69
0000
0000
0100
0000
0010
1000
0010
1000
0000
0010
0000
0010
0000
0010
1000
0000
,  // measure 70
0001
0010
0001
0010
0000
0001
0010
0001
0010
0000
0001
0010
0000
0100
0000
0100
,  // measure 71
0000
0000
0100
0000
0010
0001
0010
0001
0000
0010
0000
0100
1000
0000
0001
0000
,  // measure 72
1000
0010
0100
0001
0100
0001
2000
0000
0000
0000
0000
0000
0000
0000
0000
0000
,  // measure 73
0000
0000
0000
0000
,  // measure 74
0000
0000
0000
0000
,  // measure 75
0000
0000
0000
0000
,  // measure 76
3000
0000
0000
0000
;

//---------------dance-single - ----------------
#NOTEDATA:;
#CHARTNAME:;
#STEPSTYPE:dance-single;
#DESCRIPTION:;
#CHARTSTYLE:;
#DIFFICULTY:Medium;
#METER:13;
#RADARVALUES:0.574909,0.656736,0.230434,0.526706,0.205744,489.000000,461.000000,28.000000,64.000000,0.000000,0.000000,0.000000,0.000000,0.000000,0.574909,0.656736,0.230434,0.526706,0.205744,489.000000,461.000000,28.000000,64.000000,0.000000,0.000000,0.000000,0.000000,0.000000;
#CREDIT:;
#OFFSET:-0.244807;
#BPMS:0.000000=93.000000
,16.000000=186.000000
,40.000000=93.000000
,43.250000=186.000000
,124.000000=93.000000
,132.000000=186.000000
,148.000000=93.000000
,172.000000=186.000000
,196.000000=93.000000
,200.000000=186.000000
,264.000000=93.000000
,272.000000=186.000000
;
#STOPS:43.250000=0.241936
;
#DELAYS:;
#WARPS:;
#TIMESIGNATURES:0.000000=4=4
;
#TICKCOUNTS:0.000000=4
;
#COMBOS:0.000000=1
;
#SPEEDS:0.000000=1.000000=0.000000=0
;
#SCROLLS:0.000000=1.000000
;
#FAKES:;
#LABELS:0.000000=Song Start
;
#NOTES:
0000
0000
0000
0000
,
0000
0000
0000
0000
,
0000
0000
0000
0000
,
0000
0000
0000
0000
,
1000
0100
0000
1000
0100
0000
0010
0001
,
0000
1000
0100
0000
0010
0001
0000
1000
,
0001
0100
0000
0001
0100
0000
0010
1000
,
0000
1001
0000
1000
0100
0010
0001
1000
,
0001
0100
0000
1000
0100
0000
0001
0010
,
0000
1000
0010
0000
0001
0100
0010
1000
,
0200
0000
0000
0310
0100
1000
0001
0000
0100
0010
2000
0000
0001
3001
0000
0000
,
1000
0100
1000
0001
0100
0001
1000
0010
,
1000
0001
0010
2000
0000
3010
0001
0000
,
1000
0010
0100
0001
0010
0100
1000
0001
,
0100
0000
1000
0000
0200
0000
0000
0302
0000
0000
1003
0000
0100
0000
0010
0000
,
0001
0100
0001
1000
0100
1000
0001
0010
,
0001
1000
0010
0002
0000
0013
1000
0000
,
0001
0010
0001
1000
0010
1000
0001
0010
,
0220
0000
0330
0100
0010
0100
1001
0000
,
1000
0010
0100
1000
0100
0010
1000
0100
,
0010
1000
0010
0002
0000
1000
1003
0000
,
0001
0010
0100
0001
0100
0010
0001
0100
,
0010
0000
0001
0000
0020
0000
0000
2030
0000
0000
3001
0000
1000
0000
0100
0000
,
0002
0000
0003
0220
0000
0000
0330
1000
,
0100
0000
0010
0000
0001
0000
0000
0100
0000
0000
0010
0000
1000
0000
0010
0000
,
0002
0000
0000
0013
2000
0000
0000
3010
,
2001
0000
0000
0100
0000
0001
3001
0000
,
1002
1000
1000
0000
0010
0010
0010
0010
,
0000
1000
1000
1000
1000
1000
0000
0103
,
0001
0100
0001
0100
1010
0000
1000
0100
,
1000
0100
1000
0100
0011
0000
1000
0001
,
0200
0000
0310
1000
0000
0010
1010
0001
,
1000
0100
1000
0200
0000
0320
0000
0032
0000
2003
0000
3001
0100
0010
1000
0000
,
2001
0001
0001
0000
0010
0010
0010
0010
,
0000
0001
0001
0001
0001
0001
0000
3100
,
0010
0001
1000
0100
0011
0000
0001
0100
,
0010
1000
0001
0100
1010
0000
0001
1000
,
0200
0000
0310
0001
0000
0010
0011
1000
,
0001
0100
0010
2000
0000
3100
0010
0002
0000
2003
0000
3010
0100
0010
0100
0000
,
0002
0000
2003
0000
3100
0010
0100
0010
,
0002
0000
0000
0000
0203
0000
0000
0000
0320
0000
0000
0100
0130
0000
0010
0000
,
2000
0000
3002
0000
0103
0010
0100
0010
,
2000
3200
0320
0000
,
0031
0100
0000
0001
0100
0000
0010
1000
,
0000
0001
0100
0000
0010
1000
0000
0001
,
1000
0100
0000
1000
0100
0000
0010
0001
,
0000
1001
0000
0001
0100
0010
1000
0001
,
1000
0100
0000
0001
0100
0000
1000
0010
,
0000
0001
0010
0000
1000
0100
0010
0001
,
0200
0000
0000
0310
0100
0001
1000
0000
0100
0010
0001
0000
1000
0010
0100
0001
,
1000
0100
0001
0100
0010
0001
0100
0010
,
0001
0000
1000
0000
0200
0000
0000
0302
0000
0000
1003
0000
0010
0000
0100
0000
,
0001
0010
0100
1000
0010
0100
0001
0010
,
1000
0010
0001
0100
1000
0100
0001
1000
,
0100
0010
0001
0012
0000
1003
1000
1000
,
0001
0100
0010
2010
0000
3001
0001
0001
,
0010
1000
0001
0100
1000
1000
0001
0001
,
2002
0000
3003
1000
0001
0100
0010
1000
,
0001
0100
1000
0100
0010
1000
0100
0010
,
1000
0000
0001
0000
0200
0000
0000
2300
0000
0000
3001
0000
0010
0000
0100
0000
,
1000
0010
0100
0001
0010
0100
1000
0010
,
0100
0000
0000
0100
0000
0000
0010
0000
2002
0000
0000
0000
3003
0000
0001
0000
,
0010
1000
0001
0100
0010
0001
1000
1000
,
0010
0001
1000
0100
0010
1000
0001
0001
,
0010
0100
0010
0100
1000
0001
0100
1000
,
1200
0000
0000
0010
0010
0000
0000
0301
,
0102
0000
0000
2000
0000
0000
3003
0000
2100
0000
0000
0002
0000
0000
3003
0000
,
2020
0000
3030
2002
0000
0000
3003
0000
0022
0000
0033
2002
0000
0000
3003
0000
,
1000
0000
0010
0000
0000
1000
0000
0010
0000
0000
1000
0010
0000
0100
0000
0100
,
0000
0000
1010
0000
0001
0000
0000
0001
0000
1000
0000
0001
0000
0000
1000
0000
,
0001
0000
0010
0000
0000
0001
0000
0010
0000
0000
0001
0010
0000
0100
0000
0100
,
0000
0000
0011
0000
1000
0000
0000
1000
0000
0001
0000
1000
0010
0000
1000
0000
,
0100
0010
0100
2002
0000
0000
0000
0000
,
0000
0000
0000
0000
,
0000
0000
0000
0000
,
0000
0000
0000
0000
,
3003
0000
0000
0000
;

//---------------dance-single - ----------------
#NOTEDATA:;
#CHARTNAME:;
#STEPSTYPE:dance-single;
#DESCRIPTION:;
#CHARTSTYLE:;
#DIFFICULTY:Easy;
#METER:10;
#RADARVALUES:0.365637,0.500370,0.205744,0.469097,0.057608,311.000000,286.000000,25.000000,57.000000,0.000000,0.000000,0.000000,0.000000,0.000000,0.365637,0.500370,0.205744,0.469097,0.057608,311.000000,286.000000,25.000000,57.000000,0.000000,0.000000,0.000000,0.000000,0.000000;
#CREDIT:;
#OFFSET:-0.244807;
#BPMS:0.000000=93.000000
,16.000000=186.000000
,40.000000=93.000000
,43.000000=186.000000
,124.000000=93.000000
,132.000000=186.000000
,148.000000=93.000000
,172.000000=186.000000
,196.000000=93.000000
,200.000000=186.000000
,264.000000=93.000000
,272.000000=186.000000
;
#STOPS:43.000000=0.322580
;
#DELAYS:;
#WARPS:;
#TIMESIGNATURES:0.000000=4=4
;
#TICKCOUNTS:0.000000=4
;
#COMBOS:0.000000=1
;
#SPEEDS:0.000000=1.000000=0.000000=0
;
#SCROLLS:0.000000=1.000000
;
#FAKES:;
#LABELS:0.000000=Song Start
;
#NOTES:
0000
0000
0000
0000
,
0000
0000
0000
0000
,
0000
0000
0000
0000
,
0000
0000
0000
0000
,
1000
0000
0000
1000
0000
0000
1000
0000
,
0000
0100
0000
0000
0010
0000
0000
0000
,
0001
0000
0000
0001
0000
0000
0100
0000
,
0000
0010
0000
0000
1000
0000
0001
0000
,
0011
0000
0000
1100
0000
0000
0011
0000
,
0000
1100
0000
0000
0001
0000
1000
0000
,
0020
0000
0030
0000
0010
0010
1001
0000
,
2000
0000
3100
0020
0000
0031
2000
0000
,
3100
0010
0001
0200
0000
0000
0310
0000
,
2000
0000
3001
0020
0000
0130
2000
0000
,
3001
0100
0010
0000
1000
0100
0010
0000
,
0002
0000
0103
0020
0000
1030
0002
0000
,
0103
0010
1000
0200
0000
0000
0310
0000
,
0001
1000
0010
0000
1000
0001
0010
0000
,
0220
0000
0330
0000
0010
0100
0010
0000
,
0002
0000
0103
0020
0000
0130
2000
0000
,
3100
0010
0100
0002
0000
0000
1003
0000
,
2000
0000
3100
0020
0000
0130
0002
0000
,
0103
0010
0100
0000
1000
0001
1000
0000
,
0020
0000
0000
0200
0000
0000
0330
0000
,
0010
1000
0100
0000
0010
0001
0100
0000
,
2002
0000
0000
3003
,
1001
0000
0000
0011
0000
0000
1100
0000
,
1002
0000
0000
0000
0100
0000
0000
0100
,
0000
1000
1000
0000
,
0013
0001
0010
0000
0011
0000
1000
0000
,
0010
1000
0010
0000
1010
0000
0000
0000
,
2001
0000
3100
0000
1000
0100
1000
0000
,
0001
0010
0100
1000
0001
0100
0010
1000
,
2001
0000
0000
0000
0100
0000
0000
0100
,
0000
0001
0001
0000
,
3001
0100
0010
0000
1010
0000
0001
0000
,
1000
0100
0010
0000
0011
0000
0000
0000
,
1002
0000
0103
0000
0001
0100
0001
0000
,
1000
0100
0010
0001
0100
0010
1000
0000
,
0002
0000
1003
0001
,
2000
0000
3100
0010
,
0002
0000
0103
0010
,
2000
0000
0000
0000
3001
1000
0001
1000
,
0001
0000
0000
0001
0000
0000
0001
0000
,
0000
0100
0000
0000
0010
0000
0000
0000
,
1000
0000
0000
1000
0000
0000
0100
0000
,
0000
0010
0000
0000
0001
0000
1000
0000
,
1010
0000
0000
0101
0000
0000
1010
0000
,
0000
0101
0000
0000
1000
0000
0001
0000
,
0020
0000
0030
0000
0010
0010
1001
0000
,
1000
0100
1000
0000
0010
1000
0010
0000
,
1000
0010
0100
0001
2000
0000
3001
0000
,
1000
0100
0010
0000
0100
0010
0001
0000
,
2000
3020
0230
0302
,
1003
0000
0100
0010
0000
0001
1000
0000
,
0001
0000
0100
0010
0000
1000
0001
0000
,
0020
0230
2300
3002
,
0203
0000
0310
0110
,
0001
0100
0001
0000
0010
0001
0010
0000
,
0001
0010
0100
1000
0002
0000
1003
0000
,
0001
0100
0010
0000
0100
0010
1000
0000
,
0001
1000
2002
3003
,
0001
0000
0010
0100
0000
0010
0100
0000
,
1000
0000
0010
0100
0000
0010
0100
0000
,
0010
1000
0100
0000
0010
0001
0100
0000
,
0020
0000
0000
1000
2030
0000
0000
0001
,
0002
0000
3003
0000
,
0000
0000
0000
0000
,
2000
0000
0000
3000
0000
0020
0000
0000
0030
0000
0000
1000
0000
0010
0000
1000
,
0000
0000
0020
0000
0000
0030
0000
1000
0000
0010
0000
1000
0000
0000
0000
0000
,
0002
0000
0000
0003
0000
0020
0000
0000
0030
0000
0000
0001
0000
0010
0000
0001
,
0000
0000
0020
0000
0000
0030
0000
0001
0000
0010
0000
0001
0000
0000
0000
0000
,
1000
0001
0100
0020
0000
0000
0000
0000
,
0000
0000
0000
0000
,
0000
0000
0000
0000
,
0000
0000
0000
0000
,
0030
0000
0000
0000
;

//---------------dance-single - ----------------
#NOTEDATA:;
#CHARTNAME:;
#STEPSTYPE:dance-single;
#DESCRIPTION:;
#CHARTSTYLE:;
#DIFFICULTY:Beginner;
#METER:5;
#RADARVALUES:0.202217,0.302856,0.082298,0.329191,0.000000,172.000000,162.000000,10.000000,40.000000,0.000000,0.000000,0.000000,0.000000,0.000000,0.202217,0.302856,0.082298,0.329191,0.000000,172.000000,162.000000,10.000000,40.000000,0.000000,0.000000,0.000000,0.000000,0.000000;
#CREDIT:;
#OFFSET:-0.244807;
#BPMS:0.000000=186.000000
;
#STOPS:;
#DELAYS:;
#WARPS:;
#TIMESIGNATURES:0.000000=4=4
;
#TICKCOUNTS:0.000000=4
;
#COMBOS:0.000000=1
;
#SPEEDS:0.000000=1.000000=0.000000=0
;
#SCROLLS:0.000000=1.000000
;
#FAKES:;
#LABELS:0.000000=Song Start
;
#NOTES:
0000
0000
0000
0000
,
0000
0000
0000
0000
,
0000
0000
0000
0000
,
0000
0000
0000
0000
,
0000
0000
0000
0000
,
0000
0000
0000
0000
,
0000
0000
0000
0000
,
0000
0000
0000
0000
,
1000
0000
1000
0000
,
0001
0000
1000
0000
,
0001
0000
0001
0000
,
1000
0000
0010
0000
,
0100
0000
0100
0000
,
0100
0000
0010
0100
,
0020
0000
0000
0000
,
0030
0000
1001
0000
,
1000
0000
0100
0000
,
1000
0100
0020
0030
,
0001
0000
1000
0000
,
0010
0100
0010
0100
,
0001
0000
0100
0000
,
0001
0100
0020
0030
,
1000
0000
0001
0000
,
2002
0000
3003
0000
,
1000
0000
0100
0000
,
0010
0001
0200
0300
,
0001
0000
0100
0000
,
0010
1000
0200
0300
,
0020
0000
0032
0000
,
1003
0010
0100
0000
,
0220
0000
0000
0330
,
1001
0000
0000
0000
,
2000
0000
0000
0000
,
3200
0000
0320
0000
,
0032
0000
0000
0000
,
2003
0000
0000
0000
,
3001
0000
0001
0000
,
1000
0000
1000
0000
,
0001
0000
0100
0000
,
0010
1000
0010
1000
,
0002
0000
0000
0000
,
0023
0000
0230
0000
,
2300
0000
0000
0000
,
3002
0000
0000
0000
,
1003
0000
1000
0000
,
0001
0000
0001
0000
,
1000
0000
0010
0000
,
0100
0001
1000
0100
,
0020
0000
0030
0000
,
0001
0000
1000
0000
,
0002
0000
0003
0000
,
2000
0000
3000
0000
,
0020
0000
0030
0000
,
0100
0000
0001
0000
,
2000
0000
3000
0000
,
0100
0100
0010
0000
,
0001
0000
0001
0000
,
1000
0000
0001
0000
,
1000
0000
1000
0000
,
0001
0000
0010
0000
,
0100
0000
0100
0000
,
0100
0000
0010
0100
,
0020
0000
0000
0000
,
0030
0000
1001
0000
,
0001
0100
0001
0000
,
1000
0010
1000
0000
,
0001
0001
1000
1000
,
0100
0000
0010
0000
,
0001
0100
0010
0000
,
1000
0100
0010
0000
,
0001
1000
0001
1000
,
0002
0000
1003
0000
,
1000
0100
1000
0000
,
0001
0010
0001
0000
,
1000
1000
0001
0001
,
0100
0000
1001
0000
,
1000
0001
0010
0000
,
0001
1000
0010
0000
,
1000
0100
1000
0100
,
0020
0000
0032
0000
,
2000
0000
0000
0000
,
3003
0000
0000
0000
,
0000
0000
0000
0000
,
0000
0000
0000
0000
,
2020
0000
3030
0000
,
0202
0000
0303
0000
,
0022
0000
0033
0000
,
2200
0000
3300
0000
,
0000
0000
0000
0020
0000
0000
0000
0000
,
0000
0000
0000
0000
,
0000
0000
0000
0000
,
0000
0000
0000
0000
,
0030
0000
0000
0000
;
