#VERSION:0.83;
#TITLE:Earth, Wii & Fire;
#SUBTITLE:;
#ARTIST:mashup by Acrylo;
#TITLETRANSLIT:;
#SUBTITLETRANSLIT:;
#ARTISTTRANSLIT:;
#GENRE:WiiWare;
#ORIGIN:;
#CREDIT:;
#BANNER:Earth Wii & Fire.png;
#BACKGROUND:Earth Wii & Fire-bg.png;
#PREVIEWVID:;
#JACKET:Earth Wii & Fire-jacket.png;
#CDIMAGE:;
#DISCIMAGE:;
#LYRICSPATH:;
#CDTITLE:cdtitle.png;
#MUSIC:Earth Wii & Fire.ogg;
#OFFSET:0.201360;
#SAMPLESTART:8.905953;
#SAMPLELENGTH:12.954066;
#SELECTABLE:YES;
#DISPLAYBPM:148.000000;
#BPMS:0.000=148.200,
10.000=149.000,
11.000=148.200,
13.000=148.000,
14.000=148.216,
279.000=136.216,
280.000=148.216;
#STOPS:;
#DELAYS:;
#WARPS:;
#TIMESIGNATURES:0.000=4=4;
#TICKCOUNTS:0.000=4;
#COMBOS:0.000=1;
#SPEEDS:0.000=1.000=0.000=0;
#SCROLLS:0.000=0.999,
10.000=0.993,
11.000=0.999,
13.000=1.000,
14.000=0.999,
279.000=1.087,
280.000=0.999;
#FAKES:;
#LABELS:0.000=Song Start;
#BGCHANGES:0.500=Earth Wii & Fire.mp4=1.000=1=0=1===CrossFade==,
344.000=Earth Wii & Fire-bg.png=1.000=0=0=1=====,
99999=-nosongbg-=1.000=0=0=0 // don't automatically add -songbackground-
;
#KEYSOUNDS:;
#ATTACKS:
;

//---------------dance-single - ----------------
#NOTEDATA:;
#CHARTNAME:;
#STEPSTYPE:dance-single;
#DESCRIPTION:;
#CHARTSTYLE:;
#DIFFICULTY:Challenge;
#METER:12;
#RADARVALUES:0.512930,0.549797,0.277837,0.740899,0.035620,504.000000,465.000000,39.000000,104.000000,87.000000,0.000000,0.000000,0.000000,0.000000,0.512930,0.549797,0.277837,0.740899,0.035620,504.000000,465.000000,39.000000,104.000000,87.000000,0.000000,0.000000,0.000000,0.000000;
#CREDIT:;
#DISPLAYBPM:148.000000;
#NOTES:
// measure 0
0000
0000
0000
0000
,  // measure 1
0000
0000
0000
0000
,  // measure 2
0002
1000
1000
1000
1003
0000
2000
0001
,  // measure 3
0001
0000
0001
0000
3001
0000
0000
0000
0001
1000
0001
1000
0001
0000
0000
0000
,  // measure 4
0000
0000
0000
0000
,  // measure 5
0000
0000
0000
0000
0000
1000
0100
0010
,  // measure 6
0002
0010
0010
0000
1000
1000
0000
0103
,  // measure 7
0010
0001
0010
0200
0000
0301
0100
0010
,  // measure 8
2000
0010
0010
0000
0001
0001
0000
3100
,  // measure 9
0010
1000
0010
0200
0000
1300
0001
0100
,  // measure 10
0010
1000
1010
0000
0001
0011
0000
1001
,  // measure 11
0100
0010
0100
2001
0000
0000
3100
1000
,  // measure 12
0001
2000
0010
3000
0020
0001
0030
0002
,  // measure 13
0100
0003
0200
1000
0300
1000
0001
0100
,  // measure 14
0010
0010
0000
0000
1000
0010
0100
2000
,  // measure 15
0000
3100
0010
2000
0000
3001
1000
0100
,  // measure 16
0010
0010
0000
0001
0010
0100
0001
0100
,  // measure 17
0010
0001
1000
0002
0000
1003
0001
0100
,  // measure 18
0010
0000
1000
1000
0000
0001
0010
0100
,  // measure 19
1000
0010
0100
0002
0000
1003
0001
0010
,  // measure 20
0200
0000
0000
0010
0010
0000
0000
0310
,  // measure 21
0000
0000
0022
0033
0000
0000
2200
3300
0000
0000
2020
3030
0202
0303
0000
0000
,  // measure 22
1002
0000
0013
1000
0002
0000
0003
0000
,  // measure 23
1000
0010
0001
1000
0100
MMMM
0011
0000
,  // measure 24
2001
0000
3010
0001
2000
0000
3000
0000
,  // measure 25
0001
0010
1000
0001
0100
MMMM
1010
0000
,  // measure 26
1002
0000
0013
1000
0002
0000
0003
0000
,  // measure 27
1000
0010
0001
0100
2000
0000
3100
0002
,  // measure 28
0000
0100
0100
0000
1000
1000
0000
0010
,  // measure 29
0010
0000
1000
1003
0000
0001
0100
0010
,  // measure 30
2001
0000
3100
0001
2000
0000
3001
0100
,  // measure 31
1000
0001
0100
0010
1000
MMMM
1010
0000
,  // measure 32
1002
0000
0103
1000
0002
0000
1003
0100
,  // measure 33
0001
1000
0100
0010
0001
MMMM
0011
0000
,  // measure 34
2001
0000
3100
0001
2000
0000
3001
0100
,  // measure 35
1000
0010
0001
0010
2000
0000
3100
0010
,  // measure 36
0002
1000
1000
1000
2000
0000
0000
0000
,  // measure 37
0000
0000
0000
0000
3003
0000
0000
0000
1000
0001
1000
0001
1000
0000
0001
0000
,  // measure 38
2000
0010
0001
0000
0001
0100
0000
3100
,  // measure 39
0010
1000
0001
0200
0000
1300
0100
0010
,  // measure 40
0002
0010
1000
0000
1000
0100
0000
0103
,  // measure 41
0010
0001
1000
0200
0000
0301
1000
0100
,  // measure 42
0010
0001
0011
0000
1000
1010
0000
1001
,  // measure 43
0100
0010
0100
1002
0000
0000
0103
0001
,  // measure 44
1000
0002
0010
0003
0020
1000
0030
2000
,  // measure 45
0100
3000
0200
0001
0300
0001
1000
0100
,  // measure 46
1100
0011
0000
0000
0001
0010
1000
0002
,  // measure 47
0000
1003
0010
0002
0000
1003
0001
0101
,  // measure 48
1010
0000
0000
0001
1000
0010
0001
2000
,  // measure 49
0000
3001
0010
2000
0000
3001
1000
0100
,  // measure 50
0010
0000
0001
0001
0000
1000
0000
0001
,  // measure 51
1000
0010
0100
0002
0000
0013
0100
1000
,  // measure 52
0020
0000
0000
2030
3020
0230
0320
0032
,  // measure 53
0023
2030
3200
0302
2003
3020
0032
1003
,  // measure 54
2001
0000
3010
0001
2000
0000
3100
0001
,  // measure 55
1000
0010
0001
0010
0100
MMMM
1010
0000
,  // measure 56
1002
0000
0013
1000
0002
0000
0103
1000
,  // measure 57
0001
0010
1000
0010
0100
MMMM
0011
0000
,  // measure 58
2001
0000
3010
0001
2000
0000
3100
0001
,  // measure 59
0010
1000
0010
0001
0200
0000
0310
2000
,  // measure 60
0000
0100
0100
0000
0001
0001
0000
0010
,  // measure 61
0010
0000
0001
3001
0000
1000
0100
0010
,  // measure 62
1002
0000
0103
1000
0002
0000
0013
1000
,  // measure 63
0100
0001
1000
0010
0100
MMMM
0011
0000
,  // measure 64
2001
0000
3100
0001
2000
0000
3010
0001
,  // measure 65
0100
1000
0001
0010
0100
MMMM
1010
0000
,  // measure 66
1002
0000
0103
1000
0002
0000
0013
1000
,  // measure 67
0100
0001
0100
1000
0020
0000
0130
0002
,  // measure 68
1000
1000
1000
1000
2000
0000
0000
0000
,  // measure 69
0000
0000
0000
0000
3003
0000
0000
0000
1000
0001
1000
0001
1000
0000
0000
0000
,  // measure 70
1002
0000
0013
0100
0020
0000
1030
0010
,  // measure 71
2000
0000
3001
0100
1000
0001
MMMM
0000
,  // measure 72
2001
0000
3010
0100
0020
0000
0031
0010
,  // measure 73
0002
0000
1003
0100
0001
1000
MMMM
0000
,  // measure 74
1002
0000
0013
1000
0002
0000
0103
1000
,  // measure 75
0020
0000
0031
1000
0200
0000
0301
2000
,  // measure 76
0000
0010
0010
0000
0001
0001
0000
0100
,  // measure 77
0100
0000
0001
3001
0000
1000
0010
0100
,  // measure 78
0002
0000
1003
0100
0002
0000
0103
1000
,  // measure 79
0020
0000
0031
0010
2000
0000
3000
0000
,  // measure 80
2000
0000
3001
0100
2000
0000
3100
0001
,  // measure 81
0020
0000
1030
0010
0002
0000
0003
0000
,  // measure 82
0MM0
M00M
M00M
0MMM
000M
000M
MMM0
0000
,  // measure 83
000M
0000
0000
0000
0000
0000
0000
0000
000M
0000
0000
0000
0000
00M0
0000
0000
0000
0000
0000
0000
0000
00M0
0000
0000
0000
0000
0000
0M00
0000
0000
0000
0000
0000
0000
0000
0M00
0000
0000
0000
0000
M000
0000
0000
0000
0000
0000
0000
0000
M000
0000
0000
0000
0000
0000
0000
0000
0000
0000
0000
0000
0000
0000
0000
0000
,  // measure 84
0MM0
M00M
000M
0MM0
M000
M000
MMMM
0000
,  // measure 85
00M0
0MM0
M0M0
00M0
00M0
00M0
MMMM
0000
;
