#VERSION:0.83;
#TITLE:Don't Believe in T;
#SUBTITLE:;
#ARTIST:PinocchioP feat. Hatsune Miku & Kasane Teto;
#TITLETRANSLIT:;
#SUBTITLETRANSLIT:;
#ARTISTTRANSLIT:;
#GENRE:Vocaloid Pop;
#ORIGIN:;
#CREDIT:;
#BANNER:Don't Believe in T.png;
#BACKGROUND:Don't Believe in T-bg.png;
#PREVIEWVID:;
#JACKET:Don't Believe in T-jacket.png;
#CDIMAGE:;
#DISCIMAGE:;
#LYRICSPATH:;
#CDTITLE:cdtitle.png;
#MUSIC:Don't Believe in T.ogg;
#OFFSET:-0.280000;
#SAMPLESTART:60.700001;
#SAMPLELENGTH:13.427000;
#SELECTABLE:YES;
#BPMS:0.000=143.000;
#STOPS:;
#DELAYS:;
#WARPS:;
#TIMESIGNATURES:0.000=4=4;
#TICKCOUNTS:0.000=4;
#COMBOS:0.000=1;
#SPEEDS:0.000=1.000=0.000=0;
#SCROLLS:0.000=1.000;
#FAKES:;
#LABELS:0.000=Song Start,
268.000=It's a shame the chart ended three measures earlier huh t7r?;
#BGCHANGES:-2.250=Don't Believe in T.mp4=1.000=1=0=1===CrossFade==,
99999=-nosongbg-=1.000=0=0=0 // don't automatically add -songbackground-
;
#KEYSOUNDS:;
#ATTACKS:
;

//---------------dance-single - ----------------
#NOTEDATA:;
#CHARTNAME:;
#STEPSTYPE:dance-single;
#DESCRIPTION:;
#CHARTSTYLE:;
#DIFFICULTY:Beginner;
#METER:3;
#RADARVALUES:0.178305,0.258607,0.053876,0.161629,0.000000,139.000000,133.000000,6.000000,18.000000,0.000000,0.000000,0.000000,0.000000,0.000000,0.178305,0.258607,0.053876,0.161629,0.000000,139.000000,133.000000,6.000000,18.000000,0.000000,0.000000,0.000000,0.000000,0.000000;
#CREDIT:;
#NOTES:
0000
0000
0000
0000
,
0000
0000
0000
0000
,
1000
0000
1000
0000
,
0010
0010
0010
0000
,
1000
0000
1000
0000
,
0100
0100
0100
0000
,
0020
0000
0030
0000
,
0002
0000
0003
0000
,
1000
0000
0001
0000
,
1000
0001
1000
0000
,
0010
0000
0100
0000
,
0010
0000
2000
3000
,
0100
0000
0010
0000
,
0100
0000
0020
0030
,
0001
0000
0001
0000
,
0010
0010
0010
0000
,
0001
0000
0001
0000
,
0100
0100
0100
0000
,
0020
0000
0030
0000
,
2000
0000
3000
0000
,
0001
0000
1000
0000
,
0001
1000
0001
0000
,
0000
0000
0000
0000
,
0000
0010
0020
0030
,
0001
0000
0100
0000
,
0010
0010
0010
0000
,
1000
0000
0100
0000
,
0010
0010
0010
0000
,
0200
0000
0300
0110
,
0020
0000
0030
0110
,
0000
1001
0000
1001
,
0020
0000
0030
0000
,
0001
0000
0000
0000
,
1000
0000
0000
0000
,
0010
0000
0000
0000
,
0100
0000
0000
0000
,
0001
0001
0010
0000
,
0001
0001
0010
0000
,
0100
0100
0100
0000
,
0010
0000
0100
0000
,
1000
1000
0010
0000
,
1000
1000
0010
0000
,
0100
0100
0100
0000
,
0002
0000
0003
0000
,
1000
0000
0100
0000
,
1000
1000
0100
0000
,
1000
1000
0010
0000
,
0100
0100
0100
0000
,
0001
0000
0100
0000
,
0001
0001
0100
0000
,
0001
0001
0010
0000
,
0100
0100
0100
0000
,
2002
0000
3003
0000
,
0001
0001
0100
0000
,
0010
0010
1000
0000
,
0100
0100
0100
0000
,
2002
0000
3003
0000
,
1000
1000
0100
0000
,
0010
0010
0001
0000
,
0100
0100
0100
0200
,
0300
0000
0000
0000
,
0000
0000
0002
0003
,
0000
0000
0000
0000
,
1000
0000
0100
0200
,
0300
0000
0000
0000
;

//---------------dance-single - ----------------
#NOTEDATA:;
#CHARTNAME:;
#STEPSTYPE:dance-single;
#DESCRIPTION:;
#CHARTSTYLE:;
#DIFFICULTY:Easy;
#METER:7;
#RADARVALUES:0.329672,0.373543,0.071835,0.332238,0.000000,257.000000,249.000000,8.000000,37.000000,0.000000,0.000000,0.000000,0.000000,0.000000,0.329672,0.373543,0.071835,0.332238,0.000000,257.000000,249.000000,8.000000,37.000000,0.000000,0.000000,0.000000,0.000000,0.000000;
#CREDIT:;
#NOTES:
0000
0000
0000
0000
,
0000
0000
0000
0000
,
1000
1000
0010
0010
,
0100
0001
0100
0000
0001
0000
0000
0000
,
0001
0001
0010
0010
,
0100
1000
0100
0000
1000
0000
0000
0000
,
0002
0000
0203
0000
,
0310
1000
0001
0010
,
0110
0000
0110
0000
,
1000
0000
0100
0000
0010
0001
1000
0000
,
0001
0100
0001
0100
,
0010
0000
1000
0000
0002
0003
0002
0003
,
1000
0100
1000
0100
,
0010
0001
1000
0001
,
0100
0001
0010
0001
,
0100
0001
0100
0000
0010
0000
1000
0000
,
0100
1000
0010
1000
,
0100
1000
0100
0000
0010
0000
0100
0000
,
0020
0000
0230
0000
,
0310
0001
1000
0010
,
0100
0000
0100
0000
,
0001
0000
0100
0000
0010
1000
0002
0000
,
0003
0000
0000
0000
,
0000
0000
0001
0000
0010
0100
1000
0000
,
0002
0103
0020
1030
,
0001
0000
0010
0000
0100
1000
0001
0000
,
2000
3010
0200
0301
,
1000
0000
1000
0000
0001
1000
0001
0000
,
2000
0000
3200
0000
0320
0001
0031
0000
,
0002
0000
0203
0000
0320
1000
1030
0000
,
0002
1000
1003
0000
2000
0001
3001
0000
,
2002
0000
0000
3003
,
1000
0100
0010
0010
,
0001
0100
0010
0010
,
1000
0001
1000
0000
0002
0000
0003
0000
,
0001
1000
0001
0000
0020
0000
0230
0000
,
1300
0000
1000
0000
0010
1000
0100
0000
,
1000
0000
1000
0000
0100
1000
0010
0000
,
0100
0001
0100
0000
0002
0000
0003
0000
,
1000
0100
1000
0000
0200
0000
0320
0000
,
0031
0000
0001
0000
0010
0001
0100
0000
,
0001
0000
0001
0000
0100
0001
0010
0000
,
0100
1000
0100
0000
2000
0000
3000
0000
,
0002
0203
0320
2030
,
3001
0000
0001
0000
0010
0001
1000
0000
,
1000
0001
0010
0000
0001
0000
0011
0000
,
1000
0000
1000
0000
0001
0100
0010
0000
,
1000
0000
1000
0000
0010
1000
0100
0000
,
1000
0000
1000
0000
0010
1000
0001
0000
,
0001
1000
0010
0000
1000
0000
1010
0000
,
0001
0000
0001
0000
1000
0100
0010
0000
,
0001
0000
0001
0000
0010
0000
0100
1000
,
0020
0000
0000
0000
,
0130
0010
1000
0000
1000
0000
1010
0000
,
0001
0000
0010
0000
0001
0010
0100
0000
,
1000
0000
1000
0000
0010
0000
0100
0001
,
0020
0000
0000
0000
,
0130
0010
0001
0000
0001
0000
0011
0000
,
1000
0000
0010
0000
1000
0010
0100
0000
,
0001
0000
0001
0000
0010
0001
0100
0000
,
1001
0000
0000
0000
,
0000
0000
0002
2003
,
3000
0000
0000
0000
,
0001
0000
0001
0000
0010
0100
2000
0000
,
3000
0000
0000
0000
;

//---------------dance-single - ----------------
#NOTEDATA:;
#CHARTNAME:;
#STEPSTYPE:dance-single;
#DESCRIPTION:;
#CHARTSTYLE:;
#DIFFICULTY:Medium;
#METER:10;
#RADARVALUES:0.446405,0.488479,0.134691,0.439991,0.000000,348.000000,333.000000,15.000000,49.000000,0.000000,0.000000,0.000000,0.000000,0.000000,0.446405,0.488479,0.134691,0.439991,0.000000,348.000000,333.000000,15.000000,49.000000,0.000000,0.000000,0.000000,0.000000,0.000000;
#CREDIT:;
#NOTES:
0000
0000
0000
0000
,
0000
0000
0000
0000
0000
0000
1000
0002
,
0010
0000
1003
0002
0010
0000
1003
0100
,
1000
0100
0010
0000
0010
0000
0001
2000
,
0010
0000
3001
2000
0010
0000
3001
0100
,
0001
0100
0010
0000
0010
0000
1000
0000
,
0001
0010
0100
0000
0010
0100
1000
0000
,
0001
1000
0010
0100
0001
0000
1000
0000
,
2100
3001
0102
1003
,
1000
0001
1000
0001
0010
0010
0010
0000
,
0001
0100
0010
1000
,
0001
0000
0010
0000
0200
0300
0200
0300
,
1000
0100
0010
0001
,
1000
0000
0010
0000
0100
0000
0001
2000
,
0010
0000
3001
2000
0100
0000
3001
0100
,
0010
0100
0001
0000
0001
0000
1000
0002
,
0010
0000
1003
0002
0100
0000
1003
0100
,
0010
0100
1000
0000
1000
0000
0001
0000
,
1000
0010
0100
0000
0010
0100
0001
0000
,
1000
0100
0010
0001
1000
0000
0001
0100
,
0020
0030
0200
0300
,
0010
0100
0001
1000
0100
0100
0100
0000
,
0010
0001
0010
0001
,
1000
0001
0100
0010
2000
3002
2003
3000
,
1002
0013
2001
3010
,
0100
0001
0010
0000
0100
1000
0010
0000
,
2001
3100
1002
0103
,
0001
0010
0100
1000
0010
0100
0001
0000
,
1000
0010
1000
0010
1000
0000
1010
0000
,
0001
0010
0001
0010
0001
0000
0011
0000
,
1000
0100
1100
0000
0001
0100
0101
0000
,
2000
0000
0000
3000
,
0001
1000
0001
0000
0010
0000
0100
0000
,
1000
0001
1000
0000
0010
0000
0100
0000
,
0001
0010
0001
0000
2000
0000
3000
0000
,
1000
0010
1000
0000
0002
0000
1003
0000
,
0001
0010
0001
0010
0100
1000
0010
0000
,
0100
0010
0100
0010
1000
0100
0010
0000
,
0001
1000
0001
0000
0202
0000
0303
0000
,
0001
1000
0001
0000
0020
0000
0230
0000
,
1300
0010
1000
0010
0100
0001
0010
0000
,
0100
0010
0100
0010
0001
0100
0010
0000
,
1000
0001
1000
0000
2200
0000
3300
0000
,
2000
3020
0230
0302
,
1003
0100
1000
0200
0010
0000
1300
0000
,
1000
0200
0010
0000
1300
0100
1100
0000
,
0001
1000
0010
2000
0001
0000
3100
0000
,
1000
0100
0010
0001
0100
0010
1000
0000
,
0001
0100
0001
0200
0010
0000
0301
0000
,
0001
0200
0010
0000
0301
0100
0101
0000
,
1000
0001
0010
0002
1000
0000
0103
0000
,
0001
0100
0010
1000
0100
0000
0010
0001
,
2000
0100
0100
0100
,
3001
0100
0010
2000
0010
0000
3100
0000
,
0010
0001
1000
0010
1000
0002
0010
0000
,
1003
0100
0010
0001
0100
0000
0010
1000
,
0002
0100
0100
0100
,
1003
0100
0010
0002
0010
0000
0103
0000
,
0010
1000
0001
0010
0001
2000
0010
0000
,
3001
0100
0010
1000
0100
0010
0001
0000
,
1001
0000
0000
0000
,
0000
0000
0000
0000
0200
0300
0200
0300
,
0000
0000
0000
0000
,
0001
0100
0010
1000
0100
0010
0200
0000
,
0300
0000
0000
0000
;

//---------------dance-single - ----------------
#NOTEDATA:;
#CHARTNAME:;
#STEPSTYPE:dance-single;
#DESCRIPTION:;
#CHARTSTYLE:;
#DIFFICULTY:Hard;
#METER:13;
#RADARVALUES:0.609317,0.574682,0.107753,0.404073,0.359176,475.000000,463.000000,12.000000,45.000000,10.000000,0.000000,0.000000,0.000000,0.000000,0.609317,0.574682,0.107753,0.404073,0.359176,475.000000,463.000000,12.000000,45.000000,10.000000,0.000000,0.000000,0.000000,0.000000;
#CREDIT:;
#NOTES:
// measure 0
0000
0000
0000
0000
,  // measure 1
0000
0000
0000
0000
0000
0000
0001
1000
,  // measure 2
0002
0010
0000
0000
1003
0000
0002
0000
0010
0000
0000
0000
0103
0000
0010
0000
,  // measure 3
1000
0001
1000
0000
0100
0000
0010
0000
0001
0000
0000
0000
1000
0000
0001
0000
,  // measure 4
2000
0010
0000
0000
3001
0000
2000
0000
0010
0000
0000
0000
3100
0000
0010
0000
,  // measure 5
0001
1000
0001
0000
0100
0000
0010
0000
1000
0000
0000
0000
0001
0000
0000
0000
,  // measure 6
1000
0100
1000
0001
0100
0001
1000
0100
,  // measure 7
0010
0001
1000
0010
0100
0000
0002
0000
,  // measure 8
0013
0000
0100
0000
1000
0000
0000
1000
0010
0000
0100
0000
0001
0000
0000
0000
,  // measure 9
1000
0000
0100
0010
0100
0000
0010
0000
0001
0000
1000
0001
2000
0000
3000
0000
,  // measure 10
0001
0000
0001
0000
0100
0000
0000
0010
0000
0000
1000
0000
0001
0000
0010
0000
,  // measure 11
0100
0100
1000
0001
2000
0010
3002
0100
,  // measure 12
1003
0000
1000
0000
0100
0000
0000
0010
0000
0000
0001
0000
1000
0000
0010
0000
,  // measure 13
0100
0001
1000
0001
0020
0000
0031
1000
,  // measure 14
0002
0100
0000
0000
1003
0000
0002
0000
0010
0000
0000
0000
0103
0000
0010
0000
,  // measure 15
1000
0001
1000
0000
0100
0000
1000
0000
0010
0000
0000
0000
1000
0000
0001
0000
,  // measure 16
2000
0100
0000
0000
3001
0000
2000
0000
0010
0000
0000
0000
3100
0000
0010
0000
,  // measure 17
0001
1000
0001
0000
0100
0000
0001
0000
0010
0000
0000
0000
0001
0000
1000
0000
,  // measure 18
0001
0000
0100
0000
0010
0000
1000
0100
0000
0010
0000
0001
0000
1000
0010
0000
,  // measure 19
0100
0000
0001
1000
0000
0001
0010
0000
0100
0000
0000
0000
2000
0000
0000
0000
,  // measure 20
3010
0000
0100
0000
0001
0000
0000
0001
0010
0000
0100
0000
1000
0000
0000
0000
,  // measure 21
0001
0000
0100
0010
0100
0000
0010
0000
1000
0001
1000
0001
2000
0000
0000
0000
,  // measure 22
3001
0010
0100
1000
0001
1000
0010
0100
,  // measure 23
0001
0000
2000
0000
3200
0000
0320
0000
0032
0000
1003
0100
1000
0000
0000
0000
,  // measure 24
1002
0000
0000
0000
0103
0010
1000
0000
0002
0000
0000
0000
1003
0000
0100
0000
,  // measure 25
0010
0000
0001
0000
1000
0010
0000
1000
0010
0000
0100
0000
1000
0000
0100
0000
,  // measure 26
0010
0000
1000
0000
0001
0000
0010
0100
0000
0010
0100
0000
0001
0000
0100
0000
,  // measure 27
0010
0000
0001
1000
0001
0000
0100
0000
0010
0000
1000
0000
1000
0000
0000
0000
,  // measure 28
0001
0100
1000
0100
0001
0010
0210
0000
,  // measure 29
1300
0100
0001
0100
1000
0010
0120
0000
,  // measure 30
1030
0010
2010
0000
3001
0010
0012
0000
,  // measure 31
2000
0000
0000
3003
,  // measure 32
0001
0000
1000
0001
1000
0000
0020
0000
0100
0000
1000
0000
1030
0000
0000
0000
,  // measure 33
1000
0000
0001
1000
0000
0001
0020
0000
0100
0000
0001
0000
0031
0000
0000
0000
,  // measure 34
1000
0001
0010
0001
0200
0000
0301
0000
,  // measure 35
0001
0000
1000
0000
0010
0000
1000
0000
0200
0000
0000
0310
0001
0000
0000
0000
,  // measure 36
1000
0000
0001
0100
0001
0000
0200
0000
1000
0000
0010
0000
0310
0000
0000
0000
,  // measure 37
1000
0000
0001
0010
0000
0001
0020
0000
1000
0000
0100
0000
0130
0000
1000
0000
,  // measure 38
0001
0000
0100
0010
1000
0000
0010
0000
2000
0000
0000
0000
3100
0000
0010
0000
,  // measure 39
0001
0000
1000
0001
0100
0000
0010
0000
0110
0000
0000
0000
1001
0000
0000
0000
,  // measure 40
0001
0000
1000
0100
1000
0000
0200
0000
0001
0000
0010
0000
0310
0000
0000
0000
,  // measure 41
0001
0000
1000
0010
1000
0000
0020
0001
0000
0000
0100
0000
0130
0000
0001
0000
,  // measure 42
1000
0000
0100
0010
0001
0000
0010
0000
0002
0000
0000
0000
1003
0000
0010
0000
,  // measure 43
0100
0100
0001
0001
1000
0100
0010
0000
,  // measure 44
0001
0000
1000
0010
0000
1000
0010
0100
0001
0000
0100
00M0
0100
0000
0000
0000
,  // measure 45
1000
0000
0010
0100
0001
0000
0100
00M0
0100
0000
1000
0000
1100
0000
0000
0000
,  // measure 46
0001
0000
0001
0000
0100
0000
0001
1000
0100
0000
0010
0000
0001
0010
0M00
0010
,  // measure 47
1000
0000
0001
0100
0001
0000
0200
0000
1000
0000
0010
0000
0310
0000
0000
0000
,  // measure 48
1000
0000
0001
0010
0000
0001
0010
0100
1000
0000
0100
00M0
0100
0000
0000
0000
,  // measure 49
0001
0000
0010
0100
1000
0000
0100
00M0
0100
0000
0001
0000
0101
0000
0000
0000
,  // measure 50
1000
0000
1000
0000
0100
0000
1000
0001
0100
0000
0010
0000
1000
0010
0M00
0010
,  // measure 51
0001
0000
1000
0100
1000
0000
0200
0000
0001
0000
0000
0000
0310
0000
0001
1000
,  // measure 52
0002
0100
1000
0013
,  // measure 53
0001
0000
0100
0010
1000
0000
0010
0M00
0010
0000
0001
0000
0011
0000
0000
0000
,  // measure 54
1000
0000
0001
0100
0001
0000
0100
0010
1000
0000
0010
0M00
0010
0000
0001
0000
,  // measure 55
1000
0000
0001
0100
0001
0000
0200
0000
1000
0000
0000
0000
0310
0000
1000
0001
,  // measure 56
2000
0100
0001
3010
,  // measure 57
1000
0000
0100
0010
0001
0000
0010
0M00
0010
0000
1000
0000
1010
0000
0000
0000
,  // measure 58
0001
0000
1000
0100
1000
0000
0100
0010
0001
0000
0010
0M00
0010
0000
1000
0000
,  // measure 59
0001
0000
1000
0100
1000
0000
0200
0000
0001
0000
0010
0000
0310
0000
0000
0000
,  // measure 60
1001
0000
0000
0000
,  // measure 61
0000
0000
0000
0000
0002
0100
2003
0100
,  // measure 62
3000
0000
0000
0000
,  // measure 63
0001
0000
1000
0010
1000
0000
0001
0010
0001
0000
1000
0001
0200
0000
0000
0000
,  // measure 64
0300
0000
0000
0000
;

//---------------dance-single - ----------------
#NOTEDATA:;
#CHARTNAME:;
#STEPSTYPE:dance-single;
#DESCRIPTION:;
#CHARTSTYLE:;
#DIFFICULTY:Challenge;
#METER:16;
#RADARVALUES:0.785056,0.775820,0.089794,0.431011,0.951817,612.000000,602.000000,10.000000,48.000000,12.000000,0.000000,0.000000,0.000000,0.000000,0.785056,0.775820,0.089794,0.431011,0.951817,612.000000,602.000000,10.000000,48.000000,12.000000,0.000000,0.000000,0.000000,0.000000;
#CREDIT:;
#NOTES:
// measure 0
0000
0000
0000
0000
,  // measure 1
0000
0000
0000
0000
0000
0000
0001
1000
,  // measure 2
0002
0010
0000
0000
1003
0000
0002
0000
0010
0000
0000
0000
0103
0010
0100
0001
,  // measure 3
1000
0100
1000
0100
0010
0001
0010
0100
1000
0000
0000
0000
1000
0000
0001
0000
,  // measure 4
2000
0010
0000
0000
3001
0000
2000
0000
0010
0000
0000
0000
3100
0010
0100
1000
,  // measure 5
0001
0100
0001
0100
0010
0000
1000
0000
0001
0000
0000
0000
0001
1000
0001
0000
,  // measure 6
1000
0100
0010
0100
1000
0000
0001
0100
0010
0100
0001
0100
0010
0000
1000
0001
,  // measure 7
0010
0000
0100
1000
0001
1000
0010
0000
0100
0000
0000
0000
0002
0000
0000
0000
,  // measure 8
1003
0000
0100
0000
0010
0000
0000
0001
0100
0001
0100
0010
1000
0000
0000
0000
,  // measure 9
0010
0000
0100
0001
1000
0100
0010
0000
0100
0000
0100
0010
0100
2000
3000
0000
,  // measure 10
0001
0000
0001
0000
0100
0000
0010
1000
0000
0001
1000
0100
0010
0000
0001
0000
,  // measure 11
1000
0000
1000
0000
0010
0000
0100
0010
2000
0000
0010
0000
3002
0000
0010
0000
,  // measure 12
1003
0000
1000
0000
0100
0000
0010
0001
0000
1000
0001
0100
0010
0000
1000
0000
,  // measure 13
0001
0010
0100
1000
0002
0000
1003
0001
,  // measure 14
2000
0010
0000
0000
3001
1000
0001
2000
0010
0000
0000
0000
3100
0010
0100
1000
,  // measure 15
0001
1000
0010
0100
0000
0010
0100
0000
0001
0000
0000
0000
0001
0000
1000
0000
,  // measure 16
0002
0010
0000
0000
1003
0001
1000
0002
0010
0000
0000
0000
0103
0010
0100
0001
,  // measure 17
1000
0001
0010
0100
0000
0010
0100
0000
1000
0000
0000
0000
1000
0001
1000
0001
,  // measure 18
1000
0010
0100
0000
0010
0000
1000
0001
0000
0010
0000
0100
0000
0010
0001
1000
,  // measure 19
0010
0000
0100
0001
1000
0001
0010
0000
0100
0000
0000
0000
2000
0000
0000
0000
,  // measure 20
3001
0000
0100
0000
0010
0000
0000
1000
0100
0010
0001
0000
0001
0000
0000
0000
,  // measure 21
0010
0000
0100
1000
0001
0100
0010
0000
0100
0010
0100
0010
0200
0000
0000
0000
,  // measure 22
0310
1000
0001
0010
0100
1000
0001
0100
,  // measure 23
0010
1000
0001
0010
0001
1000
0010
1000
0100
0000
0010
0001
1000
0000
0001
0100
,  // measure 24
0020
0000
0000
0000
1030
0001
1000
0000
0200
0000
0000
0000
1300
0000
0001
0000
,  // measure 25
0100
0000
0010
0000
1000
0010
0000
0001
0010
0000
1000
0001
1000
0000
0100
0000
,  // measure 26
0010
0000
0010
0000
0100
0010
0100
0001
0000
0100
0010
0000
0100
1000
0001
0000
,  // measure 27
1001
0000
1000
0010
0100
0001
1000
0002
0010
0000
1000
0000
1003
0000
0000
0000
,  // measure 28
0001
1000
0010
1000
0001
1000
0010
1000
0001
1000
0010
1000
0200
0000
0000
0000
,  // measure 29
1300
0001
0010
0001
1000
0001
0010
0001
1000
0001
0010
0001
0200
0000
0000
0000
,  // measure 30
0301
1000
0100
1000
0020
0000
0000
0000
1030
0001
0100
0001
0020
0000
0000
0000
,  // measure 31
0200
0000
0000
0330
,  // measure 32
0001
0000
1000
0100
1000
0100
0010
0002
1000
0000
0100
0000
0103
0000
0000
0000
,  // measure 33
0001
0000
0100
0001
0000
0100
0010
2000
0001
0000
0100
0000
3100
0000
0010
0000
,  // measure 34
0100
1000
0001
1000
0010
0000
0100
0000
0200
0000
0000
0000
0310
0000
0100
0000
,  // measure 35
0010
0100
0010
0000
0100
0001
1000
0001
0020
0000
0000
0130
1000
0000
0000
0000
,  // measure 36
1001
0000
0001
0100
0001
0100
0010
0200
1000
0000
0010
0000
0301
0000
0000
0000
,  // measure 37
1001
0000
1000
0100
0000
0010
0100
0020
1000
0000
0100
0000
0031
0000
1000
0000
,  // measure 38
0001
0100
0010
0100
0001
0000
0100
00M0
0200
0000
0000
0000
1300
0000
0100
0000
,  // measure 39
0010
0000
0100
1000
0001
0100
0010
0000
2000
0000
3001
0000
1000
0001
0000
0000
,  // measure 40
1001
0000
1000
0100
1000
0100
0010
0200
0001
0000
0010
0000
1300
0000
0000
0000
,  // measure 41
1001
0000
0001
0100
0001
0100
0020
0001
0000
0000
0100
0000
1030
0000
0001
0000
,  // measure 42
1000
0100
0010
0100
1000
0000
0100
00M0
0200
0000
0000
0000
0301
0000
1000
0000
,  // measure 43
0002
0000
0010
0000
2003
0000
0010
0000
3002
0000
0100
0000
1003
0100
0010
0001
,  // measure 44
1000
0010
1000
0010
0000
1000
0010
0100
0001
0000
0100
00M0
0100
1000
0001
1000
,  // measure 45
0010
0100
0010
0100
0001
0000
0100
00M0
0100
0000
1000
0000
1100
0000
0000
0000
,  // measure 46
0001
0000
0001
0000
1000
0010
0100
0001
1000
0000
0010
0M00
0020
0001
0000
0130
,  // measure 47
1000
0000
0001
0100
0001
0100
0010
0200
1000
0000
0010
0000
0301
1000
0000
0001
,  // measure 48
1000
0000
0001
0010
0000
0001
0010
0100
1000
0000
0100
00M0
0100
0001
1000
0001
,  // measure 49
0010
0100
0010
0100
1000
0000
0100
00M0
0100
0000
0001
0000
0101
0000
0000
0000
,  // measure 50
1000
0000
1000
0000
0001
0010
0100
1000
0001
0000
0010
0M00
0020
1000
0000
0130
,  // measure 51
0001
0000
1000
0100
1000
0100
0010
0200
0001
0000
0000
0000
0310
0001
1000
0001
,  // measure 52
0200
0000
0010
1000
0000
0000
0010
0001
0000
0000
0010
1000
0000
0000
0310
0001
,  // measure 53
1000
0001
0100
0010
1000
0000
0010
0M00
0010
0000
0001
0000
0011
0000
0000
0000
,  // measure 54
0001
0010
0100
0010
1000
0010
0100
0010
0001
0000
0010
0M00
0010
0000
1000
0010
,  // measure 55
0100
0000
0001
0100
0001
0100
0010
0200
1000
0000
0000
0000
0310
1000
0001
1000
,  // measure 56
0200
0000
0010
0001
0000
0000
0010
1000
0000
0000
0010
0001
0000
0000
0310
1000
,  // measure 57
0001
1000
0100
0010
0001
0000
0010
0M00
0010
0000
1000
0000
1010
0000
0000
0000
,  // measure 58
1000
0010
0100
0010
0001
0010
0100
0010
1000
0000
0010
0M00
0010
0000
0001
0010
,  // measure 59
0100
0000
1000
0100
1000
0100
0010
0200
0001
0000
0010
0000
1300
0000
0000
0000
,  // measure 60
1001
0000
0000
0000
,  // measure 61
0000
0000
0000
0000
0002
0100
2003
0100
,  // measure 62
3000
0000
0000
0000
,  // measure 63
0001
1000
0001
0100
0010
0000
0100
0001
0010
0000
0100
1000
0020
0000
0000
0000
,  // measure 64
0030
0000
0000
0000
;

//---------------dance-double - ----------------
#NOTEDATA:;
#CHARTNAME:;
#STEPSTYPE:dance-double;
#DESCRIPTION:;
#CHARTSTYLE:;
#DIFFICULTY:Challenge;
#METER:16;
#RADARVALUES:0.778642,0.775820,0.071835,0.583661,0.938347,607.000000,599.000000,8.000000,65.000000,12.000000,0.000000,0.000000,0.000000,0.000000,0.778642,0.775820,0.071835,0.583661,0.938347,607.000000,599.000000,8.000000,65.000000,12.000000,0.000000,0.000000,0.000000,0.000000;
#CREDIT:;
#NOTES:
00000000
00000000
00000000
00000000
,
00000000
00000000
00000000
00000000
00000000
00000000
00001000
00010000
,
00002000
00100000
00000000
00000000
00013000
00000000
00002000
00000000
00100000
00000000
00000000
00000000
01003000
00010000
01000000
00100000
,
10000000
01000000
10000000
01000000
00100000
00010000
00100000
00001000
00010000
00000000
00000000
00000000
00010000
00000000
00001000
00000000
,
00020000
00000010
00000000
00000000
00031000
00000000
00020000
00000000
00000010
00000000
00000000
00000000
00030100
00001000
00000100
00000010
,
00000001
00000100
00000001
00000100
00000010
00000000
00001000
00000000
00000001
00000000
00000000
00000000
00000001
00001000
00000001
00000000
,
00001000
00000100
00000010
00000100
00001000
00000000
00000100
00010000
00001000
00010000
00000100
00010000
00001000
00000000
01000000
00001000
,
00010000
00000000
00001000
01000000
00010000
01000000
00100000
00000000
10000000
00000000
00000000
00000000
00020000
00000000
00000000
00000000
,
00130000
00000000
00001000
00000000
01000000
00000000
00000000
00001000
00100000
00001000
00010000
00001000
01000000
00000000
00000000
00000000
,
00001000
00000000
00010000
00000100
00001000
00000100
00000010
00000000
00000001
00000000
00000001
00001000
00000001
00000200
00000300
00000000
,
00000010
00000000
00000100
00000000
00001000
00000000
00010000
00001000
00000000
00010000
00001000
00100000
00010000
00000000
01000000
00000000
,
00100000
00000000
00010000
00000000
00001000
00000000
00100000
00001000
00200000
00000000
00320000
00000000
00230000
00000000
00320000
00000000
,
00130000
00000000
01000000
00000000
00010000
00000000
00001000
00010000
00000000
00001000
00010000
00000100
00001000
00000000
00000010
00000000
,
00000100
00001000
00000100
00001000
00010000
00000000
00010000
00001000
,
00020000
00000010
00000000
00000000
00031000
00010000
00001000
00020000
00000010
00000000
00000000
00000000
00030100
00001000
00000100
00000010
,
00000001
00001000
00000010
00001000
00000000
00000010
00010000
00000000
00001000
00000000
00000000
00000000
00001000
00000000
00010000
00000000
,
00002000
00100000
00000000
00000000
00013000
00001000
00010000
00002000
00100000
00000000
00000000
00000000
01003000
00010000
01000000
00100000
,
10000000
00010000
00100000
00010000
00000000
00100000
01000000
00000000
10000000
00000000
00000000
00000000
00010000
10000000
00010000
10000000
,
00100000
01000000
00010000
10000000
01000000
00000000
00100000
01000000
00000000
00010000
00000000
00001000
00000000
00010000
00001000
00000100
,
00000010
00000000
00000100
00000001
00001000
00000001
00000010
00000000
00000100
00000000
00000000
00000000
00002000
00000000
00000000
00000000
,
00003010
00000000
00010000
00000000
00000100
00000000
00000000
00010000
00000010
00010000
00000100
00000000
00000100
00000000
00000000
00000000
,
00010000
00000000
00001000
01000000
00010000
01000000
00100000
00000000
10000000
00010000
10000000
00010000
20000000
00000000
00000000
00000000
,
31000000
00010000
01000000
00010000
00001000
00010000
00001000
00010000
,
00001000
00000000
00000100
00000000
00000001
00000100
00000010
00001000
00000001
00000000
00001000
00000001
00000010
00000000
00000100
00000010
,
00002000
00000000
00000000
00000000
00013000
00001000
00010000
00000000
00200000
00000000
00000000
00000000
10300000
00000000
00100000
00000000
,
00010000
00000000
00001000
00000000
00010000
01000000
00000000
00100000
00010000
00000000
00100000
00001000
00100000
00000000
00001000
00000000
,
00010000
00000000
00000010
00000000
00000100
00000010
00000100
00001000
00000000
00010000
00001000
00000000
00000010
00000100
00000010
00000000
,
00000001
00000000
00001000
00000010
00000100
00000001
00000010
00000200
00001000
00000000
00010000
00000000
00010300
00000000
00000000
00000000
,
00001000
00010000
00000010
00010000
00001000
00010000
00000010
00010000
00001000
00010000
00000010
00010000
00000200
00000000
00000000
00000000
,
00010300
00001000
00100000
00001000
00010000
00001000
00100000
00001000
00010000
00001000
00100000
00001000
02000000
00000000
00000000
00000000
,
03001000
00010000
00000100
00010000
00000020
00000000
00000000
00000000
00010030
00001000
01000000
00001000
00200000
00000000
00000000
00000000
,
00020000
00000000
00000000
00330000
,
00001000
00000000
00100000
00001000
00010000
00001000
00010000
00002000
01000000
00000000
00010000
00000000
00013000
00000000
00000000
00000000
,
00010000
00000000
00000010
00010000
00000000
00010000
00001000
00020000
00000100
00000000
00001000
00000000
00031000
00000000
00010000
00000000
,
01000000
00100000
01000000
00100000
00010000
00000000
00100000
00000000
00002000
00000000
00000000
00000000
00013000
00000000
00001000
00000000
,
00000100
00000010
00000100
00000000
00000010
00001000
00000001
00001000
00000200
00000000
00000000
00000310
00000001
00000000
00000000
00000000
,
00001001
00000000
00000001
00000100
00000001
00000100
00000010
00000100
00002000
00000000
00023000
00000000
00230000
00000000
00300000
00000000
,
01100000
00000000
01000000
00010000
00000000
00100000
01000000
00100000
02000000
00000000
03020000
00000000
00032000
00000000
00003010
00000000
,
00000001
00000010
00000100
00001000
00000100
00000000
00001000
000M0000
00002000
00000000
00000000
00000000
00013000
00000000
00001000
00000000
,
01000000
00000000
00100000
00000000
10000000
00100000
01000000
00010000
20000000
00000000
30010000
00000000
10000000
00010000
00000000
00000000
,
10010000
00000000
10000000
01000000
10000000
01000000
00100000
01000000
00020000
00000000
00032000
00000000
00003020
00000000
00000030
00000000
,
00000110
00000000
00000100
00001000
00000010
00000100
00000010
00000200
00000000
00000000
00002300
00000000
00023000
00000000
00130000
00000000
,
10000000
00100000
01000000
00010000
01000000
00000000
00010000
0000M000
00020000
00000000
00000000
00000000
00031000
00000000
00000100
00000000
,
00000002
00000000
00000023
00000000
00002030
00000000
00023000
00000000
02030000
00000000
23000000
00000000
30010000
01000000
00100000
10000000
,
00010000
00100000
00010000
00100000
00000000
00010000
10000000
00010000
01000000
00000000
00010000
0000M000
00010000
00001000
00010000
00001000
,
00100000
00010000
10000000
00010000
01000000
00000000
00010000
0000M000
00010000
00000000
00001000
00000000
00011000
00000000
00000000
00000000
,
00010000
00000000
00001000
00000000
00000100
00000001
00001000
00000001
00000010
00000M00
00000010
00000000
00002000
00000001
00000000
00003100
,
00000010
00000000
00000001
00000100
00000001
00000100
00000010
00000100
00002000
00000000
00023000
00000000
00031000
00000010
00000000
00000010
,
00000001
00000000
00001000
00000010
00000000
00001000
00000001
00001000
00000100
00000000
00001000
000M0000
00001000
00010000
00001000
00010000
,
00000010
00001000
00000001
00001000
00000100
00000000
00001000
000M0000
00001000
00000000
00010000
00000000
00011000
00000000
00000000
00000000
,
00001000
00000000
00010000
00000000
01000000
10000000
00010000
10000000
00100000
0M000000
00100000
00000000
00020000
10000000
00000000
01030000
,
00100000
00000000
10000000
01000000
10000000
01000000
00100000
01000000
00020000
00000000
00000000
00000000
00031000
00100000
00010000
00100000
,
00002000
00000000
00010000
00000010
00000000
00000000
00000010
00010000
00000000
00000000
00010000
00000100
00000000
00000000
00003100
00010000
,
00001000
00010000
00001000
01000000
00010000
00000000
00100000
0M000000
00100000
00000000
10000000
00000000
10100000
00000000
00000000
00000000
,
10000000
00100000
01000000
00100000
10000000
00100000
01000000
00100000
00010000
00000000
00001000
000M0000
00001000
00000000
00000100
00000000
,
00000010
00000000
00000001
00000100
00000001
00000100
00000010
00000100
00002000
00000000
00000000
00000000
00013000
00000010
00001000
00000010
,
00020000
00000000
00001000
00100000
00000000
00000000
00100000
00001000
00000000
00000000
00001000
01000000
00000000
00000000
01030000
00001000
,
00010000
00001000
00010000
00000100
00001000
00000000
00000010
00000M00
00000010
00000000
00000001
00000000
00000011
00000000
00000000
00000000
,
00000001
00000010
00000100
00000010
00000001
00000010
00000100
00000010
00001000
00000000
00010000
0000M000
00010000
00000000
01000000
00000000
,
00100000
00000000
10000000
01000000
10000000
01000000
00100000
01000000
00020000
00000000
00032000
00000000
00003020
00000000
00000000
00000000
,
00000031
00000000
00000000
00000000
,
00000000
00000000
00000000
00000000
00000002
00002003
00003002
00002003
,
00003000
00000000
00000000
00000000
,
00000001
00000100
00000001
00000100
00001000
00000000
00010000
00001000
00010000
00000000
00100000
10000000
02000000
00000000
00000000
00000000
,
03000000
00000000
00000000
00000000
;
