#VERSION:0.83;
#TITLE:Damage Per Second;
#SUBTITLE:;
#ARTIST:Maozon;
#TITLETRANSLIT:;
#SUBTITLETRANSLIT:;
#ARTISTTRANSLIT:;
#GENRE:Cyber Drumstep;
#ORIGIN:;
#CREDIT:;
#BANNER:Damage Per Second.png;
#BACKGROUND:Damage Per Second-bg.png;
#PREVIEWVID:;
#JACKET:Damage Per Second-jacket.png;
#CDIMAGE:;
#DISCIMAGE:;
#LYRICSPATH:;
#CDTITLE:cdtitle.png;
#MUSIC:Damage Per Second.ogg;
#OFFSET:-2.035000;
#SAMPLESTART:34.577000;
#SAMPLELENGTH:10.847000;
#SELECTABLE:YES;
#BPMS:0.000=177.000;
#STOPS:;
#DELAYS:;
#WARPS:;
#TIMESIGNATURES:0.000=4=4;
#TICKCOUNTS:0.000=4;
#COMBOS:0.000=1;
#SPEEDS:0.000=1.000=0.000=0;
#SCROLLS:0.000=1.000;
#FAKES:;
#LABELS:0.000=Song Start;
#BGCHANGES:-7.250=Damage Per Second.mp4=1.000=1=0=1===CrossFade==,
99999=-nosongbg-=1.000=0=0=0 // don't automatically add -songbackground-
;
#KEYSOUNDS:;
#ATTACKS:
;

//---------------dance-single - ----------------
#NOTEDATA:;
#CHARTNAME:;
#STEPSTYPE:dance-single;
#DESCRIPTION:;
#CHARTSTYLE:;
#DIFFICULTY:Beginner;
#METER:2;
#RADARVALUES:0.110244,0.171727,0.008480,0.118725,0.000000,91.000000,90.000000,1.000000,14.000000,0.000000,0.000000,0.000000,0.000000,0.000000,0.110244,0.171727,0.008480,0.118725,0.000000,91.000000,90.000000,1.000000,14.000000,0.000000,0.000000,0.000000,0.000000,0.000000;
#CREDIT:;
#NOTES:
0000
0000
0000
0000
,
0000
0000
0000
0000
,
0000
0000
0000
0000
,
0000
0000
0000
0000
,
2002
0000
0000
0000
,
3003
0000
0000
0000
,
0020
0000
0000
0000
,
0000
0000
0000
0030
0000
0000
0000
0000
,
0001
0000
0001
0000
,
0010
0000
0000
0000
,
0100
0000
0100
0000
,
1000
0000
0000
0000
,
1000
0000
1000
0000
,
0010
0000
0000
0000
,
0100
0000
0100
0000
,
0001
0000
0000
0000
,
1000
0000
0000
0000
,
0001
0000
0000
0000
,
1000
0000
0000
0000
,
0001
0000
0000
0000
,
1000
0000
0001
0000
,
1000
0000
0001
0000
,
2000
0000
0000
0000
,
3000
0000
0000
0000
,
0001
0000
0000
0000
,
0010
0000
0000
0001
,
0001
0000
0000
0000
,
0100
0000
0000
0001
,
0001
0000
0000
0000
,
0010
0000
0001
0000
,
0200
0000
0000
0000
,
0000
0000
0000
0300
0000
0000
0000
0000
,
1000
0000
0000
0000
,
0010
0000
0000
1000
,
1000
0000
0000
0000
,
0100
0000
0000
1000
,
1000
0000
0000
0000
,
0010
0000
1000
0000
,
0200
0000
0000
0000
,
0000
0000
0000
0300
0000
0000
0000
0000
,
0001
0000
0010
0000
,
0001
0000
0000
0000
,
0001
0000
0100
0000
,
0001
0000
0000
0000
,
1000
0000
0000
0000
,
0100
0000
0000
0000
,
0010
0000
0000
0000
,
0001
0000
0000
0000
,
1000
0000
0010
0000
,
1000
0000
0000
0000
,
1000
0000
0100
0000
,
1000
0000
0000
0000
,
0001
0000
0000
0000
,
0100
0000
0000
0000
,
0010
0000
0000
0000
,
1000
0000
0000
0000
,
0002
0000
0000
0000
,
0003
0000
0000
0000
,
0020
0000
0000
0000
,
0030
0000
0000
0000
,
0200
0000
0000
0000
,
0300
0000
0000
0000
,
2000
0000
0000
0000
,
3000
0000
0000
0000
,
1000
0000
0001
0000
,
1000
0000
0000
0001
,
0001
0000
1000
0000
,
0001
0000
0000
1000
,
1000
0000
0010
0000
,
0100
0000
0001
0000
,
0020
0000
0000
0000
,
0000
0000
0000
0030
0000
0000
0000
0000
,
0001
0000
0000
0000
,
0100
0000
0000
0010
,
0000
0010
0000
0000
,
1000
0000
0001
0000
,
2000
0000
3000
0000
,
0200
0000
0300
0000
,
0020
0000
0000
0000
0000
0000
0000
0030
,
0000
0000
0000
0000
,
0000
0000
0000
0000
,
0010
0000
0000
0000
;

//---------------dance-single - ----------------
#NOTEDATA:;
#CHARTNAME:;
#STEPSTYPE:dance-single;
#DESCRIPTION:;
#CHARTSTYLE:;
#DIFFICULTY:Easy;
#METER:6;
#RADARVALUES:0.242295,0.343453,0.110244,0.585142,0.000000,200.000000,187.000000,13.000000,69.000000,0.000000,0.000000,0.000000,0.000000,0.000000,0.242295,0.343453,0.110244,0.585142,0.000000,200.000000,187.000000,13.000000,69.000000,0.000000,0.000000,0.000000,0.000000,0.000000;
#CREDIT:;
#NOTES:
0000
0000
0000
0000
,
0000
0000
0000
0000
,
0000
0000
0000
0000
,
0000
0000
0000
0000
,
2002
0000
0000
0000
,
0000
3003
0001
1000
,
0002
0000
0003
0020
0000
0000
0030
0200
,
0000
0000
0300
2000
0000
0000
3000
0000
,
0001
0001
0100
0100
,
0010
0100
0001
0000
,
1000
1000
0100
0100
,
0010
0100
1000
0000
,
0001
0100
0001
0100
,
0010
1000
0001
0000
,
1000
0100
0010
0001
,
2000
0000
0000
0000
,
3001
0000
0001
0000
,
1000
0010
0100
0001
,
1000
0000
1000
0000
,
0001
0010
0100
1000
,
0001
0000
1000
0000
,
0010
0100
0010
0100
,
0200
0000
0000
0000
,
0020
0000
0000
0330
,
2002
3003
0000
0000
0000
0000
0000
0000
0000
0000
0000
0000
0000
0000
0000
0000
0001
0000
0000
0000
0000
0000
0000
0000
0000
0000
0000
0000
0000
0000
0000
0000
,
0010
0000
0000
0000
0000
0000
0000
0000
0000
0000
0000
0000
0000
0000
0000
0000
0001
0000
0000
0000
0000
0000
0000
0000
2000
3000
0000
0000
0000
0000
0000
0000
,
2002
3003
0000
0000
0000
0000
0000
0000
0000
0000
0000
0000
0000
0000
0000
0000
0001
0000
0000
0000
0000
0000
0000
0000
0000
0000
0000
0000
0000
0000
0000
0000
,
0100
0000
0000
0000
0000
0000
0000
0000
0010
0000
0000
0000
0000
0000
0000
0000
1000
0000
0000
0000
0000
0000
0000
0000
0002
0003
0000
0000
0000
0000
0000
0000
,
2002
3003
0000
0000
0000
0000
0000
0000
0000
0000
0000
0000
0000
0000
0000
0000
0001
0000
0000
0000
0000
0000
0000
0000
0000
0000
0000
0000
0000
0000
0000
0000
,
0010
0000
0001
1000
,
0002
0000
0003
0200
0000
0000
0300
0002
,
0000
0000
0003
0020
0000
0000
0030
0000
,
2002
3003
0000
0000
0000
0000
0000
0000
0000
0000
0000
0000
0000
0000
0000
0000
1000
0000
0000
0000
0000
0000
0000
0000
0000
0000
0000
0000
0000
0000
0000
0000
,
0010
0000
0000
0000
0000
0000
0000
0000
0000
0000
0000
0000
0000
0000
0000
0000
1000
0000
0000
0000
0000
0000
0000
0000
0002
0003
0000
0000
0000
0000
0000
0000
,
2002
3003
0000
0000
0000
0000
0000
0000
0000
0000
0000
0000
0000
0000
0000
0000
1000
0000
0000
0000
0000
0000
0000
0000
0000
0000
0000
0000
0000
0000
0000
0000
,
0100
0000
0000
0000
0000
0000
0000
0000
0010
0000
0000
0000
0000
0000
0000
0000
0001
0000
0000
0000
0000
0000
0000
0000
2000
3000
0000
0000
0000
0000
0000
0000
,
2002
3003
0000
0000
0000
0000
0000
0000
0000
0000
0000
0000
0000
0000
0000
0000
1000
0000
0000
0000
0000
0000
0000
0000
0000
0000
0000
0000
0000
0000
0000
0000
,
0010
0000
1000
0001
,
2000
0000
3000
0200
0000
0000
0300
2000
,
0000
0000
3000
0020
0000
0000
0030
0000
,
1000
1000
0010
0010
,
0100
0001
0010
0000
,
0100
0100
0010
0010
,
0001
1000
0002
0203
,
0310
0000
1000
0000
,
0001
0000
0010
0000
,
0001
0000
0100
0000
,
0010
0000
1000
0000
,
0001
0001
0010
0010
,
0100
1000
0010
0000
,
0100
0100
0010
0010
,
1000
0001
2000
3200
,
0310
0000
0001
0000
,
1000
0000
0010
0000
,
1000
0000
0100
0100
,
0000
0020
0000
0000
0000
0000
0030
0000
,
0002
0000
0000
0000
,
0203
0000
0000
0000
,
0320
0000
0000
0000
,
2030
0000
0000
0000
,
3200
0000
0000
0000
,
0320
0000
0000
0000
,
0002
0000
0000
0000
,
0033
0000
0000
0000
,
2002
3003
0000
0000
0000
0000
0000
0000
0000
0000
0000
0000
0000
0000
0000
0000
0001
0000
0000
0000
0000
0000
0000
0000
0000
0000
0000
0000
0000
0000
0000
0000
,
0001
0000
0000
0000
0000
0000
0000
0000
0100
0000
0000
0000
0000
0000
0000
0000
0010
0000
0000
0000
0000
0000
0000
0000
2020
3030
0000
0000
0000
0000
0000
0000
,
2020
3030
0000
0000
0000
0000
0000
0000
0000
0000
0000
0000
0000
0000
0000
0000
1000
0000
0000
0000
0000
0000
0000
0000
0000
0000
0000
0000
0000
0000
0000
0000
,
1000
0000
0000
0000
0000
0000
0000
0000
0100
0000
0000
0000
0000
0000
0000
0000
0010
0000
0000
0000
0000
0000
0000
0000
0022
0033
0000
0000
0000
0000
0000
0000
,
0022
0033
0000
0000
0000
0000
0000
0000
0000
0000
0000
0000
0000
0000
0000
0000
0001
0000
0000
0000
0000
0000
0000
0000
0010
0000
0000
0000
0000
0000
0000
0000
,
0100
1000
0010
0100
,
0002
0000
0003
0020
0000
0000
0030
0002
,
0000
0000
0003
0200
0000
0000
0300
0000
,
2002
3003
0000
0000
0000
0000
0000
0000
0000
0000
0000
0000
0000
0000
0000
0000
1000
0000
0000
0000
0000
0000
0000
0000
0000
0000
0000
0000
0000
0000
0000
0000
,
0100
0000
0000
0000
0000
0000
0000
0000
0000
0000
0000
0000
0000
0000
0000
0000
0010
0000
0000
0000
0000
0000
0000
0000
0002
0003
0000
0000
0000
0000
0000
0000
,
2000
0000
3010
0000
,
0010
0000
0000
0000
0000
0000
0000
0000
0100
0000
0000
0000
0000
0000
0000
0000
0001
0000
0000
0000
0000
0000
0000
0000
2000
3000
0000
0000
0000
0000
0000
0000
,
0200
0000
0000
0000
,
0320
0000
0031
1000
,
0020
0000
0030
0200
0000
0000
0300
0002
,
0000
0000
0000
0000
,
0000
0000
0000
0000
,
0003
0000
0000
0000
;

//---------------dance-single - ----------------
#NOTEDATA:;
#CHARTNAME:;
#STEPSTYPE:dance-single;
#DESCRIPTION:;
#CHARTSTYLE:;
#DIFFICULTY:Medium;
#METER:8;
#RADARVALUES:0.342847,0.446489,0.296811,0.763229,0.000000,283.000000,248.000000,35.000000,90.000000,0.000000,0.000000,0.000000,0.000000,0.000000,0.342847,0.446489,0.296811,0.763229,0.000000,283.000000,248.000000,35.000000,90.000000,0.000000,0.000000,0.000000,0.000000,0.000000;
#CREDIT:;
#NOTES:
0000
0000
0000
0000
,
0000
0000
0000
0000
,
0000
0000
0000
0000
,
0000
0000
0000
0000
,
2002
0000
0000
0000
,
0000
0000
3003
0000
1000
0001
1000
0000
,
2200
0000
3300
0022
0000
0033
0000
0202
,
0000
0303
0000
2020
0000
0000
3030
0000
,
0001
0001
0010
0010
,
0001
0000
0010
0000
0100
0000
1000
0001
,
1000
1000
0010
0010
,
1000
0010
0200
0302
,
1003
0100
0010
0001
,
1000
0000
0010
0000
0100
0000
0001
1000
,
0001
0010
0100
1000
,
0020
0000
0000
0000
,
1030
0010
0100
0000
,
0010
0010
1000
1000
,
0001
0010
0100
0000
,
0010
0010
0001
0001
,
1000
0010
0100
0000
,
0001
0000
0010
0000
0100
0000
1000
0001
,
2000
0000
0000
3000
,
2002
0000
0000
3003
,
2002
3003
0000
0000
0000
0000
0000
0000
0001
0000
0000
0000
0000
0000
0000
0000
0100
0000
0000
0000
0000
0000
0000
0000
0010
0000
0000
0000
0000
0000
0000
0000
,
0000
0000
0000
0000
0100
0000
0000
0000
0001
0000
0000
0000
0000
0000
0000
0000
0010
0000
0000
0000
0000
0000
0000
0000
0002
0003
0000
0000
0000
0000
0000
0000
,
2002
3003
0000
0000
0000
0000
0000
0000
0001
0000
0000
0000
0000
0000
0000
0000
0100
0000
0000
0000
0000
0000
0000
0000
0010
0000
0000
0000
0000
0000
0000
0000
,
1000
0000
0000
0000
0100
0000
0000
0000
1000
0000
0000
0000
0000
0000
0000
0000
0010
0000
0000
0000
0000
0000
0000
0000
2000
3000
0000
0000
0000
0000
0000
0000
,
2002
3003
0000
0000
0000
0000
0000
0000
0001
0000
0000
0000
0000
0000
0000
0000
0010
0000
0000
0000
0000
0000
0000
0000
0100
0000
0000
0000
0000
0000
0000
0000
,
0000
0010
0001
0000
0100
0010
1000
0000
,
2020
0000
3030
0202
0000
0303
0000
0022
,
0000
0033
0000
2200
0000
0000
3300
0000
,
2002
3003
0000
0000
0000
0000
0000
0000
1000
0000
0000
0000
0000
0000
0000
0000
0100
0000
0000
0000
0000
0000
0000
0000
0010
0000
0000
0000
0000
0000
0000
0000
,
0000
0000
0000
0000
0100
0000
0000
0000
1000
0000
0000
0000
0000
0000
0000
0000
0010
0000
0000
0000
0000
0000
0000
0000
2000
3000
0000
0000
0000
0000
0000
0000
,
2002
3003
0000
0000
0000
0000
0000
0000
1000
0000
0000
0000
0000
0000
0000
0000
0100
0000
0000
0000
0000
0000
0000
0000
0010
0000
0000
0000
0000
0000
0000
0000
,
0001
0000
0000
0000
0100
0000
0000
0000
0001
0000
0000
0000
0000
0000
0000
0000
0010
0000
0000
0000
0000
0000
0000
0000
0002
0003
0000
0000
0000
0000
0000
0000
,
2002
3003
0000
0000
0000
0000
0000
0000
1000
0000
0000
0000
0000
0000
0000
0000
0010
0000
0000
0000
0000
0000
0000
0000
0100
0000
0000
0000
0000
0000
0000
0000
,
0000
0010
1000
0000
0100
0000
0010
0000
,
0220
0000
0330
0022
0000
0033
0000
2002
,
0000
3003
0000
0202
0000
0000
0303
0000
,
1000
0010
0100
0010
,
1000
0100
1000
0000
0100
0000
0010
0000
,
0001
1000
0010
0100
,
0001
1000
0100
0000
0020
0000
0230
0000
,
1300
0000
0000
0001
0000
0000
1000
0000
,
0001
0100
1000
0100
,
0001
0000
0000
0010
0000
0000
0100
0000
,
1000
0000
0000
1000
0010
0000
0100
0000
,
0001
0010
0100
0010
,
0001
0100
0001
0000
0100
0000
0010
0000
,
1000
0001
0010
0100
,
1000
0001
0100
0000
0020
0000
0230
0000
,
0301
0000
0000
1000
0000
0000
0001
0000
,
1000
0100
0001
0100
,
1000
0000
0000
0010
0000
0000
0100
0000
,
0000
0220
0000
0000
0000
0000
0330
0000
,
0002
0000
0000
0000
,
0023
0000
0000
0000
,
0230
0000
0000
0000
,
2300
0000
0000
0000
,
3020
0000
0000
0000
,
0230
0000
0000
0000
,
0002
0000
0000
0000
,
0303
0000
0000
0000
,
2002
3003
0000
0000
0000
0000
0000
0000
0001
0000
0000
0000
0000
0000
0000
0000
0010
0000
0000
0000
0000
0000
0000
0000
0100
0000
0000
0000
0000
0000
0000
0000
,
1000
0000
0000
0000
0001
0000
0000
0000
1000
0000
0000
0000
0000
0000
0000
0000
0010
0000
0000
0000
0000
0000
0000
0000
0202
0303
0000
0000
0000
0000
0000
0000
,
2020
3030
0000
0000
0000
0000
0000
0000
0001
0000
0000
0000
0000
0000
0000
0000
0010
0000
0000
0000
0000
0000
0000
0000
0100
0000
0000
0000
0000
0000
0000
0000
,
1000
0000
0000
0000
0010
0000
0000
0000
1000
0000
0000
0000
0000
0000
0000
0000
0100
0000
0000
0000
0000
0000
0000
0000
0220
0330
0000
0000
0000
0000
0000
0000
,
2002
3003
0000
0000
0000
0000
0000
0000
1000
0000
0000
0000
0000
0000
0000
0000
0010
0000
0000
0000
0000
0000
0000
0000
0100
0000
0000
0000
0000
0000
0000
0000
,
0001
1000
0001
0000
0010
0100
1000
0000
,
2200
0000
3300
0022
0000
0033
0000
0202
,
0000
0303
0000
2020
0000
0000
3030
0000
,
1001
0001
0010
1000
,
0000
0010
0001
0000
1000
0000
2001
0000
,
3020
0031
0010
1000
,
0001
0000
0000
0000
0010
0000
0000
0000
0001
0000
0000
0000
0000
0000
0000
0000
0100
0000
0000
0000
0000
0000
0000
0000
0020
0030
0000
0000
0000
0000
0000
0000
,
2000
0000
0100
0000
,
3002
0000
0000
0000
0103
0010
1000
0000
,
2020
0000
3030
2002
0000
3003
0000
2200
,
0000
0000
0000
0000
,
0000
0000
0000
0000
,
3300
0000
0000
0000
;

//---------------dance-single - ----------------
#NOTEDATA:;
#CHARTNAME:;
#STEPSTYPE:dance-single;
#DESCRIPTION:;
#CHARTSTYLE:;
#DIFFICULTY:Hard;
#METER:12;
#RADARVALUES:0.510031,0.618216,0.305292,0.720828,0.046642,421.000000,385.000000,36.000000,85.000000,16.000000,0.000000,0.000000,0.000000,0.000000,0.510031,0.618216,0.305292,0.720828,0.046642,421.000000,385.000000,36.000000,85.000000,16.000000,0.000000,0.000000,0.000000,0.000000;
#CREDIT:;
#NOTES:
0000
0000
0000
0000
,
0000
0000
0000
0000
,
0000
0000
0000
0000
,
0000
0000
0000
0000
,
2002
0000
0000
0000
,
0000
0000
3003
0000
0001
1000
0100
0010
,
0002
0000
0003
2200
0000
3300
0000
2020
,
0000
3030
0000
0202
0000
0000
0303
0000
,
1001
0000
0001
0010
0000
0100
0010
0000
,
0001
0100
0000
0001
0010
0000
0100
1000
,
0001
0000
1000
0010
0000
0100
0010
0000
,
1000
0100
0000
1000
0020
0000
0230
0000
,
0301
0000
1000
0100
0000
0010
0001
0000
,
1000
0000
0010
0000
0100
0000
0001
0000
1000
0000
0000
0001
0000
0000
0010
0000
,
0100
0000
1000
0001
0000
1000
0010
0000
,
0200
0000
0000
0000
,
0301
0010
0001
0000
0010
0000
0010
0000
,
0100
0000
1000
0000
0001
0100
0010
0000
,
1000
0010
1000
0000
0010
0000
0010
0000
,
0100
0000
0001
0000
1000
0100
0010
0000
,
0001
0100
0001
0000
1000
0100
1000
0000
,
0001
0010
0100
1000
0010
0100
0001
0000
,
2002
0000
0000
3003
,
1000
0000
0000
1000
0000
0000
0001
0000
0000
0001
0000
0000
MMMM
0000
0000
0000
,
2002
3003
0000
0000
0000
0000
0000
0000
1000
0000
0000
0000
0100
0000
0000
0000
0000
0000
0000
0000
0010
0000
0000
0000
0001
0000
0000
0000
0100
0000
0000
0000
,
0000
0000
0000
0000
0010
0000
0000
0000
1000
0000
0000
0000
0100
0000
0000
0000
0010
0000
0000
0000
0001
0000
0000
0000
2000
3000
0000
0000
0000
0000
0000
0000
,
2002
3003
0000
0000
0000
0000
0000
0000
1000
0000
0000
0000
0010
0000
0000
0000
0000
0000
0000
0000
0100
0000
0000
0000
0001
0000
0000
0000
1000
0000
0000
0000
,
0100
0000
0000
0000
0010
0000
0000
0000
0002
0000
0000
0000
0000
0000
1000
0000
0000
0000
0000
0000
0103
0000
0000
0000
0020
0030
0000
0000
1000
0000
0000
0000
,
2002
3003
0000
0000
0000
0000
0000
0000
0001
0000
0000
0000
0100
0000
0000
0000
0000
0000
0000
0000
0010
0000
0000
0000
1000
0000
0000
0000
0100
0000
0000
0000
,
0000
0010
0001
0100
0010
1000
0001
0010
,
0220
0000
0330
0022
0000
0033
0000
2020
,
0000
3030
0000
0220
0000
0330
MMMM
0000
,
2002
3003
0000
0000
0000
0000
0000
0000
1000
0000
0000
0000
0100
0000
0000
0000
0001
0000
0000
0000
0100
0000
0000
0000
1000
0000
0000
0000
1000
0000
0000
0000
,
0000
0000
0000
0000
0001
0000
0000
0000
0100
0000
0000
0000
1000
0000
0000
0000
0100
0000
0000
0000
0001
0000
0000
0000
0002
0003
0000
0000
0000
0000
0000
0000
,
2002
3003
0000
0000
0000
0000
0000
0000
0001
0000
0000
0000
0010
0000
0000
0000
0100
0000
0000
0000
1000
0000
0000
0000
0001
0000
0000
0000
0001
0000
0000
0000
,
0100
0000
0000
0000
0010
0000
0000
0000
2000
0000
0000
0000
0000
0000
0001
0000
0000
0000
0000
0000
3100
0000
0000
0000
0020
0030
0000
0000
0001
0000
0000
0000
,
2002
3003
0000
0000
0000
0000
0000
0000
0001
0000
0000
0000
0100
0000
0000
0000
1000
0000
0000
0000
0100
0000
0000
0000
0001
0000
0000
0000
0001
0000
0000
0000
,
0000
1000
0100
0001
0100
1000
1000
0000
,
2200
0000
3300
0022
0000
0033
0000
0202
,
0000
0303
0000
2020
0000
0000
3030
0000
,
1001
0000
0001
1000
0100
1000
0001
0000
,
0001
1000
0010
1000
0100
0000
0010
0001
,
1000
0000
1000
0010
0100
0001
1000
0000
,
1000
0001
0010
0100
2000
3000
0002
0003
,
1001
0000
0001
0100
0000
0010
1000
0000
,
0001
0000
0010
0000
0001
0000
0010
0000
1000
0000
0000
0010
0000
0000
0001
0000
,
1000
0000
0010
0100
0000
0001
1000
0000
,
0100
0010
0000
0010
0100
1000
0001
0000
,
1001
0000
1000
0001
0100
0001
1000
0000
,
1000
0001
0010
0001
0100
0000
0010
1000
,
0001
0000
0001
0010
0100
1000
0001
0000
,
0001
1000
0010
0100
0002
0003
2000
3000
,
1001
0000
1000
0100
0000
0010
0001
0000
,
1000
0000
0010
0000
1000
0000
0010
0000
0001
0000
0000
0010
0000
0000
1000
0000
,
0001
0000
0010
0100
0000
1000
0010
0100
,
0000
0000
0001
0000
0000
1000
0000
0000
0001
0000
0000
0010
0000
0000
0000
0000
,
0012
0000
1000
0000
1003
0000
0000
0001
,
0000
0100
0000
0010
1000
0001
0000
1000
,
0000
0001
0010
0000
0010
0000
0000
0100
,
0000
1000
0000
1000
0010
0100
0001
0000
,
1000
0000
0001
0000
0001
0000
0000
1000
,
0000
0100
0000
0010
0001
1000
0000
0001
,
0200
0000
0000
0000
,
0020
0000
0330
MMMM
,
2002
3003
0000
0000
0000
0000
0000
0000
1000
0000
0000
0000
0100
0000
0000
0000
0010
0000
0000
0000
0100
0000
0000
0000
0001
0000
0000
0000
0100
0000
0000
0000
,
0010
0000
0000
0000
0100
0000
0000
0000
1000
0000
0000
0000
0100
0000
0000
0000
0010
0000
0000
0000
0001
0000
0000
0000
2000
3000
0000
0000
0000
0000
0000
0000
,
2002
3003
0000
0000
0000
0000
0000
0000
0001
0000
0000
0000
0100
0000
0000
0000
0010
0000
0000
0000
0100
0000
0000
0000
1000
0000
0000
0000
0100
0000
0000
0000
,
0010
0000
0000
0000
0100
0000
0000
0000
0002
0000
0000
0000
0000
0000
1000
0000
0000
0000
0000
0000
0013
0000
0000
0000
0200
0300
0000
0000
1000
0000
0000
0000
,
2002
3003
0000
0000
0000
0000
0000
0000
1000
0000
0000
0000
0010
0000
0000
0000
0001
0000
0000
0000
0010
0000
0000
0000
1000
0000
0000
0000
0001
0000
0000
0000
,
0010
1000
0010
0001
1000
0001
0100
0010
,
0220
0000
0330
2020
0000
3030
0000
0022
,
0000
0033
0000
0220
0000
0330
MMMM
0000
,
2002
3003
0000
0000
0000
0000
0000
0000
1000
0000
0000
0000
0010
0000
0000
0000
0001
0000
0000
0000
0010
0000
0000
0000
0100
0000
0000
0000
0100
0000
0000
0000
,
0000
0000
0000
0000
0001
0000
0000
0000
0010
0000
0000
0000
1000
0000
0000
0000
0010
0000
0000
0000
0100
0000
0000
0000
0200
0300
0000
0000
0000
0000
0000
0000
,
2000
0000
3001
0100
0010
1000
0001
0001
,
0010
0000
0000
0000
0100
0000
0000
0000
2000
0000
0000
0000
0000
0000
0001
0000
0000
0000
0000
0000
3010
0000
0000
0000
0200
0300
0000
0000
0001
0000
0000
0000
,
2000
0000
0100
0000
3001
0010
0000
0010
,
0002
0000
0100
0000
1003
0010
0100
0001
,
2002
0000
3003
0102
0000
0013
0000
2200
,
0000
0000
0000
0000
,
0000
0000
0000
0000
,
3300
0000
0000
0000
;

//---------------dance-single - ----------------
#NOTEDATA:;
#CHARTNAME:;
#STEPSTYPE:dance-single;
#DESCRIPTION:;
#CHARTSTYLE:;
#DIFFICULTY:Challenge;
#METER:15;
#RADARVALUES:0.650562,0.824288,0.330733,0.814111,0.284091,537.000000,498.000000,39.000000,96.000000,16.000000,0.000000,0.000000,0.000000,0.000000,0.650562,0.824288,0.330733,0.814111,0.284091,537.000000,498.000000,39.000000,96.000000,16.000000,0.000000,0.000000,0.000000,0.000000;
#CREDIT:;
#NOTES:
0000
0000
0000
0000
,
0000
0000
0000
0000
,
0000
0000
0000
0000
,
0000
0000
0000
0000
,
2002
0000
0000
0000
,
0000
0000
0000
0000
3003
0000
0000
0000
0001
0000
1000
0001
0010
0100
0010
0100
,
2000
0000
3000
0022
0000
0033
0000
2020
,
0000
3030
0000
0202
0000
0000
0303
0000
,
1001
0000
0001
1000
0100
1000
0001
0000
,
0001
1000
0010
1000
0100
0000
0010
0001
,
1000
0000
1000
0001
0100
0001
1000
0000
,
1000
0001
0010
0001
0200
0000
0320
0000
,
1030
0000
0000
0000
0010
0000
0100
0000
0001
0000
1000
0000
0100
0000
0010
0001
,
1000
0000
0010
0000
1000
0001
1000
0001
0010
0000
0100
1000
0000
0001
0100
0000
,
0010
0000
0010
0100
0001
1000
0100
0000
,
0020
0000
0000
0000
,
0031
0100
0010
0000
0010
0000
0100
0001
,
0010
0001
0010
0100
1000
0001
0100
0001
,
1000
0100
0010
0000
0010
0000
0100
1000
,
0010
1000
0010
0100
0001
1000
0100
0000
,
0010
0001
1000
0010
1000
0001
0010
0001
,
0100
0010
1000
0100
0010
0001
0100
0010
,
2000
0000
0000
3000
,
1100
0000
0000
0011
0000
0000
0101
0000
0000
1010
0000
0000
MMMM
0000
0000
0000
,
2002
3003
0000
0000
0000
0000
0000
0000
2000
0000
0000
0000
0100
0000
0000
0000
0000
0000
0000
0000
3001
0000
0000
0000
0010
0000
0000
0000
0100
0000
1000
0000
,
0001
0000
0000
0000
0100
0000
0000
0000
0100
0000
0000
0000
0001
0000
0100
0000
0010
0000
0000
0000
1000
0000
0000
0000
0200
0300
0000
0000
0000
0000
0000
0000
,
0022
0033
0000
0000
0000
0000
0000
0000
2000
0000
0000
0000
0010
0000
0000
0000
0000
0000
0000
0000
3001
0000
0000
0000
0100
0000
0000
0000
0001
0000
1000
0000
,
0001
0000
0000
0000
0010
0000
0000
0000
0100
0000
0000
0000
2000
0000
0010
0000
0000
0000
3001
0000
0010
0000
0100
0000
2000
3000
0000
0000
0001
0000
0000
0000
,
2002
3003
0000
0000
0000
0000
0000
0000
0002
0000
0000
0000
0100
0000
0000
0000
0000
0000
0000
0000
1003
0000
0000
0000
0010
0000
0000
0000
0100
0000
0001
0000
,
1000
0000
0100
0000
0100
0000
1000
0100
0010
0000
0001
1000
0010
0100
0010
0100
,
0002
0000
1003
1200
0000
0310
0001
0012
,
0000
1003
0010
0220
0000
0330
MMMM
0000
,
2002
3003
0000
0000
0000
0000
0000
0000
0001
0000
0000
0000
0100
0000
0010
0000
0200
0000
0000
0000
0010
0000
0000
0000
0302
0000
0000
0000
1000
0000
0000
0000
,
0000
0000
0000
0000
0013
0000
0000
0000
0100
0000
0000
0000
0010
0000
0100
0000
1000
0000
0000
0000
0001
0000
0000
0000
0200
0300
0000
0000
0000
0000
0000
0000
,
2020
3030
0000
0000
0000
0000
0000
0000
0001
0000
0000
0000
0010
0000
0100
0000
0010
0000
0000
0000
0100
0000
0000
0000
1000
0000
0001
0000
1000
0000
0001
0000
,
1000
0000
0000
0000
0010
0000
0000
0000
0100
0000
0000
0000
0002
0000
0010
0000
0000
0000
1003
0000
0010
0000
0100
0000
0002
0003
0000
0000
1000
0000
0000
0000
,
2002
3003
0000
0000
0000
0000
0000
0000
1000
0000
0000
0000
0100
0000
0010
0000
0200
0000
0000
0000
0010
0000
0000
0000
2300
0000
0000
0000
0001
0000
0000
0000
,
0000
0000
3010
0000
0100
0000
0010
0100
0001
0000
1000
0000
0100
0000
0000
0000
,
0120
0000
0031
1002
0000
0103
0010
2010
,
0000
0000
3100
0000
0010
0000
0012
0000
0000
1000
0000
0000
0103
0000
0010
0000
,
1000
0001
1000
0100
0010
0100
1000
0010
,
0100
0000
1000
0000
0100
0000
0001
0000
2000
0000
0000
0000
3001
0000
0010
0100
,
0010
0100
1000
0010
0100
0001
1000
0100
,
0010
1000
0010
0001
2000
3000
0002
0003
,
1001
0000
0000
0000
0001
0000
0100
0000
0000
0000
0010
0000
1000
0000
0001
0010
,
0001
0000
1000
0000
0001
0100
0001
0100
0010
0000
1000
0001
0000
0010
0100
0000
,
1000
0000
0001
0010
0000
0001
0100
0000
,
0010
1000
0000
0001
0010
0100
2000
0000
,
3001
1000
0001
0100
0010
0100
0001
0010
,
0100
0000
0001
0000
0100
0000
1000
0000
0002
0000
0000
0000
1003
0000
0010
0100
,
0010
0100
0001
0010
0100
1000
0001
0100
,
0010
0001
0010
1000
0002
0003
2000
3000
,
1001
0000
0000
0000
1000
0000
0100
0000
0000
0000
0010
0000
0001
0000
1000
0010
,
1000
0000
0001
0000
1000
0100
1000
0100
0010
0000
0001
1000
0000
0010
0100
0000
,
0001
0000
1000
0010
0000
1000
0100
0010
,
0000
0000
0011
0000
0000
1100
0000
0000
1010
0000
0000
0201
0000
0000
0000
0000
,
0310
1000
0001
0000
0002
0000
0003
0010
,
0000
0100
0000
1000
0001
1000
0000
0010
,
0000
0100
0001
0000
0002
0000
0003
1000
,
0000
0100
0000
1000
0010
0100
0001
0000
,
0010
0001
1000
0000
2000
0000
3000
0010
,
0000
0100
0000
0001
1000
0001
0000
0010
,
0200
0000
0000
0000
,
2000
0000
3300
MMMM
,
2002
3003
0000
0000
0000
0000
0000
0000
0002
0000
0000
0000
0100
0000
0000
0000
2003
0000
0000
0000
0010
0000
0000
0000
3001
0000
0000
0000
0010
0000
0100
0000
,
1000
0000
0000
0000
0002
0000
0000
0000
1000
0000
0000
0000
0103
0000
0010
0000
1000
0000
0000
0000
0001
0000
0000
0000
0022
0033
0000
0000
0000
0000
0000
0000
,
2200
3300
0000
0000
0000
0000
0000
0000
2000
0000
0000
0000
0100
0000
0000
0000
3002
0000
0000
0000
0010
0000
0000
0000
1003
0000
0000
0000
0010
0000
0100
0000
,
0001
0000
0000
0000
0100
0000
0000
0000
0010
0000
0000
0000
2000
0000
0100
0000
0000
0000
3001
0000
0100
0000
0010
0000
2000
3000
0000
0000
0001
0000
0000
0000
,
2002
3003
0000
0000
0000
0000
0000
0000
1000
0000
0000
0000
0100
0000
0010
0000
0002
0000
0000
0000
1000
0000
0000
0000
0103
0000
0000
0000
0001
0000
1000
0000
,
0010
0000
1000
0001
0010
0000
0001
1000
0010
0000
1000
0100
0010
0100
0010
0001
,
2000
0000
3001
0201
0000
0310
1000
2010
,
0000
3001
0010
0220
0000
0330
MMMM
0000
,
2002
3003
0000
0000
0000
0000
0000
0000
0001
0000
0000
0000
0100
0000
0010
0000
0200
0000
0000
0000
0010
0000
0000
0000
0302
0000
0000
0000
1000
0000
0000
0000
,
0000
0000
0000
0000
0013
0000
0000
0000
0100
0000
0000
0000
0010
0000
0100
0000
1000
0000
0000
0000
0002
0000
0000
0000
0020
0030
0000
0000
0000
0000
0000
0000
,
2003
0000
0000
0000
3010
0000
0100
0010
0100
0000
0001
0000
1000
0001
1000
0001
,
1000
0000
0000
0000
0100
0000
0000
0000
0010
0000
0000
0000
0002
0000
0100
0000
0000
0000
1003
0000
0100
0000
0010
0000
0002
0003
0000
0000
1000
0000
0000
0000
,
0020
0000
1000
0000
0130
0001
0000
0001
,
0020
0000
0001
0000
0130
1000
0001
0100
,
0210
0000
0310
2001
0000
3100
0010
0220
,
0000
0000
0000
0000
,
0000
0000
0000
0000
,
0330
0000
0000
0000
;

//---------------dance-single - Soflan Per Second----------------
#NOTEDATA:;
#CHARTNAME:;
#STEPSTYPE:dance-single;
#DESCRIPTION:Soflan Per Second;
#CHARTSTYLE:;
#DIFFICULTY:Edit;
#METER:15;
#RADARVALUES:0.650562,0.824288,0.330733,0.814111,0.284091,537.000000,498.000000,39.000000,96.000000,16.000000,0.000000,0.000000,0.000000,0.000000,0.650562,0.824288,0.330733,0.814111,0.284091,537.000000,498.000000,39.000000,96.000000,16.000000,0.000000,0.000000,0.000000,0.000000;
#CREDIT:;
#OFFSET:-2.035000;
#BPMS:0.000000=177.000000
;
#STOPS:;
#DELAYS:;
#WARPS:;
#TIMESIGNATURES:0.000000=4=4
;
#TICKCOUNTS:0.000000=4
;
#COMBOS:0.000000=1
;
#SPEEDS:0.000000=1.000000=0.000000=0
;
#SCROLLS:0.000000=0.500000
,22.000000=1.000000
,60.000000=0.500000
,64.000000=1.000000
,88.000000=0.500000
,92.000000=0.000000
,92.500000=2.000000
,92.750000=0.000000
,93.250000=2.000000
,93.500000=0.000000
,94.000000=2.000000
,94.250000=0.000000
,94.750000=2.000000
,95.250000=1.000000
,95.500000=0.500000
,120.000000=1.000000
,127.000000=2.000000
,127.250000=1.000000
,127.500000=0.500000
,152.000000=1.000000
,176.000000=0.500000
,192.000000=1.000000
,208.000000=0.500000
,220.500000=0.000000
,221.000000=2.000000
,221.250000=0.000000
,221.750000=2.000000
,222.000000=0.000000
,222.500000=2.000000
,223.000000=1.000000
,223.250000=0.500000
,252.000000=0.250000
,255.000000=2.000000
,255.250000=1.000000
,255.500000=0.500000
,256.000000=1.000000
,287.000000=2.000000
,287.250000=1.000000
,287.500000=0.500000
,312.000000=1.000000
;
#FAKES:;
#LABELS:0.000000=Song Start
;
#NOTES:
0000
0000
0000
0000
,
0000
0000
0000
0000
,
0000
0000
0000
0000
,
0000
0000
0000
0000
,
2002
0000
0000
0000
,
0000
0000
0000
0000
3003
0000
0000
0000
0001
0000
1000
0001
0010
0100
0010
0100
,
2000
0000
3000
0022
0000
0033
0000
2020
,
0000
3030
0000
0202
0000
0000
0303
0000
,
1001
0000
0001
1000
0100
1000
0001
0000
,
0001
1000
0010
1000
0100
0000
0010
0001
,
1000
0000
1000
0001
0100
0001
1000
0000
,
1000
0001
0010
0001
0200
0000
0320
0000
,
1030
0000
0000
0000
0010
0000
0100
0000
0001
0000
1000
0000
0100
0000
0010
0001
,
1000
0000
0010
0000
1000
0001
1000
0001
0010
0000
0100
1000
0000
0001
0100
0000
,
0010
0000
0010
0100
0001
1000
0100
0000
,
0020
0000
0000
0000
,
0031
0100
0010
0000
0010
0000
0100
0001
,
0010
0001
0010
0100
1000
0001
0100
0001
,
1000
0100
0010
0000
0010
0000
0100
1000
,
0010
1000
0010
0100
0001
1000
0100
0000
,
0010
0001
1000
0010
1000
0001
0010
0001
,
0100
0010
1000
0100
0010
0001
0100
0010
,
2000
0000
0000
3000
,
1100
0000
0000
0011
0000
0000
0101
0000
0000
1010
0000
0000
MMMM
0000
0000
0000
,
2002
3003
0000
0000
0000
0000
0000
0000
2000
0000
0000
0000
0100
0000
0000
0000
0000
0000
0000
0000
3001
0000
0000
0000
0010
0000
0000
0000
0100
0000
1000
0000
,
0001
0000
0000
0000
0100
0000
0000
0000
0100
0000
0000
0000
0001
0000
0100
0000
0010
0000
0000
0000
1000
0000
0000
0000
0200
0300
0000
0000
0000
0000
0000
0000
,
0022
0033
0000
0000
0000
0000
0000
0000
2000
0000
0000
0000
0010
0000
0000
0000
0000
0000
0000
0000
3001
0000
0000
0000
0100
0000
0000
0000
0001
0000
1000
0000
,
0001
0000
0000
0000
0010
0000
0000
0000
0100
0000
0000
0000
2000
0000
0010
0000
0000
0000
3001
0000
0010
0000
0100
0000
2000
3000
0000
0000
0001
0000
0000
0000
,
2002
3003
0000
0000
0000
0000
0000
0000
0002
0000
0000
0000
0100
0000
0000
0000
0000
0000
0000
0000
1003
0000
0000
0000
0010
0000
0000
0000
0100
0000
0001
0000
,
1000
0000
0100
0000
0100
0000
1000
0100
0010
0000
0001
1000
0010
0100
0010
0100
,
0002
0000
1003
1200
0000
0310
0001
0012
,
0000
1003
0010
0220
0000
0330
MMMM
0000
,
2002
3003
0000
0000
0000
0000
0000
0000
0001
0000
0000
0000
0100
0000
0010
0000
0200
0000
0000
0000
0010
0000
0000
0000
0302
0000
0000
0000
1000
0000
0000
0000
,
0000
0000
0000
0000
0013
0000
0000
0000
0100
0000
0000
0000
0010
0000
0100
0000
1000
0000
0000
0000
0001
0000
0000
0000
0200
0300
0000
0000
0000
0000
0000
0000
,
2020
3030
0000
0000
0000
0000
0000
0000
0001
0000
0000
0000
0010
0000
0100
0000
0010
0000
0000
0000
0100
0000
0000
0000
1000
0000
0001
0000
1000
0000
0001
0000
,
1000
0000
0000
0000
0010
0000
0000
0000
0100
0000
0000
0000
0002
0000
0010
0000
0000
0000
1003
0000
0010
0000
0100
0000
0002
0003
0000
0000
1000
0000
0000
0000
,
2002
3003
0000
0000
0000
0000
0000
0000
1000
0000
0000
0000
0100
0000
0010
0000
0200
0000
0000
0000
0010
0000
0000
0000
2300
0000
0000
0000
0001
0000
0000
0000
,
0000
0000
3010
0000
0100
0000
0010
0100
0001
0000
1000
0000
0100
0000
0000
0000
,
0120
0000
0031
1002
0000
0103
0010
2010
,
0000
0000
3100
0000
0010
0000
0012
0000
0000
1000
0000
0000
0103
0000
0010
0000
,
1000
0001
1000
0100
0010
0100
1000
0010
,
0100
0000
1000
0000
0100
0000
0001
0000
2000
0000
0000
0000
3001
0000
0010
0100
,
0010
0100
1000
0010
0100
0001
1000
0100
,
0010
1000
0010
0001
2000
3000
0002
0003
,
1001
0000
0000
0000
0001
0000
0100
0000
0000
0000
0010
0000
1000
0000
0001
0010
,
0001
0000
1000
0000
0001
0100
0001
0100
0010
0000
1000
0001
0000
0010
0100
0000
,
1000
0000
0001
0010
0000
0001
0100
0000
,
0010
1000
0000
0001
0010
0100
2000
0000
,
3001
1000
0001
0100
0010
0100
0001
0010
,
0100
0000
0001
0000
0100
0000
1000
0000
0002
0000
0000
0000
1003
0000
0010
0100
,
0010
0100
0001
0010
0100
1000
0001
0100
,
0010
0001
0010
1000
0002
0003
2000
3000
,
1001
0000
0000
0000
1000
0000
0100
0000
0000
0000
0010
0000
0001
0000
1000
0010
,
1000
0000
0001
0000
1000
0100
1000
0100
0010
0000
0001
1000
0000
0010
0100
0000
,
0001
0000
1000
0010
0000
1000
0100
0010
,
0000
0000
0011
0000
0000
1100
0000
0000
1010
0000
0000
0201
0000
0000
0000
0000
,
0310
1000
0001
0000
0002
0000
0003
0010
,
0000
0100
0000
1000
0001
1000
0000
0010
,
0000
0100
0001
0000
0002
0000
0003
1000
,
0000
0100
0000
1000
0010
0100
0001
0000
,
0010
0001
1000
0000
2000
0000
3000
0010
,
0000
0100
0000
0001
1000
0001
0000
0010
,
0200
0000
0000
0000
,
2000
0000
3300
MMMM
,
2002
3003
0000
0000
0000
0000
0000
0000
0002
0000
0000
0000
0100
0000
0000
0000
2003
0000
0000
0000
0010
0000
0000
0000
3001
0000
0000
0000
0010
0000
0100
0000
,
1000
0000
0000
0000
0002
0000
0000
0000
1000
0000
0000
0000
0103
0000
0010
0000
1000
0000
0000
0000
0001
0000
0000
0000
0022
0033
0000
0000
0000
0000
0000
0000
,
2200
3300
0000
0000
0000
0000
0000
0000
2000
0000
0000
0000
0100
0000
0000
0000
3002
0000
0000
0000
0010
0000
0000
0000
1003
0000
0000
0000
0010
0000
0100
0000
,
0001
0000
0000
0000
0100
0000
0000
0000
0010
0000
0000
0000
2000
0000
0100
0000
0000
0000
3001
0000
0100
0000
0010
0000
2000
3000
0000
0000
0001
0000
0000
0000
,
2002
3003
0000
0000
0000
0000
0000
0000
1000
0000
0000
0000
0100
0000
0010
0000
0002
0000
0000
0000
1000
0000
0000
0000
0103
0000
0000
0000
0001
0000
1000
0000
,
0010
0000
1000
0001
0010
0000
0001
1000
0010
0000
1000
0100
0010
0100
0010
0001
,
2000
0000
3001
0201
0000
0310
1000
2010
,
0000
3001
0010
0220
0000
0330
MMMM
0000
,
2002
3003
0000
0000
0000
0000
0000
0000
0001
0000
0000
0000
0100
0000
0010
0000
0200
0000
0000
0000
0010
0000
0000
0000
0302
0000
0000
0000
1000
0000
0000
0000
,
0000
0000
0000
0000
0013
0000
0000
0000
0100
0000
0000
0000
0010
0000
0100
0000
1000
0000
0000
0000
0002
0000
0000
0000
0020
0030
0000
0000
0000
0000
0000
0000
,
2003
0000
0000
0000
3010
0000
0100
0010
0100
0000
0001
0000
1000
0001
1000
0001
,
1000
0000
0000
0000
0100
0000
0000
0000
0010
0000
0000
0000
0002
0000
0100
0000
0000
0000
1003
0000
0100
0000
0010
0000
0002
0003
0000
0000
1000
0000
0000
0000
,
0020
0000
1000
0000
0130
0001
0000
0001
,
0020
0000
0001
0000
0130
1000
0001
0100
,
0210
0000
0310
2001
0000
3100
0010
0220
,
0000
0000
0000
0000
,
0000
0000
0000
0000
,
0330
0000
0000
0000
;

//---------------dance-double - ----------------
#NOTEDATA:;
#CHARTNAME:;
#STEPSTYPE:dance-double;
#DESCRIPTION:;
#CHARTSTYLE:;
#DIFFICULTY:Challenge;
#METER:15;
#RADARVALUES:0.642082,0.824288,0.322252,0.814111,0.284091,530.000000,492.000000,38.000000,96.000000,32.000000,0.000000,0.000000,0.000000,0.000000,0.642082,0.824288,0.322252,0.814111,0.284091,530.000000,492.000000,38.000000,96.000000,32.000000,0.000000,0.000000,0.000000,0.000000;
#CREDIT:;
#NOTES:
// measure 0
00000000
00000000
00000000
00000000
,  // measure 1
00000000
00000000
00000000
00000000
,  // measure 2
00000000
00000000
00000000
00000000
,  // measure 3
00000000
00000000
00000000
00000000
,  // measure 4
00022000
00000000
00000000
00000000
,  // measure 5
00000000
00000000
00000000
00000000
00033000
00000000
00000000
00000000
00001000
00000000
00100000
00001000
00010000
00001000
00010000
00001000
,  // measure 6
02000000
00000000
03000000
00020200
00000000
00030300
00000000
00202000
,  // measure 7
00000000
00303000
00000000
00020020
00000000
00000000
00030030
00000000
,  // measure 8
00011000
00000000
00001000
00100000
00010000
00100000
00001000
00000000
,  // measure 9
00001000
01000000
00100000
01000000
00001000
00000000
00010000
00001000
,  // measure 10
00010000
00000000
00010000
00000010
00001000
00000010
00010000
00000000
,  // measure 11
00010000
00000100
00000010
00000100
00020000
00000000
00032000
00000000
,  // measure 12
01003000
00000000
00000000
00000000
00010000
00000000
01000000
00000000
00100000
00000000
10000000
00000000
00010000
00000000
10000000
01000000
,  // measure 13
00100000
00000000
00010000
00000000
00100000
00001000
00100000
00001000
00010000
00000000
00000010
00010000
00000000
00000010
00001000
00000000
,  // measure 14
00000100
00000000
00000100
00001000
00000001
00000100
00000010
00000000
,  // measure 15
00000200
00000000
00000000
00000000
,  // measure 16
00000310
00001000
00000100
00000000
00000100
00000000
00000010
00002000
,  // measure 17
00000000
00003020
00000000
00000130
00001000
00000010
00010000
00001000
,  // measure 18
00100000
00010000
01000000
00000000
01000000
00000000
00100000
00020000
,  // measure 19
00000000
00230000
00000000
01300000
00010000
00100000
00001000
00000000
,  // measure 20
00010000
01000000
10000000
00010000
10000000
00100000
00010000
00001000
,  // measure 21
00000100
00000001
00001000
00000001
00000010
00001000
00010000
00000000
,  // measure 22
00022000
00000000
00000000
00033000
,  // measure 23
01001000
00000000
00000000
00011000
00000000
00000000
00010100
00000000
00000000
00011000
00000000
00000000
MMMMMMMM
00000000
00000000
00000000
,  // measure 24
00022000
00033000
00000000
00000000
00000000
00000000
00000000
00000000
00010000
00000000
00000000
00000000
00000020
00000000
00000000
00000000
00000000
00000000
00000000
00000000
00000130
00000000
00000000
00000000
00000010
00000000
00000000
00000000
00001000
00000000
00000001
00000000
,  // measure 25
00001000
00000000
00000000
00000000
00000100
00000000
00000000
00000000
00000010
00000000
00000000
00000000
00000001
00000000
00001000
00000000
00000001
00000000
00000000
00000000
00000100
00000000
00000000
00000000
00002000
00003000
00000000
00000000
00000000
00000000
00000000
00000000
,  // measure 26
00022000
00033000
00000000
00000000
00000000
00000000
00000000
00000000
00001000
00000000
00000000
00000000
00200000
00000000
00000000
00000000
00000000
00000000
00000000
00000000
01300000
00000000
00000000
00000000
00100000
00000000
00000000
00000000
00010000
00000000
10000000
00000000
,  // measure 27
00010000
00000000
00000000
00000000
01000000
00000000
00000000
00000000
00100000
00000000
00000000
00000000
02000000
00000000
00001000
00000000
00000000
00000000
03010000
00000000
00100000
00000000
00010000
00000000
00200000
00300000
00000000
00000000
00001000
00000000
00000000
00000000
,  // measure 28
00022000
00033000
00000000
00000000
00000000
00000000
00000000
00000000
00010000
00000000
00000000
00000000
00000200
00000000
00000000
00000000
00000000
00000000
00000000
00000000
00000310
00000000
00000000
00000000
00000100
00000000
00000000
00000000
00001000
00000000
00000001
00000000
,  // measure 29
00001000
00000000
00000010
00000000
00000100
00000000
00000001
00001000
00000001
00000000
00000010
00000100
00001000
00000100
00001000
00000100
,  // measure 30
00020000
00000000
00031000
00102000
00000000
00013000
00000010
00020010
,  // measure 31
00000000
00031000
00010000
00022000
00000000
00033000
MMMMMMMM
00000000
,  // measure 32
00022000
00033000
00000000
00000000
00000000
00000000
00000000
00000000
00001000
00000000
00000000
00000000
00100000
00000000
01000000
00000000
00100000
00000000
00000000
00000000
01000000
00000000
00000000
00000000
10000000
00000000
00000000
00000000
00200000
00000000
00000000
00000000
,  // measure 33
00000000
00000000
00000000
00000000
10300000
00000000
00000000
00000000
00100000
00000000
00000000
00000000
10000000
00000000
01000000
00000000
10000000
00000000
00000000
00000000
01000000
00000000
00000000
00000000
00020000
00030000
00000000
00000000
00000000
00000000
00000000
00000000
,  // measure 34
00022000
00033000
00000000
00000000
00000000
00000000
00000000
00000000
00001000
00000000
00000000
00000000
00000010
00000000
00000100
00000000
00000010
00000000
00000000
00000000
00000001
00000000
00000000
00000000
00001000
00000000
00000001
00000000
00001000
00000000
00000001
00000000
,  // measure 35
00001000
00000000
00000000
00000000
00000010
00000000
00000000
00000000
00000100
00000000
00000000
00000000
00000020
00000000
00010000
00000000
00000000
00000000
00001030
00000000
00000010
00000000
00001000
00000000
00000020
00000030
00000000
00000000
00010000
00000000
00000000
00000000
,  // measure 36
00022000
00033000
00000000
00000000
00000000
00000000
00000000
00000000
00001000
00000000
00000000
00000000
01000000
00000000
00100000
00000000
01000000
00000000
00000000
00000000
00100000
00000000
00000000
00000000
10000000
00000000
00000000
00000000
02000000
00000000
00000000
00000000
,  // measure 37
00000000
00000000
13000000
00000000
01000000
00000000
10000000
00100000
10000000
00000000
00100000
00000000
00010000
00000000
00000000
00000000
,  // measure 38
00012000
00000000
01003000
02001000
00000000
03001000
00010000
00021000
,  // measure 39
00000000
00000000
00030100
00000000
00001000
00000000
00002100
00000000
00000000
00000001
00000000
00000000
00003010
00000000
00000100
00000000
,  // measure 40
00000001
00001000
00000001
00000010
00000100
00000010
00000001
00001000
,  // measure 41
00000001
00000000
00000100
00000000
00001000
00000000
00010000
00000000
00200000
00000000
00000000
00000000
10300000
00000000
00010000
10000000
,  // measure 42
00010000
00100000
00010000
10000000
00100000
10000000
01000000
00100000
,  // measure 43
00010000
00001000
00000100
00000010
00000002
00000003
00002000
00003000
,  // measure 44
00001001
00000000
00000000
00000000
00001000
00000000
00000010
00000000
00000000
00000000
00001000
00000000
00000100
00000000
00000010
00000001
,  // measure 45
00000010
00000000
00000100
00000000
00001000
00000010
00001000
00000010
00010000
00000000
00001000
00100000
00000000
00010000
00100000
00000000
,  // measure 46
01000000
00000000
00100000
00001000
00000000
00010000
00100000
00000000
,  // measure 47
01000000
00010000
00000000
01000000
00010000
10000000
02000000
00000000
,  // measure 48
13000000
00010000
10000000
00100000
01000000
00100000
10000000
00010000
,  // measure 49
10000000
00000000
01000000
00000000
00010000
00000000
00001000
00000000
00000020
00000000
00000000
00000000
00000031
00000000
00001000
00000001
,  // measure 50
00001000
00000010
00001000
00000001
00000010
00000001
00000100
00000010
,  // measure 51
00001000
00010000
01000000
00100000
20000000
30000000
00020000
00030000
,  // measure 52
10010000
00000000
00000000
00000000
00010000
00000000
00100000
00000000
00000000
00000000
00010000
00000000
01000000
00000000
00100000
10000000
,  // measure 53
00100000
00000000
01000000
00000000
00010000
00100000
00010000
00100000
00001000
00000000
00010000
00000010
00000000
00001000
00000010
00000000
,  // measure 54
00000100
00000000
00000010
00010000
00000000
00001000
00000010
00000100
,  // measure 55
00000000
00000000
00001100
00000000
00000000
00011000
00000000
00000000
01001000
00000000
00000000
00021000
00000000
00000000
00000000
00000000
,  // measure 56
00031000
00100000
00010000
00000000
00020000
00000000
00030000
00100000
,  // measure 57
00000000
00010000
00000000
01000000
00001000
00010000
00000000
00010000
,  // measure 58
00000000
00000010
00001000
00000000
00002000
00000000
00003000
00000010
,  // measure 59
00000000
00001000
00000000
00000100
00010000
00001000
01000000
00000000
,  // measure 60
00001000
00100000
00010000
00000000
00020000
00000000
00030000
01000000
,  // measure 61
00000000
00100000
00000000
01000000
00001000
00010000
00000000
00010000
,  // measure 62
00002000
00000000
00000000
00000000
,  // measure 63
00020000
00000000
00033000
MMMMMMMM
,  // measure 64
00022000
00033000
00000000
00000000
00000000
00000000
00000000
00000000
00002000
00000000
00000000
00000000
00010000
00000000
00000000
00000000
00203000
00000000
00000000
00000000
00010000
00000000
00000000
00000000
00301000
00000000
00000000
00000000
01000000
00000000
00010000
00000000
,  // measure 65
01000000
00000000
00000000
00000000
00020000
00000000
00000000
00000000
01000000
00000000
00000000
00000000
10030000
00000000
00010000
00000000
10000000
00000000
00000000
00000000
01000000
00000000
00000000
00000000
00020000
00030000
00000000
00000000
00000000
00000000
00000000
00000000
,  // measure 66
00022000
00033000
00000000
00000000
00000000
00000000
00000000
00000000
00020000
00000000
00000000
00000000
00001000
00000000
00000000
00000000
00030020
00000000
00000000
00000000
00001000
00000000
00000000
00000000
00010030
00000000
00000000
00000000
00001000
00000000
00010000
00000000
,  // measure 67
00000100
00000000
00000000
00000000
00000010
00000000
00000000
00000000
00000100
00000000
00000000
00000000
00002000
00000000
00000001
00000000
00000000
00000000
00003010
00000000
00001000
00000000
00000010
00000000
00020000
00030000
00000000
00000000
00001000
00000000
00000000
00000000
,  // measure 68
00022000
00033000
00000000
00000000
00000000
00000000
00000000
00000000
00001000
00000000
00000000
00000000
00010000
00000000
00000010
00000000
00020000
00000000
00000000
00000000
00001000
00000000
00000000
00000000
00030100
00000000
00000000
00000000
00000010
00000000
00000100
00000000
,  // measure 69
00001000
00000000
00000100
00010000
00001000
00000000
00010000
00001000
01000000
00000000
00100000
01000000
00010000
01000000
00010000
01000000
,  // measure 70
00002000
00000000
00013000
00020010
00000000
00031000
00100000
00102000
,  // measure 71
00000000
00013000
00001000
00022000
00000000
00033000
MMMMMMMM
00000000
,  // measure 72
00022000
00033000
00000000
00000000
00000000
00000000
00000000
00000000
00010000
00000000
00000000
00000000
00000010
00000000
00000100
00000000
00000010
00000000
00000000
00000000
00000100
00000000
00000000
00000000
00000001
00000000
00000000
00000000
00000020
00000000
00000000
00000000
,  // measure 73
00000000
00000000
00000000
00000000
00000031
00000000
00000000
00000000
00000010
00000000
00000000
00000000
00000001
00000000
00000100
00000000
00000001
00000000
00000000
00000000
00000100
00000000
00000000
00000000
00002000
00003000
00000000
00000000
00000000
00000000
00000000
00000000
,  // measure 74
00020000
00000000
00000000
00000000
01030000
00000000
00100000
01000000
00100000
00000000
00010000
00000000
10000000
00010000
10000000
00010000
,  // measure 75
01000000
00000000
00000000
00000000
00100000
00000000
00000000
00000000
01000000
00000000
00000000
00000000
00020000
00000000
10000000
00000000
00000000
00000000
00130000
00000000
00010000
00000000
00100000
00000000
00002000
00003000
00000000
00000000
00010000
00000000
00000000
00000000
,  // measure 76
00002000
00000000
00000000
00000000
00003100
00000010
00000100
00001000
,  // measure 77
00020000
00000000
00000000
00000000
01030000
00100000
01000000
00010000
,  // measure 78
00002000
00000000
00013000
00010020
00000000
00010030
00001000
00202000
,  // measure 79
00000000
00000000
00000000
00000000
,  // measure 80
00000000
00000000
00000000
00000000
,  // measure 81
00303000
00000000
00000000
00000000
;

//---------------dance-double - Emotional Damage Per Second----------------
#NOTEDATA:;
#CHARTNAME:;
#STEPSTYPE:dance-double;
#DESCRIPTION:Emotional Damage Per Second;
#CHARTSTYLE:;
#DIFFICULTY:Edit;
#METER:15;
#RADARVALUES:0.642082,0.824288,0.322252,0.814111,0.284091,530.000000,492.000000,38.000000,96.000000,32.000000,0.000000,0.000000,0.000000,0.000000,0.642082,0.824288,0.322252,0.814111,0.284091,530.000000,492.000000,38.000000,96.000000,32.000000,0.000000,0.000000,0.000000,0.000000;
#CREDIT:;
#OFFSET:-2.035000;
#BPMS:0.000000=177.000000
;
#STOPS:;
#DELAYS:;
#WARPS:;
#TIMESIGNATURES:0.000000=4=4
;
#TICKCOUNTS:0.000000=4
;
#COMBOS:0.000000=1
;
#SPEEDS:0.000000=1.000000=0.000000=0
;
#SCROLLS:0.000000=0.500000
,22.000000=1.000000
,60.000000=0.500000
,64.000000=1.000000
,88.000000=0.500000
,92.000000=0.000000
,92.500000=2.000000
,92.750000=0.000000
,93.250000=2.000000
,93.500000=0.000000
,94.000000=2.000000
,94.250000=0.000000
,94.750000=2.000000
,95.250000=1.000000
,95.500000=0.500000
,120.000000=1.000000
,127.000000=2.000000
,127.250000=1.000000
,127.500000=0.500000
,152.000000=1.000000
,176.000000=0.500000
,192.000000=1.000000
,208.000000=0.500000
,220.500000=0.000000
,221.000000=2.000000
,221.250000=0.000000
,221.750000=2.000000
,222.000000=0.000000
,222.500000=2.000000
,223.000000=1.000000
,223.250000=0.500000
,252.000000=0.250000
,255.000000=2.000000
,255.250000=1.000000
,255.500000=0.500000
,256.000000=1.000000
,287.000000=2.000000
,287.250000=1.000000
,287.500000=0.500000
,312.000000=1.000000
;
#FAKES:;
#LABELS:0.000000=Song Start
;
#NOTES:
// measure 0
00000000
00000000
00000000
00000000
,  // measure 1
00000000
00000000
00000000
00000000
,  // measure 2
00000000
00000000
00000000
00000000
,  // measure 3
00000000
00000000
00000000
00000000
,  // measure 4
00022000
00000000
00000000
00000000
,  // measure 5
00000000
00000000
00000000
00000000
00033000
00000000
00000000
00000000
00001000
00000000
00100000
00001000
00010000
00001000
00010000
00001000
,  // measure 6
02000000
00000000
03000000
00020200
00000000
00030300
00000000
00202000
,  // measure 7
00000000
00303000
00000000
00020020
00000000
00000000
00030030
00000000
,  // measure 8
00011000
00000000
00001000
00100000
00010000
00100000
00001000
00000000
,  // measure 9
00001000
01000000
00100000
01000000
00001000
00000000
00010000
00001000
,  // measure 10
00010000
00000000
00010000
00000010
00001000
00000010
00010000
00000000
,  // measure 11
00010000
00000100
00000010
00000100
00020000
00000000
00032000
00000000
,  // measure 12
01003000
00000000
00000000
00000000
00010000
00000000
01000000
00000000
00100000
00000000
10000000
00000000
00010000
00000000
10000000
01000000
,  // measure 13
00100000
00000000
00010000
00000000
00100000
00001000
00100000
00001000
00010000
00000000
00000010
00010000
00000000
00000010
00001000
00000000
,  // measure 14
00000100
00000000
00000100
00001000
00000001
00000100
00000010
00000000
,  // measure 15
00000200
00000000
00000000
00000000
,  // measure 16
00000310
00001000
00000100
00000000
00000100
00000000
00000010
00002000
,  // measure 17
00000000
00003020
00000000
00000130
00001000
00000010
00010000
00001000
,  // measure 18
00100000
00010000
01000000
00000000
01000000
00000000
00100000
00020000
,  // measure 19
00000000
00230000
00000000
01300000
00010000
00100000
00001000
00000000
,  // measure 20
00010000
01000000
10000000
00010000
10000000
00100000
00010000
00001000
,  // measure 21
00000100
00000001
00001000
00000001
00000010
00001000
00010000
00000000
,  // measure 22
00022000
00000000
00000000
00033000
,  // measure 23
01001000
00000000
00000000
00011000
00000000
00000000
00010100
00000000
00000000
00011000
00000000
00000000
MMMMMMMM
00000000
00000000
00000000
,  // measure 24
00022000
00033000
00000000
00000000
00000000
00000000
00000000
00000000
00010000
00000000
00000000
00000000
00000020
00000000
00000000
00000000
00000000
00000000
00000000
00000000
00000130
00000000
00000000
00000000
00000010
00000000
00000000
00000000
00001000
00000000
00000001
00000000
,  // measure 25
00001000
00000000
00000000
00000000
00000100
00000000
00000000
00000000
00000010
00000000
00000000
00000000
00000001
00000000
00001000
00000000
00000001
00000000
00000000
00000000
00000100
00000000
00000000
00000000
00002000
00003000
00000000
00000000
00000000
00000000
00000000
00000000
,  // measure 26
00022000
00033000
00000000
00000000
00000000
00000000
00000000
00000000
00001000
00000000
00000000
00000000
00200000
00000000
00000000
00000000
00000000
00000000
00000000
00000000
01300000
00000000
00000000
00000000
00100000
00000000
00000000
00000000
00010000
00000000
10000000
00000000
,  // measure 27
00010000
00000000
00000000
00000000
01000000
00000000
00000000
00000000
00100000
00000000
00000000
00000000
02000000
00000000
00001000
00000000
00000000
00000000
03010000
00000000
00100000
00000000
00010000
00000000
00200000
00300000
00000000
00000000
00001000
00000000
00000000
00000000
,  // measure 28
00022000
00033000
00000000
00000000
00000000
00000000
00000000
00000000
00010000
00000000
00000000
00000000
00000200
00000000
00000000
00000000
00000000
00000000
00000000
00000000
00000310
00000000
00000000
00000000
00000100
00000000
00000000
00000000
00001000
00000000
00000001
00000000
,  // measure 29
00001000
00000000
00000010
00000000
00000100
00000000
00000001
00001000
00000001
00000000
00000010
00000100
00001000
00000100
00001000
00000100
,  // measure 30
00020000
00000000
00031000
00102000
00000000
00013000
00000010
00020010
,  // measure 31
00000000
00031000
00010000
00022000
00000000
00033000
MMMMMMMM
00000000
,  // measure 32
00022000
00033000
00000000
00000000
00000000
00000000
00000000
00000000
00001000
00000000
00000000
00000000
00100000
00000000
01000000
00000000
00100000
00000000
00000000
00000000
01000000
00000000
00000000
00000000
10000000
00000000
00000000
00000000
00200000
00000000
00000000
00000000
,  // measure 33
00000000
00000000
00000000
00000000
10300000
00000000
00000000
00000000
00100000
00000000
00000000
00000000
10000000
00000000
01000000
00000000
10000000
00000000
00000000
00000000
01000000
00000000
00000000
00000000
00020000
00030000
00000000
00000000
00000000
00000000
00000000
00000000
,  // measure 34
00022000
00033000
00000000
00000000
00000000
00000000
00000000
00000000
00001000
00000000
00000000
00000000
00000010
00000000
00000100
00000000
00000010
00000000
00000000
00000000
00000001
00000000
00000000
00000000
00001000
00000000
00000001
00000000
00001000
00000000
00000001
00000000
,  // measure 35
00001000
00000000
00000000
00000000
00000010
00000000
00000000
00000000
00000100
00000000
00000000
00000000
00000020
00000000
00010000
00000000
00000000
00000000
00001030
00000000
00000010
00000000
00001000
00000000
00000020
00000030
00000000
00000000
00010000
00000000
00000000
00000000
,  // measure 36
00022000
00033000
00000000
00000000
00000000
00000000
00000000
00000000
00001000
00000000
00000000
00000000
01000000
00000000
00100000
00000000
01000000
00000000
00000000
00000000
00100000
00000000
00000000
00000000
10000000
00000000
00000000
00000000
02000000
00000000
00000000
00000000
,  // measure 37
00000000
00000000
13000000
00000000
01000000
00000000
10000000
00100000
10000000
00000000
00100000
00000000
00010000
00000000
00000000
00000000
,  // measure 38
00012000
00000000
01003000
02001000
00000000
03001000
00010000
00021000
,  // measure 39
00000000
00000000
00030100
00000000
00001000
00000000
00002100
00000000
00000000
00000001
00000000
00000000
00003010
00000000
00000100
00000000
,  // measure 40
00000001
00001000
00000001
00000010
00000100
00000010
00000001
00001000
,  // measure 41
00000001
00000000
00000100
00000000
00001000
00000000
00010000
00000000
00200000
00000000
00000000
00000000
10300000
00000000
00010000
10000000
,  // measure 42
00010000
00100000
00010000
10000000
00100000
10000000
01000000
00100000
,  // measure 43
00010000
00001000
00000100
00000010
00000002
00000003
00002000
00003000
,  // measure 44
00001001
00000000
00000000
00000000
00001000
00000000
00000010
00000000
00000000
00000000
00001000
00000000
00000100
00000000
00000010
00000001
,  // measure 45
00000010
00000000
00000100
00000000
00001000
00000010
00001000
00000010
00010000
00000000
00001000
00100000
00000000
00010000
00100000
00000000
,  // measure 46
01000000
00000000
00100000
00001000
00000000
00010000
00100000
00000000
,  // measure 47
01000000
00010000
00000000
01000000
00010000
10000000
02000000
00000000
,  // measure 48
13000000
00010000
10000000
00100000
01000000
00100000
10000000
00010000
,  // measure 49
10000000
00000000
01000000
00000000
00010000
00000000
00001000
00000000
00000020
00000000
00000000
00000000
00000031
00000000
00001000
00000001
,  // measure 50
00001000
00000010
00001000
00000001
00000010
00000001
00000100
00000010
,  // measure 51
00001000
00010000
01000000
00100000
20000000
30000000
00020000
00030000
,  // measure 52
10010000
00000000
00000000
00000000
00010000
00000000
00100000
00000000
00000000
00000000
00010000
00000000
01000000
00000000
00100000
10000000
,  // measure 53
00100000
00000000
01000000
00000000
00010000
00100000
00010000
00100000
00001000
00000000
00010000
00000010
00000000
00001000
00000010
00000000
,  // measure 54
00000100
00000000
00000010
00010000
00000000
00001000
00000010
00000100
,  // measure 55
00000000
00000000
00001100
00000000
00000000
00011000
00000000
00000000
01001000
00000000
00000000
00021000
00000000
00000000
00000000
00000000
,  // measure 56
00031000
00100000
00010000
00000000
00020000
00000000
00030000
00100000
,  // measure 57
00000000
00010000
00000000
01000000
00001000
00010000
00000000
00010000
,  // measure 58
00000000
00000010
00001000
00000000
00002000
00000000
00003000
00000010
,  // measure 59
00000000
00001000
00000000
00000100
00010000
00001000
01000000
00000000
,  // measure 60
00001000
00100000
00010000
00000000
00020000
00000000
00030000
01000000
,  // measure 61
00000000
00100000
00000000
01000000
00001000
00010000
00000000
00010000
,  // measure 62
00002000
00000000
00000000
00000000
,  // measure 63
00020000
00000000
00033000
MMMMMMMM
,  // measure 64
00022000
00033000
00000000
00000000
00000000
00000000
00000000
00000000
00002000
00000000
00000000
00000000
00010000
00000000
00000000
00000000
00203000
00000000
00000000
00000000
00010000
00000000
00000000
00000000
00301000
00000000
00000000
00000000
01000000
00000000
00010000
00000000
,  // measure 65
01000000
00000000
00000000
00000000
00020000
00000000
00000000
00000000
01000000
00000000
00000000
00000000
10030000
00000000
00010000
00000000
10000000
00000000
00000000
00000000
01000000
00000000
00000000
00000000
00020000
00030000
00000000
00000000
00000000
00000000
00000000
00000000
,  // measure 66
00022000
00033000
00000000
00000000
00000000
00000000
00000000
00000000
00020000
00000000
00000000
00000000
00001000
00000000
00000000
00000000
00030020
00000000
00000000
00000000
00001000
00000000
00000000
00000000
00010030
00000000
00000000
00000000
00001000
00000000
00010000
00000000
,  // measure 67
00000100
00000000
00000000
00000000
00000010
00000000
00000000
00000000
00000100
00000000
00000000
00000000
00002000
00000000
00000001
00000000
00000000
00000000
00003010
00000000
00001000
00000000
00000010
00000000
00020000
00030000
00000000
00000000
00001000
00000000
00000000
00000000
,  // measure 68
00022000
00033000
00000000
00000000
00000000
00000000
00000000
00000000
00001000
00000000
00000000
00000000
00010000
00000000
00000010
00000000
00020000
00000000
00000000
00000000
00001000
00000000
00000000
00000000
00030100
00000000
00000000
00000000
00000010
00000000
00000100
00000000
,  // measure 69
00001000
00000000
00000100
00010000
00001000
00000000
00010000
00001000
01000000
00000000
00100000
01000000
00010000
01000000
00010000
01000000
,  // measure 70
00002000
00000000
00013000
00020010
00000000
00031000
00100000
00102000
,  // measure 71
00000000
00013000
00001000
00022000
00000000
00033000
MMMMMMMM
00000000
,  // measure 72
00022000
00033000
00000000
00000000
00000000
00000000
00000000
00000000
00010000
00000000
00000000
00000000
00000010
00000000
00000100
00000000
00000010
00000000
00000000
00000000
00000100
00000000
00000000
00000000
00000001
00000000
00000000
00000000
00000020
00000000
00000000
00000000
,  // measure 73
00000000
00000000
00000000
00000000
00000031
00000000
00000000
00000000
00000010
00000000
00000000
00000000
00000001
00000000
00000100
00000000
00000001
00000000
00000000
00000000
00000100
00000000
00000000
00000000
00002000
00003000
00000000
00000000
00000000
00000000
00000000
00000000
,  // measure 74
00020000
00000000
00000000
00000000
01030000
00000000
00100000
01000000
00100000
00000000
00010000
00000000
10000000
00010000
10000000
00010000
,  // measure 75
01000000
00000000
00000000
00000000
00100000
00000000
00000000
00000000
01000000
00000000
00000000
00000000
00020000
00000000
10000000
00000000
00000000
00000000
00130000
00000000
00010000
00000000
00100000
00000000
00002000
00003000
00000000
00000000
00010000
00000000
00000000
00000000
,  // measure 76
00002000
00000000
00000000
00000000
00003100
00000010
00000100
00001000
,  // measure 77
00020000
00000000
00000000
00000000
01030000
00100000
01000000
00010000
,  // measure 78
00002000
00000000
00013000
00010020
00000000
00010030
00001000
00202000
,  // measure 79
00000000
00000000
00000000
00000000
,  // measure 80
00000000
00000000
00000000
00000000
,  // measure 81
00303000
00000000
00000000
00000000
;
