#VERSION:0.83;
#TITLE:大見解;
#SUBTITLE:;
#ARTIST:Des-ROW feat. TSUBOI for ALPHA;
#TITLETRANSLIT:DAIKENKAI;
#SUBTITLETRANSLIT:;
#ARTISTTRANSLIT:;
#GENRE:Hip-Rock;
#ORIGIN:;
#CREDIT:;
#BANNER:DAIKENKAI.png;
#BACKGROUND:DAIKENKAI-bg.png;
#PREVIEWVID:;
#JACKET:DAIKENKAI-jacket.png;
#CDIMAGE:;
#DISCIMAGE:;
#LYRICSPATH:;
#CDTITLE:cdtitle.png;
#MUSIC:DAIKENKAI.ogg;
#OFFSET:-1.236090;
#SAMPLESTART:60.928722;
#SAMPLELENGTH:11.162792;
#SELECTABLE:YES;
#DISPLAYBPM:143.000000:172.000000;
#BPMS:0.000=143.000,
114.000=172.000;
#STOPS:;
#DELAYS:;
#WARPS:;
#TIMESIGNATURES:0.000=4=4;
#TICKCOUNTS:0.000=4;
#COMBOS:0.000=1;
#SPEEDS:0.000=1.000=0.000=0;
#SCROLLS:0.000=1.000;
#FAKES:;
#LABELS:0.000=Song Start;
#BGCHANGES:-2.750=DAIKENKAI.avi=1.000=1=0=1===CrossFade==,
268.000=DAIKENKAI-bg.png=1.000=1=0=1===CrossFade==,
99999=-nosongbg-=1.000=0=0=0 // don't automatically add -songbackground-
;
#KEYSOUNDS:;
#ATTACKS:
;

//---------------dance-single - ----------------
#NOTEDATA:;
#CHARTNAME:;
#STEPSTYPE:dance-single;
#DESCRIPTION:;
#CHARTSTYLE:;
#DIFFICULTY:Challenge;
#METER:15;
#RADARVALUES:0.795121,0.837655,0.620485,0.138915,0.449157,601.000000,534.000000,67.000000,15.000000,0.000000,0.000000,0.000000,0.000000,0.000000,0.795121,0.837655,0.620485,0.138915,0.449157,601.000000,534.000000,67.000000,15.000000,0.000000,0.000000,0.000000,0.000000,0.000000;
#CREDIT:;
#DISPLAYBPM:143.000000:172.000000;
#NOTES:
// measure 0
0000
0000
0000
0000
,  // measure 1
1100
0000
1000
0010
1010
0000
0001
0011
,  // measure 2
0000
1000
2010
0000
3100
0010
0001
0000
,  // measure 3
0101
0000
0001
0010
0011
0000
1000
1010
,  // measure 4
0000
1000
0002
0010
2003
0010
3100
0000
,  // measure 5
1000
0100
0100
0010
0100
1000
1001
0000
,  // measure 6
1000
0000
0010
0000
0010
0000
0100
0010
1000
0000
0001
0000
1001
0000
0000
0000
,  // measure 7
1000
0000
0100
0000
0100
0000
0010
0100
1000
0000
0001
0000
0100
0000
0010
0000
,  // measure 8
1010
1000
1001
0001
0011
0000
1000
0000
,  // measure 9
0001
0100
0100
0010
0100
0001
1001
0000
,  // measure 10
0001
0000
0010
0000
0010
0000
0100
0010
0001
0000
1000
0000
1001
0000
0000
0000
,  // measure 11
0001
0000
0100
0000
0100
0000
0010
0100
0001
0000
1000
0000
0100
0000
0010
0000
,  // measure 12
0011
0001
1001
1000
1010
0000
0001
0001
,  // measure 13
1000
0000
0100
0000
0010
0000
0001
0000
1000
0000
0001
0100
0010
0000
1000
0001
,  // measure 14
1000
0001
1000
0000
0100
0000
0010
0000
0110
0000
0000
0000
0001
1000
0001
0000
,  // measure 15
1000
0000
0010
0100
0001
0000
1000
0100
0010
0000
0000
0000
0001
0000
1000
0001
,  // measure 16
1000
0010
0100
0001
1000
0000
0001
0000
0010
0000
0000
0000
1001
0000
0000
0000
,  // measure 17
1000
0000
0001
0100
0010
0100
0010
1000
0100
0000
0000
0000
0010
0100
1000
0000
,  // measure 18
0001
0100
0010
0100
0001
1000
0001
1000
0100
0000
0010
0001
0100
0000
0000
0000
,  // measure 19
0110
0000
0000
1000
0010
0000
0100
0000
0010
1000
0010
1000
0100
0000
0000
0000
,  // measure 20
0010
0100
0000
0010
0000
0100
0010
0001
0100
0000
0010
1000
0001
1000
0100
0010
,  // measure 21
0002
0000
0010
0000
2003
0000
0010
0000
3001
0010
0001
0000
1000
0000
0002
0000
,  // measure 22
0100
0000
2003
0000
0100
0000
3001
0100
0001
0100
0010
0000
1010
0000
1001
0000
,  // measure 23
2000
0000
0100
0000
3001
0100
0010
0000
1000
0000
0001
0000
1000
0100
0010
0001
,  // measure 24
0010
0100
1000
0001
1000
0010
0100
0000
0002
0000
0100
0000
1003
0000
0000
0000
,  // measure 25
1001
0000
0001
0010
0001
1000
0010
1000
0100
0000
0000
0000
0110
0000
1001
0000
,  // measure 26
1000
0010
1000
0000
0001
0010
0000
0001
0100
0000
0000
0000
0010
0000
0010
0000
,  // measure 27
1000
0001
0010
0000
0001
1000
0010
1000
0100
0000
0000
0000
0010
0100
0010
0001
,  // measure 28
1000
0000
0001
0100
0010
1000
0100
0010
0001
0000
0000
0000
1001
0000
0001
0000
,  // measure 29
0100
0000
0000
0000
,  // measure 30
0000
0000
0000
0000
,  // measure 31
0000
0000
0000
0000
,  // measure 32
0000
0000
0000
0000
,  // measure 33
2001
0000
3100
0010
0002
0000
0103
0010
,  // measure 34
0000
1000
0100
0010
0011
1000
1001
0000
,  // measure 35
0001
0100
0001
0100
0010
1000
0100
0010
,  // measure 36
0000
0001
0100
0010
1010
0001
1001
0000
,  // measure 37
1000
0100
0100
0010
0100
1000
1001
0000
,  // measure 38
1000
0000
0010
0000
0010
0000
0100
0010
1000
0000
0001
0000
1001
0000
0000
0000
,  // measure 39
1000
0000
0100
0000
0100
0000
0010
0100
1000
0000
0001
0000
0100
0000
0010
0000
,  // measure 40
1010
1000
1001
0001
0011
0000
1100
1000
,  // measure 41
0001
0100
0100
0010
0100
0001
1001
0000
,  // measure 42
0001
0000
0010
0000
0010
0000
0100
0010
0001
0000
1000
0000
1001
0000
0000
0000
,  // measure 43
0001
0000
0100
0000
0100
0000
0010
0100
0001
0000
1000
0000
0100
0000
0010
0000
,  // measure 44
0011
0001
1001
1000
1010
0000
0101
0001
,  // measure 45
1000
0000
0100
0000
0001
0000
0100
0010
0100
0000
1000
0000
1100
0000
0000
0000
,  // measure 46
0001
0000
0100
0000
1000
0000
0100
0010
0100
0000
0001
0000
0101
0000
0000
0000
,  // measure 47
1000
0001
0010
0000
0100
1000
0001
1000
0010
0000
0100
0000
0110
0000
0000
0000
,  // measure 48
0010
0000
0100
0010
0100
0000
0110
0000
1001
0000
0000
0000
0001
0000
1000
0000
,  // measure 49
0001
0000
0010
0000
1000
0000
0010
0100
0010
0000
0001
0000
0011
0000
0000
0000
,  // measure 50
0001
1000
0010
0000
0001
0000
0010
0100
0010
0000
1000
0000
1010
0000
0000
0000
,  // measure 51
0002
0000
0100
0000
2003
0000
0100
0000
3001
0000
0100
0000
0110
0000
0100
0010
,  // measure 52
2000
0010
3002
0010
1003
0001
1001
0000
,  // measure 53
0001
0000
0100
0000
1000
0000
0100
0010
0100
0000
0001
0000
0101
0000
0000
0000
,  // measure 54
1000
0000
0100
0000
0001
0000
0100
0010
0100
0000
1000
0000
1100
0000
0000
0000
,  // measure 55
0001
1000
0010
0000
0100
0001
1000
0001
0010
0000
0100
0000
0110
0000
0000
0000
,  // measure 56
0010
0000
0100
0010
0100
0000
0110
0000
1001
0000
0000
0000
1000
0001
1000
0001
,  // measure 57
1000
0000
0010
0000
0001
0000
0010
0100
0010
0000
1000
0000
1010
0000
0000
0000
,  // measure 58
1000
0001
0010
0000
1000
0000
0010
0100
0010
0000
0001
0000
1000
0001
1000
0001
,  // measure 59
1000
0000
0010
0000
0100
0000
0010
0000
0001
0000
0010
0000
0110
0000
0010
1000
,  // measure 60
0001
0000
0001
0000
0010
0001
1000
0001
0100
0000
0010
0000
1010
0000
0000
0000
,  // measure 61
0001
0000
0010
0000
0100
0000
0010
0000
1000
0000
0010
0000
0110
0000
0010
0001
,  // measure 62
1000
0000
1000
0000
0010
1000
0001
1000
0100
0000
0010
0000
0011
0000
0000
0000
,  // measure 63
0001
0000
0100
0000
0010
0000
0100
0000
1000
0000
0100
0000
0110
0000
0010
0100
,  // measure 64
0001
0000
0001
0000
0010
0100
1000
0001
0100
0000
0010
0000
1010
0000
0000
0000
,  // measure 65
1000
0000
0100
0000
0010
0000
0100
0000
0001
0000
0100
0000
0110
0000
0010
0100
,  // measure 66
1000
0001
0000
1000
0000
0010
0100
0000
0001
1000
0100
0010
0100
0000
0110
0000
,  // measure 67
1001
0000
0000
0000
;

//---------------dance-single - ----------------
#NOTEDATA:;
#CHARTNAME:;
#STEPSTYPE:dance-single;
#DESCRIPTION:;
#CHARTSTYLE:;
#DIFFICULTY:Hard;
#METER:12;
#RADARVALUES:0.592702,0.558437,0.175958,0.092610,0.000000,448.000000,429.000000,19.000000,10.000000,0.000000,0.000000,0.000000,0.000000,0.000000,0.592702,0.558437,0.175958,0.092610,0.000000,448.000000,429.000000,19.000000,10.000000,0.000000,0.000000,0.000000,0.000000,0.000000;
#CREDIT:;
#DISPLAYBPM:143.000000:172.000000;
#NOTES:
// measure 0
0000
0000
0000
0000
,  // measure 1
1001
0000
1000
0100
0020
0000
0031
2000
,  // measure 2
0000
3001
0200
0000
0000
0310
1000
0000
,  // measure 3
1001
0000
0001
0100
0020
0000
1030
0100
,  // measure 4
0000
0010
0001
0010
0001
0100
0020
0000
,  // measure 5
1030
0010
1000
0010
1000
0100
0010
0000
,  // measure 6
0100
1000
0010
1000
0100
1000
0010
0000
,  // measure 7
1000
0010
0100
0001
0010
0100
1000
0001
,  // measure 8
0100
0010
0100
0010
2020
0000
3030
0000
,  // measure 9
0001
0010
0001
0010
0001
0100
0010
0000
,  // measure 10
0100
0001
0010
0001
0100
0001
0010
0000
,  // measure 11
0001
0010
0100
1000
0010
0100
0001
1000
,  // measure 12
0100
0010
0100
0010
0022
0000
0033
0000
,  // measure 13
0001
0100
0010
1000
0010
1000
0100
0010
,  // measure 14
0001
1000
0010
1000
0100
0000
0010
0001
,  // measure 15
1000
0001
0010
0001
0100
0000
0010
1000
,  // measure 16
0001
1000
0010
1000
0100
0000
1001
0000
,  // measure 17
0001
0100
0001
0100
1000
0000
0100
0001
,  // measure 18
1000
0010
1000
0010
1000
0100
0001
0000
,  // measure 19
1100
0000
0001
0010
0001
0010
1000
0000
,  // measure 20
0010
0001
1000
0010
0001
0000
0010
1000
,  // measure 21
0001
0010
0001
1000
0010
1000
0100
0010
,  // measure 22
0001
1000
0010
0100
0001
0010
1000
0010
,  // measure 23
0001
1000
0010
0100
0001
1000
0100
1000
,  // measure 24
0001
0100
0001
0010
0001
1000
0010
0000
,  // measure 25
1000
0100
0001
0100
0110
0000
0100
1000
,  // measure 26
0001
0100
1000
0100
0110
0000
0100
0001
,  // measure 27
1000
0010
0001
0010
0110
0000
0010
1000
,  // measure 28
0001
0010
1000
0010
0110
0000
0010
0001
,  // measure 29
1000
0000
0000
0000
,  // measure 30
0000
0000
0000
0000
,  // measure 31
0000
0000
0000
0000
,  // measure 32
0000
0000
0000
0000
,  // measure 33
0001
0101
1000
1100
,  // measure 34
0001
0011
1000
1010
,  // measure 35
0001
0010
0001
0010
0100
1000
0100
1000
,  // measure 36
0001
0100
0020
0000
1030
0100
0010
0001
,  // measure 37
1000
0010
1000
0010
1000
0100
0010
0000
,  // measure 38
0100
1000
0010
1000
0100
1000
0010
0000
,  // measure 39
1000
0010
0100
0001
0010
0100
1000
0001
,  // measure 40
0100
0010
0100
0010
1000
0000
1010
0000
,  // measure 41
0001
0010
0001
0010
0001
0100
0010
0000
,  // measure 42
0100
0001
0010
0001
0100
0001
0010
0000
,  // measure 43
0001
0010
0100
1000
0010
0100
0001
1000
,  // measure 44
0100
0010
0100
0010
0001
0000
0011
0000
,  // measure 45
0001
0100
0001
0100
1000
0100
0010
0000
,  // measure 46
1000
0100
1000
0100
0001
0100
0010
0000
,  // measure 47
0001
0100
0010
1000
0001
1000
0100
0000
,  // measure 48
0001
0100
0010
0100
1000
0000
1100
0000
,  // measure 49
1000
0010
1000
0010
0001
0010
0100
0000
,  // measure 50
0001
0010
0001
0010
1000
0010
0100
0000
,  // measure 51
1000
0010
0100
0001
1000
0100
0010
0001
,  // measure 52
1000
1000
0010
0010
0100
0001
1000
0000
,  // measure 53
1000
0100
1000
0100
0001
0100
0010
0000
,  // measure 54
0001
0100
0001
0100
1000
0100
0010
0000
,  // measure 55
1000
0100
0010
0001
1000
0001
0100
0000
,  // measure 56
1000
0100
0010
0100
0001
0000
0101
0000
,  // measure 57
0001
0010
0001
0010
1000
0010
0100
0000
,  // measure 58
1000
0010
1000
0010
0001
0010
0100
0000
,  // measure 59
0010
1000
0001
1000
0010
1000
0100
0010
,  // measure 60
0001
1000
0010
1000
0001
0010
1000
0000
,  // measure 61
0010
0001
1000
0001
0010
0001
0100
0010
,  // measure 62
1000
0001
0010
0001
1000
0010
0001
0000
,  // measure 63
0010
0100
0001
1000
0100
0010
1000
0010
,  // measure 64
0001
1000
0100
0010
0001
0100
1000
0000
,  // measure 65
0100
0010
1000
0001
0010
0100
0001
0100
,  // measure 66
1000
0001
0100
0010
1000
1000
0001
0001
,  // measure 67
1001
0000
0000
0000
;

//---------------dance-single - ----------------
#NOTEDATA:;
#CHARTNAME:;
#STEPSTYPE:dance-single;
#DESCRIPTION:;
#CHARTSTYLE:;
#DIFFICULTY:Medium;
#METER:10;
#RADARVALUES:0.452465,0.465364,0.185219,0.120393,0.000000,342.000000,322.000000,20.000000,13.000000,0.000000,0.000000,0.000000,0.000000,0.000000,0.452465,0.465364,0.185219,0.120393,0.000000,342.000000,322.000000,20.000000,13.000000,0.000000,0.000000,0.000000,0.000000,0.000000;
#CREDIT:;
#DISPLAYBPM:143.000000:172.000000;
#NOTES:
0000
0000
0000
0000
,
2001
0000
3100
0000
0020
0000
0031
2000
,
0000
3001
0200
0000
0000
0310
1000
0000
,
1002
0000
0013
0000
0200
0000
1300
0002
,
0000
0103
0010
0110
,
1000
0000
1000
0000
0001
1000
0100
0000
,
1000
0000
1000
0000
0010
1000
0100
0000
,
1000
0010
1000
0000
0001
0010
0001
0000
,
1000
0001
0100
0010
2000
0000
3000
0000
,
0001
0000
0001
0000
1000
0001
0100
0000
,
0001
0000
0001
0000
0010
0001
0100
0000
,
0001
0010
0001
0000
1000
0010
1000
0000
,
0001
1000
0100
0010
0002
0000
0003
0000
,
1000
0000
0100
0000
0010
0001
1000
0000
,
0001
0100
0010
0000
1000
0000
0001
0000
,
0010
0100
0010
0000
0001
0000
1000
0000
,
0010
0100
0010
0000
1000
0000
1001
0000
,
0001
1000
0100
0000
0001
0000
0100
0000
,
1000
0001
1000
0001
0100
0000
1000
0000
,
0100
0000
0001
0000
1000
0001
0010
0000
,
0001
1000
0010
0000
1001
0000
0000
0000
,
0001
0010
0001
0000
1000
0010
1000
0000
,
0001
1000
0100
0010
0001
0000
0011
0000
,
1000
0001
0100
0000
0001
1000
0100
0000
,
0010
0001
0100
0010
1000
0000
1010
0000
,
0001
0010
1000
0000
0010
0000
0001
0000
,
1000
0010
0001
0000
0010
0000
1000
0000
,
0001
0100
1000
0000
0100
0000
0001
0000
,
1000
0100
0001
0000
0100
0000
0110
0000
,
1001
0000
0000
0000
,
0000
0000
0000
0000
,
0000
0000
0000
0000
,
0000
0000
0000
0000
,
1000
1000
0100
0100
,
0001
0001
0010
0010
,
1000
0100
0001
0010
,
1000
0010
0100
0001
,
1000
0000
1000
0000
0001
1000
0100
0000
,
1000
0000
1000
0000
0010
1000
0100
0000
,
1000
0010
1000
0000
0001
0010
0001
0000
,
1000
0001
0100
0010
2000
0000
0010
0000
,
3001
0000
0001
0000
1000
0001
0100
0000
,
0001
0000
0001
0000
0010
0001
0100
0000
,
0001
0010
0001
0000
1000
0010
1000
0000
,
0001
1000
0100
0010
0002
0000
0010
0000
,
1003
0000
0100
0000
0001
0100
1000
0000
,
0001
0000
0100
0000
1000
0100
0001
0000
,
1000
0000
1000
0000
0010
1000
0100
0000
,
0010
0001
0100
0000
0110
0000
0010
1000
,
0001
0000
0010
0000
1000
0010
0001
0000
,
1000
0000
0010
0000
0001
0010
1000
0000
,
0002
0010
2003
0010
,
3001
0010
0100
1000
0001
0000
1001
0000
,
0001
0000
0100
0000
1000
0100
0001
0000
,
1000
0000
0100
0000
0001
0100
1000
0000
,
0001
0000
0001
0000
0010
0001
0100
0000
,
0010
1000
0100
0000
0110
0000
0010
0001
,
1000
0000
0010
0000
0001
0010
1000
0000
,
0001
0000
0010
0000
1000
0010
0001
0000
,
0011
0000
0011
0000
0001
0010
0100
0000
,
0010
0001
0100
0000
0001
0100
0010
0000
,
1010
0000
1010
0000
1000
0010
0100
0000
,
0010
1000
0100
0000
1000
0100
0010
0000
,
0011
0000
1001
0000
0001
0100
0010
0000
,
1000
0100
0010
0000
0001
0100
0010
0000
,
1010
0000
1001
0000
1000
0100
0010
0000
,
0001
0100
0010
0000
1000
0100
0010
0001
,
0100
0000
0000
0000
;

//---------------dance-single - ----------------
#NOTEDATA:;
#CHARTNAME:;
#STEPSTYPE:dance-single;
#DESCRIPTION:;
#CHARTSTYLE:;
#DIFFICULTY:Easy;
#METER:6;
#RADARVALUES:0.289736,0.310243,0.092610,0.074088,0.000000,219.000000,209.000000,10.000000,8.000000,0.000000,0.000000,0.000000,0.000000,0.000000,0.289736,0.310243,0.092610,0.074088,0.000000,219.000000,209.000000,10.000000,8.000000,0.000000,0.000000,0.000000,0.000000,0.000000;
#CREDIT:;
#DISPLAYBPM:143.000000:172.000000;
#NOTES:
0000
0000
0000
0000
,
2000
0000
3200
0000
,
0320
0000
0031
1000
,
0002
0000
0000
0000
0203
0000
0000
0300
,
0000
0020
0230
0302
,
1003
1000
0100
0000
,
1000
0100
0010
0000
,
0100
1000
0100
1000
,
0010
0100
0001
0000
,
0001
0001
0100
0000
,
0001
0100
0010
0000
,
0100
0001
0100
0001
,
0010
0100
1000
0000
,
0001
0100
0010
1000
,
0010
0100
0001
0000
,
1000
0100
0010
0000
,
0100
0010
0001
1001
,
0001
0100
0010
0000
,
1000
1000
0010
1000
,
0100
0010
0001
0000
,
1000
0001
1001
0000
,
0001
0100
0001
0100
,
0010
1000
0001
0010
,
0100
1000
0100
1000
,
0001
0100
0010
1000
,
0001
0001
0010
0100
,
1000
1000
0010
0100
,
0001
0001
1000
0100
,
0010
0010
0001
1000
,
1001
0000
0000
0000
,
0000
0000
0000
0000
,
0000
0000
0000
0000
,
0000
0000
0000
0000
,
1000
0000
1000
0000
,
0001
0000
0001
0000
,
1000
0010
0100
0000
,
0010
0100
0001
0000
,
1000
1000
0100
0000
,
1000
0100
0010
0000
,
0100
1000
0100
1000
,
0010
0100
0110
0000
,
0001
0001
0100
0000
,
0001
0100
0010
0000
,
0100
0001
0100
0001
,
0010
0100
0110
0000
,
1000
0100
0001
0000
,
0001
0100
1000
0000
,
0100
1000
0010
0000
,
0100
0110
1001
0000
,
0001
0010
1000
0000
,
1000
0010
0001
0000
,
1000
1000
0001
0001
,
1000
0010
0100
0100
,
0001
0100
1000
0000
,
1000
0100
0001
0000
,
0100
0001
0010
0000
,
0100
0110
1001
0000
,
1000
0010
0001
0000
,
0001
0010
1000
0000
,
0001
0010
0100
1000
,
0001
0010
0100
1000
,
0001
0100
0010
1000
,
0001
0100
0010
1000
,
0001
0010
0100
1000
,
0001
0100
0010
1000
,
0100
0010
0001
0100
,
0010
1000
0100
0010
,
0110
0000
0000
0000
;

//---------------dance-single - ----------------
#NOTEDATA:;
#CHARTNAME:;
#STEPSTYPE:dance-single;
#DESCRIPTION:;
#CHARTSTYLE:;
#DIFFICULTY:Beginner;
#METER:3;
#RADARVALUES:0.187865,0.248194,0.111132,0.055566,0.000000,142.000000,130.000000,12.000000,6.000000,0.000000,0.000000,0.000000,0.000000,0.000000,0.187865,0.248194,0.111132,0.055566,0.000000,142.000000,130.000000,12.000000,6.000000,0.000000,0.000000,0.000000,0.000000,0.000000;
#CREDIT:;
#OFFSET:-1.236090;
#BPMS:0.000000=143.000000
,114.000000=172.000000
;
#STOPS:;
#DELAYS:;
#WARPS:;
#TIMESIGNATURES:0.000000=4=4
;
#TICKCOUNTS:0.000000=4
;
#COMBOS:0.000000=1
;
#SPEEDS:0.000000=1.000000=0.000000=0
;
#SCROLLS:0.000000=1.202797
,114.000000=1.000000
;
#FAKES:;
#LABELS:0.000000=Song Start
;
#DISPLAYBPM:143.000000:172.000000;
#NOTES:
0000
0000
0000
0000
,
2000
0000
3000
0000
,
0002
0000
0003
0000
,
2000
0000
3000
0000
,
0000
0001
0001
0000
,
1001
0000
0010
0000
,
1001
0000
0010
0000
,
1000
0000
0001
0000
,
1000
0000
0001
0000
,
1001
0000
0100
0000
,
1001
0000
0100
0000
,
0001
0000
1000
0000
,
0001
0000
1000
0000
,
0001
0000
0001
0000
,
0010
0000
0010
0000
,
0100
0000
0100
0000
,
1000
0000
1000
0000
,
0001
0000
0100
0000
,
0001
0000
0100
0000
,
0010
0000
1000
0000
,
0010
0000
1000
0000
,
0001
0000
0010
0000
,
0001
0000
1000
1000
,
1000
0000
0010
0000
,
1000
0000
0001
0001
,
0001
0000
1001
0000
,
0010
0000
1001
0000
,
0100
0000
1001
0000
,
2000
0000
3000
1000
,
1000
0000
0000
0000
,
0000
0000
0000
0000
,
0000
0000
0000
0000
,
0000
0000
0000
0000
,
2000
0000
3000
0000
,
0002
0000
0003
0000
,
1000
0000
1000
0000
,
0001
0000
0001
0000
,
1001
0000
0010
0000
,
1001
0000
0010
0000
,
1000
0000
0001
0000
,
1000
0000
0001
0000
,
1001
0000
0100
0000
,
1001
0000
0100
0000
,
0001
0000
1000
0000
,
0001
0000
1000
0000
,
0100
0000
0100
0000
,
0010
0000
0010
0000
,
0100
0000
0100
0000
,
1000
1000
1000
0000
,
0010
0000
0010
0000
,
1000
0000
1000
0000
,
0001
0001
0001
0000
,
1000
0000
0001
0000
,
0100
0000
0100
0000
,
0010
0000
0010
0000
,
0100
0000
0100
0000
,
0001
0001
0001
0000
,
0010
0000
0010
0000
,
0001
0000
0001
0000
,
0100
0000
0100
0000
,
0100
0100
0100
0000
,
0010
0000
0010
0000
,
0010
0010
0010
0000
,
1000
0000
1000
0000
,
1000
1000
1000
0000
,
0001
0000
0001
0000
,
0001
0001
0001
0000
,
1001
0000
0000
0000
;
