#VERSION:0.83;
#TITLE:Cyber Force;
#SUBTITLE:;
#ARTIST:Sota Fujimori feat.cyborg AKEMI;
#TITLETRANSLIT:;
#SUBTITLETRANSLIT:;
#ARTISTTRANSLIT:;
#GENRE:Cyborg Trance;
#ORIGIN:;
#CREDIT:;
#BANNER:Cyber Force.png;
#BACKGROUND:Cyber Force-bg.png;
#PREVIEWVID:;
#JACKET:Cyber Force-jacket.png;
#CDIMAGE:;
#DISCIMAGE:;
#LYRICSPATH:;
#CDTITLE:cdtitle.png;
#MUSIC:Cyber Force.ogg;
#OFFSET:-0.361930;
#SAMPLESTART:67.759186;
#SAMPLELENGTH:13.150688;
#SELECTABLE:YES;
#BPMS:0.000=146.000;
#STOPS:;
#DELAYS:;
#WARPS:;
#TIMESIGNATURES:0.000=4=4;
#TICKCOUNTS:0.000=4;
#COMBOS:0.000=1;
#SPEEDS:0.000=1.000=0.000=0;
#SCROLLS:0.000=1.000;
#FAKES:;
#LABELS:0.000=Song Start;
#BGCHANGES:-0.200=Cyber Force.mp4=1.000=1=0=1===CrossFade==,
99999=-nosongbg-=1.000=0=0=0 // don't automatically add -songbackground-
;
#KEYSOUNDS:;
#ATTACKS:
;

//---------------dance-single - ----------------
#NOTEDATA:;
#CHARTNAME:;
#STEPSTYPE:dance-single;
#DESCRIPTION:;
#CHARTSTYLE:;
#DIFFICULTY:Challenge;
#METER:14;
#RADARVALUES:0.553909,0.673436,0.089792,0.742821,0.469365,475.000000,464.000000,11.000000,91.000000,0.000000,0.000000,0.000000,0.000000,0.000000,0.553909,0.673436,0.089792,0.742821,0.469365,475.000000,464.000000,11.000000,91.000000,0.000000,0.000000,0.000000,0.000000,0.000000;
#CREDIT:;
#NOTES:
// measure 0
0000
0000
0000
0000
,  // measure 1
0000
0000
0000
0000
,  // measure 2
0000
0000
0000
0000
,  // measure 3
0000
0000
0000
0000
,  // measure 4
0000
0000
0000
0000
,  // measure 5
1000
0000
0100
0000
0010
0000
0000
0100
0010
0000
0100
0000
1000
0000
0000
0000
,  // measure 6
0001
0000
0100
0000
0010
0000
0000
0100
0010
0000
0100
0000
0001
0000
0000
0000
,  // measure 7
1000
0000
0001
0000
0010
0000
0000
0100
1000
0000
0001
0000
0100
0000
0000
0000
,  // measure 8
0010
0000
1000
0000
0001
0000
0000
1000
0100
0000
0010
0000
0110
0000
0000
0000
,  // measure 9
0002
0000
0000
0010
0000
0000
0010
0000
2003
0000
0000
0100
0000
0000
0100
0000
,  // measure 10
3002
0000
0003
0200
0000
0300
0020
0000
2030
0000
3001
1000
0001
0000
1000
0000
,  // measure 11
0200
0000
0000
0010
0000
0000
0010
0000
2300
0000
0000
0001
0000
0000
0001
0000
,  // measure 12
3020
0000
0030
0200
0000
0300
0001
0000
1001
0000
0000
0000
1000
0100
0010
0001
,  // measure 13
2000
0000
0000
0010
0000
0000
0010
0000
3002
0000
0000
0100
0000
0000
0100
0000
,  // measure 14
2003
0000
3000
0200
0000
0300
0020
0000
0032
0000
1003
0001
1000
0000
0001
0000
,  // measure 15
0200
0000
0000
0010
0000
0000
0010
0000
0302
0000
0000
1000
0000
0000
1000
0000
,  // measure 16
0013
0000
0000
0010
0000
0000
0100
1000
0000
0000
0001
0000
1000
0000
0010
0000
,  // measure 17
0100
0000
0000
0010
1000
0000
0010
0000
0100
0000
0020
0000
0032
0000
0023
0000
,  // measure 18
2030
0000
0001
3002
0000
0010
0023
0000
,  // measure 19
0230
0000
0010
2300
0000
0001
3020
0000
,  // measure 20
0130
0000
0000
0100
0010
0000
0100
0000
0002
0000
0000
0000
2003
0000
0000
0000
,  // measure 21
3200
0000
0000
0310
0100
0000
0010
0000
0001
0000
0000
0000
0001
0010
0001
0000
,  // measure 22
2000
0000
0000
3001
0100
0000
0010
0000
1000
0000
0000
0000
1000
0010
1000
0000
,  // measure 23
0200
0000
0001
0001
0000
0010
0010
0000
,  // measure 24
1300
0000
0000
1000
0010
0000
0100
0000
0001
0000
0000
0000
0001
1000
0001
1000
,  // measure 25
0100
0000
0000
0010
0001
0000
0010
0000
0100
0000
0020
0000
2030
0000
3020
0000
,  // measure 26
0032
0000
1000
2003
0000
0010
3020
0000
,  // measure 27
0230
0000
0010
0302
0000
1000
0023
0000
,  // measure 28
0130
0000
0000
0100
0010
0000
0100
0000
2000
0000
0000
0000
3002
0000
0000
0000
,  // measure 29
0203
0000
0000
0310
0100
0000
0010
0000
1000
0000
0000
0000
1000
0010
1000
0000
,  // measure 30
0002
0000
0000
1003
0100
0000
0010
0000
0001
0000
0000
0000
0001
0010
0001
0000
,  // measure 31
0200
0000
1000
1000
0000
0010
0010
0000
,  // measure 32
0301
0000
0000
0001
0010
0000
0100
0000
1000
0000
0000
0000
1000
0010
0100
0001
,  // measure 33
2000
0010
0000
0010
,  // measure 34
3002
0100
0000
0100
,  // measure 35
2003
0100
0000
0100
,  // measure 36
3002
0010
0000
0010
,  // measure 37
1003
0010
0100
0000
0001
1000
0100
0000
,  // measure 38
0010
0001
1000
0000
0001
0100
0010
0000
,  // measure 39
1000
0001
0010
0100
1000
0001
0100
0010
,  // measure 40
0220
0000
0000
0000
0000
0000
0000
0000
0330
0000
0000
0000
1000
0010
0000
1000
,  // measure 41
0002
0000
0013
0100
0010
0000
0100
0000
0002
0000
0003
0100
0020
0000
0230
0000
,  // measure 42
1300
0000
0001
1000
0001
0000
0200
0000
0310
0000
0000
0100
0010
0100
0001
0000
,  // measure 43
2000
0010
0000
3002
0010
0000
1003
0010
,  // measure 44
0100
0001
1000
0000
2001
0000
0000
0000
3100
0010
0100
0010
0001
1000
0001
1000
,  // measure 45
0020
0000
0130
0010
0100
0000
0010
0000
0002
0000
0003
0010
0200
0000
0320
0000
,  // measure 46
1030
0000
0001
1000
0001
0000
0020
0000
0130
0000
0000
0010
0100
1000
0001
0000
,  // measure 47
2000
0000
3000
0001
0100
0000
0010
0000
2000
0000
3001
0000
0020
0000
0032
0000
,  // measure 48
1003
0000
0010
0100
0001
0000
1002
0000
0000
0000
1003
0100
0010
0001
0010
0001
,  // measure 49
2000
0000
3010
0100
0010
0000
0100
0000
2000
0000
3000
0100
0020
0000
0230
0000
,  // measure 50
0301
0000
1000
0001
1000
0000
0200
0000
0310
0000
0000
0100
0010
0100
1000
0000
,  // measure 51
0002
0010
0000
2003
0010
0010
0000
3100
,  // measure 52
0010
0001
1000
0000
2001
0000
0000
0000
3010
0000
0010
0000
0100
0001
1000
0001
,  // measure 53
0020
0000
0130
0010
0100
0000
0010
0000
2000
0000
3000
0010
0200
0000
0320
0000
,  // measure 54
0031
0000
1000
0001
1000
0000
0020
0000
0130
0000
0000
0010
0100
0001
1000
0000
,  // measure 55
0002
0000
0003
1000
0100
0000
0010
0000
0002
0000
1003
0000
0020
0000
0130
0010
,  // measure 56
0200
0000
0000
0000
0000
0000
0000
0000
0000
0000
0000
0000
0310
1000
0000
1000
,  // measure 57
0001
0000
1000
0100
0000
1000
0100
0000
0010
0000
0100
0001
0000
0100
0001
0000
,  // measure 58
0100
0000
0010
0100
0000
1000
0001
0000
0100
0000
0010
1000
0000
0010
1000
0001
,  // measure 59
0010
0000
0100
1000
0000
1000
0001
0000
1000
0000
0010
1000
0000
1000
0001
0000
,  // measure 60
1001
0000
0000
0001
0010
0001
0100
0000
0010
0000
1000
0001
0000
0001
0010
0001
,  // measure 61
1000
0000
0001
0100
0000
0001
0100
0000
0010
0000
0100
1000
0000
0100
1000
0000
,  // measure 62
0100
0000
0010
0100
0000
0001
1000
0000
0100
0000
0010
0001
0000
0010
0001
1000
,  // measure 63
0010
0000
0100
0001
0000
0001
1000
0000
0001
0000
0010
0001
0000
0001
1000
0000
,  // measure 64
1010
0000
0000
0101
0000
0000
0011
0000
0011
0000
0010
0100
1000
0000
0000
0000
,  // measure 65
0002
0000
0000
0000
,  // measure 66
0203
0000
0320
0000
,  // measure 67
2030
0000
0000
0000
,  // measure 68
3001
0000
1000
0100
1000
0100
0010
0000
0001
0100
0001
0100
0010
0000
0000
0000
;

//---------------dance-single - ----------------
#NOTEDATA:;
#CHARTNAME:;
#STEPSTYPE:dance-single;
#DESCRIPTION:;
#CHARTSTYLE:;
#DIFFICULTY:Hard;
#METER:9;
#RADARVALUES:0.348671,0.420898,0.122443,0.514261,0.016326,299.000000,284.000000,15.000000,63.000000,0.000000,0.000000,0.000000,0.000000,0.000000,0.348671,0.420898,0.122443,0.514261,0.016326,299.000000,284.000000,15.000000,63.000000,0.000000,0.000000,0.000000,0.000000,0.000000;
#CREDIT:;
#NOTES:
0000
0000
0000
0000
,
0000
0000
0000
0000
,
0000
0000
0000
0000
,
0000
0000
0000
0000
,
0000
0000
0000
0000
,
1000
0100
0010
0001
,
1000
0010
0100
0001
,
1000
0100
0010
0001
,
1000
0000
1000
0000
0001
1000
0001
0000
,
2000
0010
3020
0100
,
0230
0001
0320
1000
,
0230
0001
0302
1000
,
1003
0000
0000
0010
0000
0000
1000
0000
0100
0000
0000
0000
0100
0000
0010
0000
,
0002
0010
0023
0100
,
0230
1000
0320
0001
,
0230
1000
2300
0001
,
3001
0000
0000
0010
0000
0000
0001
0000
0100
0000
0000
0000
0100
0000
0010
0000
,
2000
0000
3000
0000
1000
0010
0100
0010
,
2000
0000
0001
0001
0000
0100
3200
0000
,
0320
0000
0100
0100
0000
0001
0032
0000
,
1000
0000
0000
0000
0103
0010
1000
0000
,
2020
0000
3030
0000
1010
0000
0001
1000
,
0200
0000
0000
0310
0001
0000
1000
0001
,
0200
0000
1000
1000
0000
0010
0010
0000
,
0301
0000
0000
0001
0000
0000
0001
0000
1000
0000
0000
0000
0100
0000
0010
0000
,
0002
0000
0003
0000
0001
0010
0100
0010
,
0002
0000
1000
1000
0000
0100
0203
0000
,
0320
0000
0100
0100
0000
1000
2030
0000
,
0001
0000
0000
0000
3100
0010
0001
0000
,
0022
0000
0033
0000
0011
0000
1000
0001
,
0200
0000
0000
0310
1000
0000
0001
1000
,
0200
0000
0001
0001
0000
0010
0010
0000
,
1300
0000
0000
0001
0000
0000
1000
0000
0010
0000
0000
0000
0100
0000
0001
0000
,
2000
0010
0000
0010
,
3002
0100
0000
0100
,
2003
0100
0000
0100
,
3002
0010
0000
0010
,
1003
0010
0100
0001
,
0010
0100
1000
0001
,
0100
0010
1000
0000
0100
0010
0001
0000
,
0200
0000
0300
0110
,
2002
0000
3000
0000
1000
0000
0013
0100
,
2000
0000
0000
0000
0001
0000
3010
0100
,
0001
0001
0000
1000
1000
0000
0001
0010
,
1000
0000
0012
0000
1000
1000
1003
0000
,
2002
0000
3000
0000
1000
0000
0103
0010
,
2000
0000
0000
0000
0001
0000
3100
0010
,
0002
0000
1000
0000
0103
0000
0100
0010
,
2000
0000
3000
1002
0000
0013
0100
0010
,
2002
0000
0003
0000
0001
0000
3010
0100
,
0002
0000
0000
0000
1000
0000
0013
0100
,
1000
1000
0001
0000
0001
0001
1000
0010
,
0001
0000
2010
0000
0001
0001
3001
0000
,
2002
0000
0003
0000
0001
0000
3100
0010
,
0002
0000
0000
0000
1000
0000
0103
0010
,
2000
0000
0001
0000
3100
0010
0100
1000
,
2002
0000
0000
3003
,
1000
0010
1000
0000
0010
0100
0010
0000
,
1000
0010
1000
0000
0001
1000
0001
0000
,
1000
0100
0001
0000
0001
0100
1000
0000
,
0010
0000
1010
0000
0001
0001
1000
0000
,
0001
0010
0001
0000
0010
0100
0010
0000
,
0001
0010
0001
0000
1000
0001
1000
0000
,
0001
0100
1000
0000
1000
0100
0001
0000
,
0020
0000
0030
0000
0010
0010
1001
0000
,
0002
0000
0000
0000
,
0203
0000
0320
0000
,
2030
0000
0000
0000
,
3002
0023
2030
3100
;

//---------------dance-single - ----------------
#NOTEDATA:;
#CHARTNAME:;
#STEPSTYPE:dance-single;
#DESCRIPTION:;
#CHARTSTYLE:;
#DIFFICULTY:Medium;
#METER:6;
#RADARVALUES:0.209902,0.252539,0.040814,0.399980,0.000000,180.000000,175.000000,5.000000,49.000000,0.000000,0.000000,0.000000,0.000000,0.000000,0.209902,0.252539,0.040814,0.399980,0.000000,180.000000,175.000000,5.000000,49.000000,0.000000,0.000000,0.000000,0.000000,0.000000;
#CREDIT:;
#NOTES:
0000
0000
0000
0000
,
0000
0000
0000
0000
,
0000
0000
0000
0000
,
0000
0000
0000
0000
,
0000
0000
0000
0000
,
0001
0000
0010
0000
,
0100
0000
1000
0000
,
0010
0000
0100
0000
,
0001
0000
1001
1001
,
2000
0000
0100
0000
,
3002
0000
0010
0000
,
2003
0000
0001
0000
,
3020
0000
0000
0000
0130
0000
0001
1000
,
0002
0000
0100
0000
,
2003
0000
0010
0000
,
3002
0000
1000
0000
,
0023
0000
0000
0000
0130
0000
1000
0001
,
2000
3000
1000
0010
,
2000
0000
0000
0010
0000
0000
3002
0000
,
2003
0000
0000
0100
0000
0000
3002
0000
,
1000
0000
0103
0010
,
2000
0000
3001
1000
,
0200
0000
0310
0001
,
0200
0000
0000
1000
0000
0000
0010
0000
,
0302
0000
0000
0000
1003
0000
0001
1000
,
0002
0003
0001
0010
,
0002
0000
0000
0010
0000
0000
2003
0000
,
3002
0000
0000
0100
0000
0000
2003
0000
,
0001
0000
3100
0010
,
0002
0000
1003
0001
,
0200
0000
0310
1000
,
0200
0000
0000
0001
0000
0000
0010
0000
,
2300
0000
0000
0000
3001
0000
1000
0001
,
2000
0000
0000
0000
,
3200
0000
0000
0000
,
0320
0000
0000
0000
,
0032
0000
0000
0000
,
1003
0000
0001
0000
,
0100
0000
0010
0000
,
1000
0100
0010
0001
,
2002
0000
3003
1001
,
2000
0000
0010
0010
,
3002
0000
0100
0000
,
2003
0000
0100
0001
,
3010
0000
1000
0000
0001
1000
0001
0000
,
0020
0000
0100
0100
,
0032
0000
1000
0000
,
0203
0000
1000
0010
,
0301
0000
0000
0000
1000
0001
1000
0000
,
0002
0000
0010
0010
,
2003
0000
0100
0000
,
3002
0000
0100
1000
,
0013
0000
0001
0000
1000
0001
1000
0000
,
0020
0000
0100
0100
,
2030
0000
0001
0000
,
3200
0000
0001
0010
,
2000
0000
3300
1100
,
0001
0100
0010
0000
,
0100
0001
1000
0000
,
0001
0010
0100
0000
,
1000
0000
1000
0000
0010
0100
0001
0000
,
1000
0100
0010
0000
,
0100
1000
0001
0000
,
1000
0010
0100
0000
,
0001
0000
0001
0000
0010
0100
1000
0000
,
0002
0000
0000
0000
,
0203
0000
0000
0000
,
0320
0000
0000
0000
,
2030
0000
0001
3100
;

//---------------dance-single - ----------------
#NOTEDATA:;
#CHARTNAME:;
#STEPSTYPE:dance-single;
#DESCRIPTION:;
#CHARTSTYLE:;
#DIFFICULTY:Easy;
#METER:4;
#RADARVALUES:0.152762,0.196419,0.024489,0.236723,0.000000,131.000000,128.000000,3.000000,29.000000,0.000000,0.000000,0.000000,0.000000,0.000000,0.152762,0.196419,0.024489,0.236723,0.000000,131.000000,128.000000,3.000000,29.000000,0.000000,0.000000,0.000000,0.000000,0.000000;
#CREDIT:;
#NOTES:
0000
0000
0000
0000
,
0000
0000
0000
0000
,
0000
0000
0000
0000
,
0000
0000
0000
0000
,
0000
0000
0000
0000
,
1000
0000
1000
0000
,
0001
0000
0001
0000
,
1000
0000
0001
0000
,
1000
0000
0001
0000
,
1000
0000
1000
0000
,
0100
0000
0100
0000
,
0010
0000
0010
0000
,
0001
0000
1000
2000
,
3001
0000
0001
0000
,
0100
0000
0100
0000
,
0010
0000
0010
0000
,
1000
0000
0001
0001
,
1001
0000
0000
1000
,
2000
0000
0100
0000
,
3002
0000
0010
0000
,
1003
0000
0010
0010
,
0020
0000
0030
0000
,
2000
0000
0010
0000
,
3002
0000
0100
0000
,
1003
0000
1000
2000
,
3001
0000
0000
0001
,
0002
0000
0100
0000
,
2003
0000
0010
0000
,
3001
0000
0010
0010
,
0020
0000
0030
0000
,
0002
0000
0010
0000
,
2003
0000
0100
0000
,
3001
0000
1000
0002
,
1003
0000
0000
0000
,
0000
0000
0000
0000
,
0000
0000
0000
0000
,
0000
0000
0000
0000
,
1000
0000
1000
0000
,
0001
0000
0001
0000
,
1000
0000
0001
0000
,
2002
0000
0000
3003
,
0002
0000
0010
0000
,
2003
0000
0010
0000
,
3001
0000
0010
0010
,
0010
0000
0001
1000
,
0002
0000
0100
0000
,
2003
0000
0100
0000
,
3001
0000
0100
0100
,
0100
0000
0010
0010
,
2000
0000
0010
0000
,
3002
0000
0010
0000
,
1003
0000
0010
0010
,
0010
0000
1000
0001
,
2000
0000
0100
0000
,
3002
0000
0100
0000
,
1003
0000
0100
0000
,
2002
0000
0000
3003
,
1000
0000
0010
0000
,
0100
0000
0001
0000
,
0010
0000
0100
0000
,
1000
0000
0001
1000
,
0001
0000
0100
0000
,
0010
0000
1000
0000
,
0100
0000
0010
0000
,
0001
0000
1000
0001
,
2000
0000
0000
0000
,
3020
0000
0000
0000
,
0230
0000
0000
0000
,
0302
0000
0000
0013
;

//---------------dance-single - ----------------
#NOTEDATA:;
#CHARTNAME:;
#STEPSTYPE:dance-single;
#DESCRIPTION:;
#CHARTSTYLE:;
#DIFFICULTY:Beginner;
#METER:1;
#RADARVALUES:0.067635,0.084180,0.000000,0.212235,0.000000,58.000000,58.000000,0.000000,26.000000,0.000000,0.000000,0.000000,0.000000,0.000000,0.067635,0.084180,0.000000,0.212235,0.000000,58.000000,58.000000,0.000000,26.000000,0.000000,0.000000,0.000000,0.000000,0.000000;
#CREDIT:;
#NOTES:
0000
0000
0000
0000
,
0000
0000
0000
0000
,
0000
0000
0000
0000
,
0000
0000
0000
0000
,
0000
0000
0000
0000
,
1000
0000
0000
0000
,
1000
0000
0000
0000
,
0001
0000
0000
0000
,
0001
0000
0000
0000
,
1000
0000
0000
0000
,
0100
0000
0000
0000
,
0010
0000
0000
0000
,
0001
0000
0000
0000
,
0001
0000
0000
0000
,
0100
0000
0000
0000
,
0010
0000
0000
0000
,
1000
0000
0000
0000
,
0100
0000
0000
0000
,
0020
0000
0030
0000
,
0200
0000
0300
0000
,
2000
0000
3000
0000
,
0002
0000
0003
0000
,
2000
0000
3000
0000
,
0020
0000
0000
0000
,
0030
0000
0000
0000
,
0100
0000
0000
0000
,
0020
0000
0030
0000
,
0200
0000
0300
0000
,
0002
0000
0003
0000
,
2000
0000
3000
0000
,
0002
0000
0003
0000
,
0020
0000
0000
0000
,
0030
0000
0000
0000
,
0010
0000
0000
0000
,
0000
0000
0000
0000
,
0000
0000
0000
0000
,
0000
0000
0000
0000
,
0001
0000
0000
0000
,
1000
0000
0000
0000
,
0001
0000
0000
0000
,
1000
0000
0000
0000
,
0002
0000
0003
0000
,
0200
0000
0300
0000
,
0020
0000
0030
0000
,
0010
0000
0000
0000
,
0200
0000
0300
0000
,
0002
0000
0003
0000
,
2000
0000
3000
0000
,
0001
0000
0000
0000
,
2000
0000
3000
0000
,
0200
0000
0300
0000
,
0020
0000
0030
0000
,
0010
0000
0000
0000
,
0200
0000
0300
0000
,
2000
0000
3000
0000
,
0002
0000
0003
0000
,
0100
0000
0000
0000
,
0010
0000
0000
0000
,
1000
0000
0000
0000
,
0001
0000
0000
0000
,
0010
0000
0000
0000
,
0100
0000
0000
0000
,
1000
0000
0000
0000
,
0001
0000
0000
0000
,
0100
0000
0000
0000
,
0020
0000
0000
0000
,
0030
0000
0000
0000
,
0200
0000
0000
0000
,
0300
0000
0000
0100
;
