#VERSION:0.83;
#TITLE:Chariot;
#SUBTITLE:;
#ARTIST:USAO;
#TITLETRANSLIT:;
#SUBTITLETRANSLIT:;
#ARTISTTRANSLIT:;
#GENRE:Bass House;
#ORIGIN:;
#CREDIT:;
#BANNER:Chariot.png;
#BACKGROUND:Chariot-bg.png;
#PREVIEWVID:;
#JACKET:Chariot-jacket.png;
#CDIMAGE:;
#DISCIMAGE:;
#LYRICSPATH:;
#CDTITLE:cdtitle.png;
#MUSIC:Chariot.ogg;
#OFFSET:-0.702910;
#SAMPLESTART:23.203087;
#SAMPLELENGTH:14.999998;
#SELECTABLE:YES;
#BPMS:0.000=128.000;
#STOPS:;
#DELAYS:;
#WARPS:;
#TIMESIGNATURES:0.000=4=4;
#TICKCOUNTS:0.000=4;
#COMBOS:0.000=1;
#SPEEDS:0.000=1.000=0.000=0;
#SCROLLS:0.000=1.000,
12.000=2.000,
12.250=1.000,
12.500=0.500,
14.500=1.000,
44.000=2.000,
44.250=1.000,
44.500=0.500,
46.000=0.666,
46.500=0.833,
47.000=1.000,
108.000=2.000,
108.250=1.000,
108.500=0.500,
110.000=0.666,
110.500=0.833,
111.000=1.000,
144.000=0.500,
146.000=0.550,
148.000=0.600,
150.000=0.650,
152.000=0.700,
154.000=0.750,
156.000=0.800,
158.000=0.850,
160.000=0.900,
164.000=0.950,
168.000=1.000,
172.000=2.000,
172.250=1.000,
172.500=0.500,
174.000=0.600,
174.500=0.700,
175.000=0.800,
175.500=0.900,
176.000=1.000,
268.000=2.000,
268.250=1.000,
268.500=0.500,
270.000=0.666,
270.500=0.833,
271.000=1.000;
#FAKES:;
#LABELS:0.000=Song Start;
#BGCHANGES:;
#KEYSOUNDS:;
#ATTACKS:
;

//---------------dance-single - ----------------
#NOTEDATA:;
#CHARTNAME:;
#STEPSTYPE:dance-single;
#DESCRIPTION:;
#CHARTSTYLE:;
#DIFFICULTY:Challenge;
#METER:16;
#RADARVALUES:0.762104,0.812911,0.283921,0.605200,1.109534,714.000000,676.000000,38.000000,81.000000,0.000000,0.000000,0.000000,0.000000,0.000000,0.762104,0.812911,0.283921,0.605200,1.109534,714.000000,676.000000,38.000000,81.000000,0.000000,0.000000,0.000000,0.000000,0.000000;
#CREDIT:;
#NOTES:
// measure 0
0000
0000
0000
0000
,  // measure 1
0000
0000
0000
0000
,  // measure 2
0000
0000
0000
0000
,  // measure 3
0220
0000
0000
0000
0330
0000
0000
0000
0000
0000
1001
0000
0001
0010
0100
1000
,  // measure 4
0001
0000
0000
0000
2000
0000
0010
0000
3001
1000
0100
0010
0000
0100
0010
0000
,  // measure 5
0001
0000
0002
0000
0010
0000
0010
0000
1003
0001
0100
0010
0000
0100
0010
0000
,  // measure 6
2010
0000
0000
3100
0000
0010
0001
0000
0012
0000
0000
0103
0000
0010
1000
0010
,  // measure 7
0100
0000
0001
1000
0200
0000
0000
0001
0000
0001
0000
0310
0100
0000
1000
0000
,  // measure 8
1001
0000
0000
0000
1000
0010
0100
0001
0000
0001
1000
0100
0000
0100
0010
0001
,  // measure 9
0000
1000
0010
0100
0000
0100
0001
0010
0000
0010
0100
1000
0001
0000
1000
0001
,  // measure 10
0200
0000
0000
0000
1300
0100
0010
0100
0002
1000
0000
0010
0000
1003
0010
0100
,  // measure 11
0202
0000
0000
0000
0303
0000
0000
0000
2000
0000
3200
0000
0310
0001
1000
0010
,  // measure 12
0100
0001
1000
0100
1000
0001
0100
0001
0010
0100
0010
0001
0100
0010
1000
0001
,  // measure 13
0010
0100
0010
0100
1000
0001
0100
0010
0001
0000
0010
0100
0001
1000
0100
0010
,  // measure 14
0002
0000
0010
0010
0000
1003
0000
0001
0100
0010
1000
0001
0010
0000
0100
0010
,  // measure 15
0001
1000
0001
0100
0020
1000
0000
1000
0000
0130
0001
0000
1002
0000
0013
0000
,  // measure 16
0100
1000
0001
0100
0001
1000
0100
1000
0010
0100
0010
1000
0100
0010
0001
1000
,  // measure 17
0010
0100
0010
0100
0001
1000
0100
0010
1000
0000
0010
0100
1000
0001
0100
0010
,  // measure 18
2000
0000
0010
0010
0000
3001
0000
1000
0100
0010
0001
1000
0010
0100
0010
0100
,  // measure 19
0001
1000
0100
0010
0001
0010
0100
1000
0001
0100
0001
0100
0010
0000
0000
0000
,  // measure 20
2010
0000
0010
0000
3001
0000
0000
0000
0001
1000
0100
0000
0001
0100
0010
0100
,  // measure 21
1000
0000
0010
0200
0000
0000
0301
1000
0100
0000
0010
0100
1000
0000
0001
0100
,  // measure 22
0010
0000
0110
0000
1001
0000
0000
0000
0001
0010
0000
0010
0100
0000
0010
0001
,  // measure 23
1000
0010
0000
0010
1000
0001
0010
0001
2000
0010
0000
3100
0000
0000
0110
0000
,  // measure 24
0012
0000
1000
0000
0103
0000
0000
0000
2010
0000
0001
0000
3100
0000
0010
0001
,  // measure 25
1000
0001
0100
0000
1000
0100
0010
0100
0001
0000
0010
0200
0000
0000
1300
0001
,  // measure 26
0100
0010
1000
0000
2001
0000
3000
0100
0010
0100
1000
0001
0100
0000
0010
0000
,  // measure 27
0220
0000
0000
0000
0330
0000
0000
0000
0002
0000
0203
0000
0310
1000
0001
0010
,  // measure 28
0100
0100
0000
0010
0100
0000
1000
0000
2100
0000
3000
0000
0102
0000
0003
0000
,  // measure 29
1000
0010
0100
0001
1000
0000
0100
0000
2100
0000
3000
0000
0102
0000
0003
0000
,  // measure 30
0100
0100
0000
0010
0100
0000
0001
0000
0102
0000
0003
0000
2100
0000
3000
0000
,  // measure 31
0102
0000
0003
0000
2100
0000
3000
0000
0102
0000
0003
0000
1000
0100
0010
0001
,  // measure 32
1000
1000
0000
0010
0100
0000
0001
0000
0102
0000
1003
0000
2100
0000
3001
0000
,  // measure 33
1000
0010
0100
0001
0010
0000
0100
0000
2100
0000
3001
0000
0102
0000
1003
0000
,  // measure 34
0001
0001
0000
0010
0100
0000
1000
0000
2001
0000
3010
0000
1002
0000
0013
0000
,  // measure 35
0100
0000
1000
0000
0001
0000
0100
0010
0000
0020
0000
0000
1030
0010
0100
0001
,  // measure 36
2000
0000
3200
0000
,  // measure 37
0320
0000
0032
0000
,  // measure 38
2003
0000
0000
0010
0000
0000
0001
0000
3002
0000
0000
0010
0000
0000
1000
0000
,  // measure 39
1003
0000
0010
0000
0100
0000
0001
1000
0000
2000
0000
0000
3001
0010
0100
1000
,  // measure 40
0001
0100
0000
0010
0000
0010
0000
0100
0000
0100
0000
0010
1000
0000
0001
0000
,  // measure 41
1000
0100
0000
0010
0000
0010
0000
0001
1000
0000
0010
0100
0000
0000
0001
0000
,  // measure 42
1000
0100
0000
0010
0000
0001
1000
0010
0100
0002
0000
1000
0000
0000
0013
0000
,  // measure 43
0220
0000
0330
0000
2000
3020
0230
0302
,  // measure 44
1003
0000
0000
0000
1002
0000
0013
0100
0010
0001
0000
0100
0000
0001
0100
0010
,  // measure 45
1000
0000
2000
0000
0010
0000
0010
0000
3100
0010
0100
0002
0000
0103
0010
0100
,  // measure 46
2000
0000
0001
0000
3010
0000
0100
0000
0102
0000
0000
1000
0000
0013
0100
1000
,  // measure 47
0001
0010
0001
1000
0010
0200
0000
1000
0000
1000
0000
0310
0100
0000
0001
0000
,  // measure 48
1001
0000
0000
0000
0001
0010
0100
0010
0000
1000
0010
0100
0000
0010
0001
1000
,  // measure 49
0000
0001
0100
0010
0000
0001
0010
0100
0000
0010
0100
0001
1000
0000
0001
1000
,  // measure 50
0200
0000
0000
0000
0301
0100
0010
0100
2000
0001
0000
0001
0000
3010
0100
0001
,  // measure 51
1000
0000
0000
0000
0001
0000
0000
0000
1000
0000
1001
0000
0001
0010
0100
1000
,  // measure 52
0001
0000
0200
0010
0000
0301
1000
0001
0010
0200
0000
0001
0000
0310
0001
0000
,  // measure 53
1000
0000
0020
0100
0000
1030
0001
1000
0100
0000
0010
0001
1000
0001
0100
0010
,  // measure 54
1000
0000
0020
0100
0000
1030
0001
1000
0100
0020
0000
1000
0000
0130
1000
0000
,  // measure 55
0001
0000
0100
0000
0010
0000
1000
0100
0000
0010
0000
0001
1000
0010
0100
0001
,  // measure 56
1000
0000
0200
0010
0000
1300
0001
1000
0010
0200
0000
1000
0000
0310
1000
0000
,  // measure 57
0001
0000
0020
0100
0000
0031
1000
0001
0100
0000
0010
1000
0001
1000
0100
0010
,  // measure 58
0001
0000
0020
0100
0000
0031
1000
0001
0100
0020
0000
0001
0000
0130
0001
0000
,  // measure 59
1000
0000
0010
0000
0100
0000
0001
1000
0000
1001
0000
0000
0001
0010
0100
1000
,  // measure 60
0001
0100
0001
1000
0100
1000
0010
0100
0001
1000
0100
0010
0001
0010
0100
1000
,  // measure 61
0010
0100
0010
0100
0001
1000
0100
0010
1000
0000
0001
0100
0010
0100
1000
0001
,  // measure 62
2000
0000
0001
0001
0000
3010
0000
0100
0010
0100
0001
1000
0100
0010
0100
1000
,  // measure 63
0001
0100
0010
1000
0001
1000
0100
0010
0001
0001
1000
0000
1001
0000
1000
0010
,  // measure 64
1000
0100
1000
0001
0100
0001
0010
0100
1000
0001
0100
0010
1000
0010
0100
0001
,  // measure 65
0010
0100
0010
0100
1000
0001
0100
0010
0001
0000
1000
0100
0010
0100
0001
1000
,  // measure 66
0001
0010
0000
1000
0000
1000
0010
0001
1000
0010
0000
0001
0000
0010
0100
0000
,  // measure 67
0220
0000
0000
0000
0330
0000
0000
0000
2000
0000
3002
0000
1003
0100
1000
0100
,  // measure 68
0001
0000
0000
0000
;

//---------------dance-single - ----------------
#NOTEDATA:;
#CHARTNAME:;
#STEPSTYPE:dance-single;
#DESCRIPTION:;
#CHARTSTYLE:;
#DIFFICULTY:Hard;
#METER:13;
#RADARVALUES:0.536888,0.558876,0.164375,0.620143,0.410938,503.000000,481.000000,22.000000,83.000000,0.000000,0.000000,0.000000,0.000000,0.000000,0.536888,0.558876,0.164375,0.620143,0.410938,503.000000,481.000000,22.000000,83.000000,0.000000,0.000000,0.000000,0.000000,0.000000;
#CREDIT:;
#NOTES:
// measure 0
0000
0000
0000
0000
,  // measure 1
0000
0000
0000
0000
,  // measure 2
0000
0000
0000
0000
,  // measure 3
0220
0000
0330
0000
0000
0010
0010
0000
,  // measure 4
1001
0000
0000
0000
0002
0000
0010
0000
1003
0000
0000
0001
0000
0100
0010
0000
,  // measure 5
1000
0000
2000
0000
0010
0000
0010
0000
3001
0000
1000
0100
0000
0000
0010
0000
,  // measure 6
0210
0000
0000
1000
0000
0000
0310
0000
0210
0000
0000
1000
0000
0000
0310
0000
,  // measure 7
0001
0000
2000
0000
0010
0000
0000
0001
0000
0001
0000
0000
3100
0000
0010
0000
,  // measure 8
0011
0000
1000
0010
0100
0010
0001
0010
,  // measure 9
1000
0100
0010
0100
0001
0100
1000
0001
,  // measure 10
0200
0000
0000
0000
1300
0000
0100
0000
0010
0100
0000
0001
0000
0000
0001
0000
,  // measure 11
2002
0000
3003
0000
0002
0000
1003
0100
,  // measure 12
0010
0001
1000
0010
1000
0001
0010
0001
,  // measure 13
0100
0000
0010
0000
0100
0000
0010
0000
0001
0000
0010
0000
1000
0001
1000
0000
,  // measure 14
0100
0000
0020
0001
0000
0001
0000
0130
1000
0000
0001
0000
0001
0000
1000
0010
,  // measure 15
1000
0000
0010
0000
0100
0001
0000
1000
0000
0002
0010
0000
0103
0000
0000
0000
,  // measure 16
0010
1000
0001
0010
0001
1000
0010
1000
,  // measure 17
0100
0000
0010
0000
0100
0000
0010
0000
1000
0000
0010
0000
0001
1000
0001
0000
,  // measure 18
0100
0000
0020
1000
0000
1000
0000
0130
0001
0000
1000
0000
1000
0000
0001
0010
,  // measure 19
0001
0010
0100
1000
0010
0100
0001
0000
,  // measure 20
2001
0000
0001
0000
3100
0000
0000
0000
1000
0000
0001
0010
0001
0000
1000
0010
,  // measure 21
1000
0000
0010
0200
0000
0000
0301
0000
1000
0000
0100
0000
0010
0000
0100
0000
,  // measure 22
1000
0000
0001
0000
1001
0000
0000
0000
1000
0010
0000
0100
0001
0000
1000
0000
,  // measure 23
0001
0010
0000
0100
1000
0000
0001
0000
0200
0010
0000
0301
0000
0000
2001
0000
,  // measure 24
3100
0010
0001
0000
0100
0010
1000
0000
,  // measure 25
0010
0000
1000
0010
1000
0000
0001
0010
0001
0000
0010
0200
0000
0000
1300
0000
,  // measure 26
0001
0000
0100
0000
2000
0000
3000
0100
0001
0000
1000
0000
0100
0000
0010
0000
,  // measure 27
0220
0000
0330
0000
0002
0000
0103
0010
,  // measure 28
1000
0001
0000
1000
0100
0000
0020
0000
0230
0000
0300
0000
0200
0000
0300
0000
,  // measure 29
1001
0000
0000
1000
0100
0000
0020
0000
0032
0000
0003
0000
2000
0000
3000
0000
,  // measure 30
0001
1000
0000
0001
0100
0000
0020
0000
0230
0000
0300
0000
0200
0000
0300
0000
,  // measure 31
0200
0000
0300
0010
0200
0000
0300
0000
0200
0000
0300
0000
0110
0000
1000
0000
,  // measure 32
0001
0010
0000
0100
1000
0000
0002
0000
0203
0000
0310
0000
0200
0000
0301
0000
,  // measure 33
1001
0000
0000
0001
1000
0000
0002
0000
0023
0000
1030
0000
0020
0000
0031
0000
,  // measure 34
1000
0010
0000
0100
0001
0000
2000
0000
3200
0000
0310
0000
0200
0000
1300
0000
,  // measure 35
0001
0000
0100
0000
0010
0000
1000
0001
0000
0002
0000
0000
1003
0000
0100
0000
,  // measure 36
0020
0000
0030
0000
,  // measure 37
0200
0000
0300
0000
,  // measure 38
2000
0000
3002
0000
,  // measure 39
0103
0000
0010
0000
1000
0000
0001
0010
0000
0010
0000
0000
0001
0000
0100
0000
,  // measure 40
0020
0000
1000
0000
0130
0001
1000
0100
,  // measure 41
0020
0000
0001
0000
0130
1000
0001
0100
,  // measure 42
0020
1000
0001
1030
,  // measure 43
0220
0000
0330
0000
0002
0023
0230
2300
,  // measure 44
3001
0000
0000
0000
2000
0000
0010
0000
3100
0000
0000
0010
0000
0100
0010
0000
,  // measure 45
0001
0000
0002
0000
0010
0000
0010
0000
0103
0000
0010
2000
0000
0000
3010
0000
,  // measure 46
0210
0000
0301
0000
0100
0000
0010
0000
0210
0000
0000
0301
0000
0000
1000
0100
,  // measure 47
0010
0000
0002
0000
0010
0000
0000
1000
0000
1000
0000
0000
0103
0000
0010
0000
,  // measure 48
1010
0000
0001
0010
0100
0001
0100
1000
,  // measure 49
0010
0100
1000
0100
0001
1000
0010
1000
,  // measure 50
0200
0000
0000
0000
0301
0000
0100
0000
0010
0100
0000
1000
0000
0000
1000
0000
,  // measure 51
0001
0000
0000
0000
1000
0000
0000
0000
0001
0000
1000
0000
0001
1000
0001
1000
,  // measure 52
0002
0000
0000
0103
0000
0010
1000
0000
0001
0010
0000
0200
0000
0000
0301
0000
,  // measure 53
0200
0000
0000
0310
0000
0001
1000
0001
0100
0000
0020
1000
0000
0130
0001
0000
,  // measure 54
0002
0000
0000
0013
0000
0100
1000
0000
0001
0100
0000
0020
0000
0000
0031
0000
,  // measure 55
0010
0000
0100
0000
0010
0000
1000
0001
0000
0001
0000
0000
1000
0001
1000
0000
,  // measure 56
2001
0000
0000
3100
0000
0010
0001
0000
1000
0010
0000
0200
0000
0000
1300
0000
,  // measure 57
0200
0000
0000
0310
0000
1000
0001
1000
0100
0000
0020
0001
0000
0130
1000
0000
,  // measure 58
2000
0000
0000
3010
0000
0100
0001
0000
1000
0100
0000
0020
0000
0000
1030
0000
,  // measure 59
0010
0000
0001
0000
0100
0000
1000
0100
0000
0002
0000
0000
0013
0100
1000
0000
,  // measure 60
0001
0000
0100
0000
0010
1000
0010
0000
1000
0000
0100
0000
0010
0001
0010
0000
,  // measure 61
0100
0000
1000
0000
0001
0000
0100
0000
1000
0000
0001
0000
0010
0100
0010
0000
,  // measure 62
1000
0000
0002
0010
0000
0010
0000
1003
0010
0000
0100
0000
0100
0000
0001
1000
,  // measure 63
0100
0000
0010
0000
0001
0000
0100
0000
0010
1000
0010
0000
1001
0000
0000
0000
,  // measure 64
1000
0000
0100
0000
0010
0001
0010
0000
0001
0000
0100
0000
0010
1000
0010
0000
,  // measure 65
0100
0000
0001
0000
1000
0000
0100
0000
0001
0000
1000
0000
0010
0100
0010
0000
,  // measure 66
0001
0000
0000
0012
0000
1003
0010
0000
1000
0000
0000
2010
0000
3001
0010
0000
,  // measure 67
0220
0000
0000
0000
0330
0000
0000
0000
0000
0000
0000
0000
1000
0001
1000
0001
,  // measure 68
1000
0000
0000
0000
;

//---------------dance-single - ----------------
#NOTEDATA:;
#CHARTNAME:;
#STEPSTYPE:dance-single;
#DESCRIPTION:;
#CHARTSTYLE:;
#DIFFICULTY:Medium;
#METER:10;
#RADARVALUES:0.412006,0.431859,0.149432,0.268978,0.112074,386.000000,366.000000,20.000000,36.000000,0.000000,0.000000,0.000000,0.000000,0.000000,0.412006,0.431859,0.149432,0.268978,0.112074,386.000000,366.000000,20.000000,36.000000,0.000000,0.000000,0.000000,0.000000,0.000000;
#CREDIT:;
#OFFSET:-0.702910;
#BPMS:0.000000=128.000000
;
#STOPS:;
#DELAYS:;
#WARPS:;
#TIMESIGNATURES:0.000000=4=4
;
#TICKCOUNTS:0.000000=4
;
#COMBOS:0.000000=1
;
#SPEEDS:0.000000=1.000000=0.000000=0
;
#SCROLLS:0.000000=1.000000
,12.000000=2.000000
,12.250000=1.000000
,12.500000=0.500000
,13.500000=1.000000
,44.000000=2.000000
,44.250000=1.000000
,44.500000=0.500000
,46.000000=1.000000
,108.000000=2.000000
,108.250000=1.000000
,108.500000=0.500000
,110.000000=1.000000
,144.000000=0.500000
,148.000000=0.650000
,152.000000=0.800000
,156.000000=0.900000
,160.000000=1.000000
,172.000000=2.000000
,172.250000=1.000000
,172.500000=0.500000
,174.000000=1.000000
,268.000000=2.000000
,268.250000=1.000000
,268.500000=0.500000
,270.000000=1.000000
;
#FAKES:;
#LABELS:0.000000=Song Start
;
#NOTES:
// measure 0
0000
0000
0000
0000
,  // measure 1
0000
0000
0000
0000
,  // measure 2
0000
0000
0000
0000
,  // measure 3
0220
0000
0330
0000
0000
0010
0010
0000
,  // measure 4
1001
0000
0000
0000
1000
0000
0100
0000
0010
0000
0000
0001
0000
0000
1000
0000
,  // measure 5
0001
0000
0100
0000
0001
0000
0100
0000
0010
0000
0000
1000
0000
0000
0001
0000
,  // measure 6
0011
0000
1000
0000
1010
0000
0001
0001
,  // measure 7
0010
0000
0100
0000
2000
0000
0000
0001
0000
0000
0010
0000
3010
0000
0000
0000
,  // measure 8
1001
0000
2000
0100
0000
0001
0000
3010
,  // measure 9
0100
0002
0000
0100
0000
1000
0000
0013
,  // measure 10
0100
0000
0000
0000
0010
0000
0001
0000
1000
0000
0000
0010
0000
0000
0100
0000
,  // measure 11
0220
0330
0000
1000
,  // measure 12
0001
1000
0010
1000
0100
0010
0001
0000
,  // measure 13
0001
0100
0001
0100
1000
0100
0001
1000
,  // measure 14
0002
0000
0000
0010
0000
0010
0000
0000
2003
0000
0100
0000
0100
0000
0000
0000
,  // measure 15
3001
0000
0100
0000
0010
0000
0000
1000
0000
0000
0001
0000
1001
0000
0000
0000
,  // measure 16
1000
0001
0010
0001
0100
0001
1000
0000
,  // measure 17
1000
0100
1000
0100
0001
0100
1000
0001
,  // measure 18
2000
0000
0000
0010
0000
0010
0000
0000
3002
0000
0100
0000
0100
0000
0000
0000
,  // measure 19
1003
0100
1000
0100
0010
0000
0001
0000
,  // measure 20
1001
0000
1001
0000
1000
0010
0100
0001
,  // measure 21
0010
0000
0000
0010
0000
0000
0001
0000
0100
0000
0010
0000
1000
0000
0000
0000
,  // measure 22
1100
0000
0011
0000
0010
0001
0100
0000
,  // measure 23
0010
0000
1000
0000
0010
0000
1000
0000
0100
0000
0000
0100
0000
0000
0010
0000
,  // measure 24
0001
1000
0010
0000
1000
0001
0010
0000
,  // measure 25
0001
0000
0010
0000
0100
0000
1000
0000
0010
0000
0000
0010
0000
0000
1000
0000
,  // measure 26
0100
0010
0002
0000
0103
0010
0100
0010
,  // measure 27
2000
3000
0000
0001
,  // measure 28
1000
0000
1000
0002
0010
0000
0013
0000
,  // measure 29
0110
0000
0001
2000
0010
0000
3010
0000
,  // measure 30
1000
0000
1000
0002
0010
0000
0010
0000
,  // measure 31
1000
1000
0103
1001
,  // measure 32
0001
0010
0100
2000
0001
0000
3010
0000
,  // measure 33
1000
0010
0100
0002
1000
0000
0013
0000
,  // measure 34
0100
0010
0100
0000
1000
0001
0100
0000
,  // measure 35
0010
1000
0010
0100
0001
0000
0001
1000
,  // measure 36
0200
0300
0000
0000
,  // measure 37
0020
0030
0000
0000
,  // measure 38
0200
0300
0020
0030
,  // measure 39
0001
1000
0001
0000
0100
0000
0010
0000
,  // measure 40
2000
0000
0001
0000
3010
0100
0001
0000
,  // measure 41
0002
0000
1000
0000
0013
0100
1000
0000
,  // measure 42
0001
0010
0001
0000
1000
0010
1000
0000
,  // measure 43
0220
0330
0000
0010
,  // measure 44
1001
0000
0000
0000
0001
0000
0100
0000
0010
0000
0000
0100
0000
0000
0001
0000
,  // measure 45
1000
0000
0100
0000
0010
0000
0100
0000
1000
0000
0000
1002
0000
0000
0103
0000
,  // measure 46
1010
0000
0001
0000
0011
0000
1000
1000
,  // measure 47
0010
0000
0100
0000
0002
0000
0000
1000
0000
0000
0010
0000
0013
0000
0000
0000
,  // measure 48
1001
0000
0002
0100
0000
1000
0000
0013
,  // measure 49
0100
2000
0000
0100
0000
0001
0000
3010
,  // measure 50
0100
0000
0000
0000
0010
0000
1000
0000
0001
0000
0000
0010
0000
0000
0100
0000
,  // measure 51
0010
0000
0100
0000
1000
1000
1000
0000
,  // measure 52
0001
0000
0000
0100
0000
0000
0001
0000
0010
0000
0000
0100
0000
0000
0010
0000
,  // measure 53
0001
0000
0000
1000
0000
0000
0001
0000
0100
0000
0010
1000
0000
0000
0001
0000
,  // measure 54
0001
0000
0000
0000
1000
0000
0100
0000
0001
0000
0000
0100
0000
0000
1000
0000
,  // measure 55
0001
0100
1000
0100
0001
0000
1000
0001
,  // measure 56
1000
0000
0000
0100
0000
0000
1000
0000
0010
0000
0000
0100
0000
0000
0010
0000
,  // measure 57
1000
0000
0000
0001
0000
0000
1000
0000
0100
0000
0010
0001
0000
0000
1000
0000
,  // measure 58
1000
0000
0000
0000
0001
0000
0100
0000
1000
0000
0000
0100
0000
0000
0001
0000
,  // measure 59
0010
1000
0010
0001
1000
0000
0001
0001
,  // measure 60
1000
0010
1000
0001
0010
0001
0100
0000
,  // measure 61
0001
0010
0001
0010
1000
0001
0100
1000
,  // measure 62
0002
0000
0000
0010
0000
0010
0000
0000
2003
0000
0010
0000
0010
0000
0000
0000
,  // measure 63
3001
0010
0100
1000
0001
0001
1000
0000
,  // measure 64
0001
0010
0001
1000
0010
1000
0001
0000
,  // measure 65
1000
0010
1000
0010
0001
1000
0100
0001
,  // measure 66
2000
0000
0000
0010
0000
0000
3001
0000
0002
0000
0000
0010
0000
0000
1003
0000
,  // measure 67
2002
0000
3003
0000
0000
0000
0001
1000
,  // measure 68
0100
0000
0000
0000
;

//---------------dance-single - ----------------
#NOTEDATA:;
#CHARTNAME:;
#STEPSTYPE:dance-single;
#DESCRIPTION:;
#CHARTSTYLE:;
#DIFFICULTY:Easy;
#METER:8;
#RADARVALUES:0.327683,0.355649,0.179319,0.276450,0.000000,307.000000,283.000000,24.000000,37.000000,0.000000,0.000000,0.000000,0.000000,0.000000,0.327683,0.355649,0.179319,0.276450,0.000000,307.000000,283.000000,24.000000,37.000000,0.000000,0.000000,0.000000,0.000000,0.000000;
#CREDIT:;
#OFFSET:-0.702910;
#BPMS:0.000000=128.000000
;
#STOPS:;
#DELAYS:;
#WARPS:;
#TIMESIGNATURES:0.000000=4=4
;
#TICKCOUNTS:0.000000=4
;
#COMBOS:0.000000=1
;
#SPEEDS:0.000000=1.000000=0.000000=0
;
#SCROLLS:0.000000=1.000000
,12.000000=2.000000
,12.250000=1.000000
,12.500000=0.500000
,13.500000=1.000000
,44.000000=2.000000
,44.250000=1.000000
,44.500000=0.500000
,46.000000=1.000000
,108.000000=2.000000
,108.250000=1.000000
,108.500000=0.500000
,110.000000=1.000000
,172.000000=2.000000
,172.250000=1.000000
,172.500000=0.500000
,174.000000=1.000000
,268.000000=2.000000
,268.250000=1.000000
,268.500000=0.500000
,270.000000=1.000000
;
#FAKES:;
#LABELS:0.000000=Song Start
;
#NOTES:
// measure 0
0000
0000
0000
0000
,  // measure 1
0000
0000
0000
0000
,  // measure 2
0000
0000
0000
0000
,  // measure 3
0220
0000
0330
0000
0000
0100
0010
0000
,  // measure 4
2001
0001
0100
3001
,  // measure 5
0001
1000
0002
0000
0100
0000
1003
0000
,  // measure 6
1010
0001
0011
1000
,  // measure 7
0001
0100
0010
0000
1000
0000
0001
0000
,  // measure 8
1001
2000
0010
0001
,  // measure 9
3200
0010
1000
0310
,  // measure 10
0110
0000
0100
1000
0001
0000
0100
0000
,  // measure 11
0220
0330
0000
1000
,  // measure 12
0001
0010
0001
0000
1000
0010
1000
0000
,  // measure 13
0001
0010
0001
0010
0200
0000
1300
0000
,  // measure 14
0001
0000
0001
0000
0001
1000
0010
0000
,  // measure 15
0010
1000
0100
0000
0010
0000
0011
0000
,  // measure 16
1000
0010
1000
0000
0001
0010
0001
0000
,  // measure 17
1000
0010
1000
0010
0200
0000
0301
0000
,  // measure 18
1000
0000
1000
0000
1000
0001
0010
0000
,  // measure 19
0200
0000
0000
0000
1300
0001
0100
0000
,  // measure 20
0001
0000
0001
0000
0010
0001
0100
0000
,  // measure 21
0001
0000
0001
0000
0100
0001
0010
0000
,  // measure 22
0100
0100
0100
0000
0010
0000
0001
0000
,  // measure 23
1000
0010
0100
0000
0002
0000
1003
0000
,  // measure 24
1100
0001
0101
1000
,  // measure 25
0010
1000
0100
0000
1000
0000
1000
0000
,  // measure 26
0100
1000
0020
0000
0230
0000
0302
0000
,  // measure 27
2003
3000
0000
0001
,  // measure 28
1001
0000
0000
2000
0100
0000
3100
0000
,  // measure 29
1001
0000
0000
0002
0100
0000
0103
0000
,  // measure 30
1001
0000
0000
2000
0100
0000
3002
0000
,  // measure 31
0100
2003
0100
3001
,  // measure 32
1001
0000
0001
0200
0010
0000
0310
0000
,  // measure 33
1001
0000
1000
0200
0010
0000
0310
0000
,  // measure 34
1001
0000
0001
0100
0010
0000
1000
0000
,  // measure 35
0001
0010
0100
1000
,  // measure 36
0001
0000
0000
0000
,  // measure 37
0000
0000
0000
0000
,  // measure 38
2000
0000
3000
0000
,  // measure 39
0002
0000
0003
0000
,  // measure 40
1000
0100
0010
0000
,  // measure 41
0001
0100
0010
0000
,  // measure 42
1000
0100
0010
0001
,  // measure 43
2002
3003
0000
0010
,  // measure 44
1002
0010
1000
0103
,  // measure 45
0100
0010
2000
0000
0001
0000
3100
0000
,  // measure 46
0011
1000
1010
0001
,  // measure 47
1000
0100
0010
0000
0001
0000
1000
0000
,  // measure 48
1001
0002
0010
1000
,  // measure 49
0203
0010
0001
0310
,  // measure 50
0110
0000
0100
0001
1000
0000
0100
0000
,  // measure 51
0020
0000
0000
0000
0031
1000
0001
0000
,  // measure 52
0100
0000
0100
0000
0010
1000
0001
0000
,  // measure 53
1000
0001
0010
0000
0100
0010
0100
0000
,  // measure 54
1000
0000
0001
0000
0100
0010
1000
0000
,  // measure 55
0010
1000
0001
1000
0100
0000
0000
0000
,  // measure 56
0100
0000
0100
0000
0010
0001
1000
0000
,  // measure 57
0001
1000
0010
0000
0100
0010
0100
0000
,  // measure 58
0001
0000
1000
0000
0100
0010
0001
0000
,  // measure 59
1000
0001
0100
0010
1000
0000
0000
0000
,  // measure 60
0001
0010
0100
0000
1000
0010
0100
0000
,  // measure 61
0010
1000
0001
1000
0200
0000
0310
0000
,  // measure 62
0001
0000
0001
0000
0001
1000
0010
0000
,  // measure 63
1000
0001
0010
0000
0100
0000
0110
0000
,  // measure 64
1000
0010
0100
0000
0001
0010
0100
0000
,  // measure 65
0010
0001
1000
0001
0200
0000
0310
0000
,  // measure 66
2000
0100
3002
0100
,  // measure 67
2000
3003
0000
0010
,  // measure 68
1001
0000
0000
0000
;

//---------------dance-single - ----------------
#NOTEDATA:;
#CHARTNAME:;
#STEPSTYPE:dance-single;
#DESCRIPTION:;
#CHARTSTYLE:;
#DIFFICULTY:Beginner;
#METER:3;
#RADARVALUES:0.147297,0.177824,0.000000,0.059773,0.000000,138.000000,138.000000,0.000000,8.000000,0.000000,0.000000,0.000000,0.000000,0.000000,0.147297,0.177824,0.000000,0.059773,0.000000,138.000000,138.000000,0.000000,8.000000,0.000000,0.000000,0.000000,0.000000,0.000000;
#CREDIT:;
#OFFSET:-0.702910;
#BPMS:0.000000=128.000000
;
#STOPS:;
#DELAYS:;
#WARPS:;
#TIMESIGNATURES:0.000000=4=4
;
#TICKCOUNTS:0.000000=4
;
#COMBOS:0.000000=1
;
#SPEEDS:0.000000=1.000000=0.000000=0
;
#SCROLLS:0.000000=1.000000
;
#FAKES:;
#LABELS:0.000000=Song Start
;
#NOTES:
// measure 0
0000
0000
0000
0000
,  // measure 1
0000
0000
0000
0000
,  // measure 2
0000
0000
0000
0000
,  // measure 3
0200
0300
0000
0000
,  // measure 4
0001
0000
1000
0000
,  // measure 5
0001
0001
0001
0000
,  // measure 6
0010
0000
0100
0000
,  // measure 7
0010
0010
0010
0000
,  // measure 8
0001
0000
0100
0000
,  // measure 9
0010
0000
1000
0000
,  // measure 10
0100
0000
0010
0010
,  // measure 11
0002
0003
0000
0000
,  // measure 12
1000
1000
1000
0000
,  // measure 13
0010
0010
0010
0000
,  // measure 14
1000
0000
0100
0100
,  // measure 15
0100
0000
1000
0000
,  // measure 16
0001
0001
0001
0000
,  // measure 17
0010
0010
0010
0000
,  // measure 18
0001
0000
0100
0100
,  // measure 19
0200
0000
0300
0000
,  // measure 20
0001
0001
0000
0010
,  // measure 21
0010
0000
0100
0000
,  // measure 22
1000
1000
0000
0001
,  // measure 23
0001
0000
0001
0000
,  // measure 24
1000
1000
0000
0010
,  // measure 25
0010
0000
0100
0000
,  // measure 26
0001
0000
1000
0000
,  // measure 27
0200
0300
0000
0000
,  // measure 28
1000
0000
0000
0000
,  // measure 29
0001
0000
0000
0000
,  // measure 30
1000
0000
0000
0000
,  // measure 31
0000
0000
0000
0000
,  // measure 32
0001
0000
0001
0000
,  // measure 33
1000
0000
1000
0000
,  // measure 34
0001
0000
0100
0000
,  // measure 35
0010
0010
0010
0000
,  // measure 36
2000
0000
0000
0000
,  // measure 37
3000
0000
0000
0000
,  // measure 38
0000
0000
0000
0000
,  // measure 39
0000
0000
0000
0000
,  // measure 40
1000
0000
0000
0000
,  // measure 41
0100
0000
0000
0000
,  // measure 42
0010
0000
0000
0000
,  // measure 43
0002
0003
0000
0000
,  // measure 44
1000
0000
0001
0000
,  // measure 45
0100
0100
0100
0000
,  // measure 46
0001
0000
1000
0000
,  // measure 47
0100
0100
0100
0000
,  // measure 48
0010
0000
0001
0000
,  // measure 49
1000
0000
0010
0000
,  // measure 50
0100
0000
0001
0001
,  // measure 51
2000
0000
3000
0000
,  // measure 52
0001
0001
0001
0000
,  // measure 53
0010
0010
0010
0000
,  // measure 54
0100
0100
0100
0000
,  // measure 55
1000
0001
1000
0000
,  // measure 56
0001
0001
0001
0000
,  // measure 57
0100
0100
0100
0000
,  // measure 58
0010
0010
0010
0000
,  // measure 59
1000
0001
1000
0000
,  // measure 60
0001
0001
0010
0000
,  // measure 61
0100
0100
1000
0000
,  // measure 62
0001
0000
0100
0100
,  // measure 63
0100
0000
0010
0000
,  // measure 64
1000
1000
0010
0000
,  // measure 65
0100
0100
0001
0000
,  // measure 66
1000
0000
0100
0000
,  // measure 67
0020
0030
0000
0000
,  // measure 68
0001
0000
0000
0000
;
