#VERSION:0.83;
#TITLE:Cauliflower;
#SUBTITLE:;
#ARTIST:HiTECH NINJA;
#TITLETRANSLIT:;
#SUBTITLETRANSLIT:;
#ARTISTTRANSLIT:;
#GENRE:Hi-Tech Pop;
#ORIGIN:;
#CREDIT:;
#BANNER:Cauliflower.png;
#BACKGROUND:Cauliflower-bg.png;
#PREVIEWVID:;
#JACKET:Cauliflower-jacket.png;
#CDIMAGE:;
#DISCIMAGE:;
#LYRICSPATH:;
#CDTITLE:cdtitle.png;
#MUSIC:Cauliflower.ogg;
#OFFSET:-0.697125;
#SAMPLESTART:14.610169;
#SAMPLELENGTH:13.913043;
#SELECTABLE:YES;
#BPMS:0.000=138.000;
#STOPS:;
#DELAYS:;
#WARPS:;
#TIMESIGNATURES:0.000=4=4;
#TICKCOUNTS:0.000=4;
#COMBOS:0.000=1;
#SPEEDS:0.000=1.000=0.000=0;
#SCROLLS:0.000=1.000;
#FAKES:;
#LABELS:0.000=Song Start;
#BGCHANGES:;
#KEYSOUNDS:;
#ATTACKS:
;

//---------------dance-single - ----------------
#NOTEDATA:;
#CHARTNAME:;
#STEPSTYPE:dance-single;
#DESCRIPTION:;
#CHARTSTYLE:;
#DIFFICULTY:Challenge;
#METER:15;
#RADARVALUES:0.728409,0.867245,0.264674,0.544917,1.031449,655.000000,621.000000,34.000000,70.000000,34.000000,0.000000,0.000000,0.000000,0.000000,0.728409,0.867245,0.264674,0.544917,1.031449,655.000000,621.000000,34.000000,70.000000,34.000000,0.000000,0.000000,0.000000,0.000000;
#CREDIT:;
#NOTES:
// measure 0
0000
0000
0000
0000
,  // measure 1
0000
0000
0000
0000
,  // measure 2
0000
0000
0000
0000
,  // measure 3
0000
0000
0000
0000
,  // measure 4
0000
0000
0000
0000
1000
0000
0000
0000
0100
0000
0000
0000
1000
0000
0000
0000
0010
0000
0000
0000
0000
0000
1010
0000
0000
0M00
0000
0000
0010
0000
0001
0000
,  // measure 5
0010
0000
0000
0000
0001
0000
0000
0000
0100
0000
0000
0000
0001
0000
0000
0000
0010
0000
0000
0000
0000
0000
0011
0000
0000
0M00
0000
0000
0010
0000
1000
0000
,  // measure 6
0000
0000
0001
0000
0010
0000
0100
0000
1000
0000
0000
1001
0000
0000
1000
0010
,  // measure 7
0100
0000
0000
0100
0001
0000
0001
0000
1000
0100
0010
0000
0001
0010
0100
1000
,  // measure 8
0001
0000
0000
0000
0100
0000
0000
0000
0010
0000
0000
0000
0100
0000
0000
0000
1000
0000
0000
0000
0000
0000
1100
0000
0000
000M
0000
0000
1000
0000
0010
0000
,  // measure 9
2000
0000
0000
0000
0010
0000
0000
0000
3002
0000
0000
0000
0010
0000
0000
0000
1003
0000
0000
0000
0000
0000
1010
0000
0000
0M00
0000
0000
0010
0000
0001
0000
,  // measure 10
1000
0000
0000
0000
0100
0000
0000
0000
0010
0000
0000
0000
0100
0000
0000
0000
0001
0000
0000
0000
0000
0000
0101
0000
0000
M000
0000
0000
0001
0000
0010
0000
,  // measure 11
0002
0000
0000
0000
0010
0000
0000
0000
2003
0000
0000
0000
0010
0000
0000
0000
3001
0000
0000
0000
0000
0000
0011
0000
0000
0M00
0000
0000
0010
0000
1000
0000
,  // measure 12
0001
0000
0000
0000
0100
0000
0000
0000
0010
0000
0000
0000
0100
0000
0000
0000
1000
0000
0000
0000
0000
0000
1100
0000
0000
000M
0000
0000
1000
0000
0010
0000
,  // measure 13
0200
0000
0000
0000
0001
0000
0000
0000
0320
0000
0000
0000
1000
0000
0000
0000
0130
0000
0000
0000
0000
0000
0101
0000
0000
00M0
0000
0000
0100
0000
1000
0000
,  // measure 14
0200
0000
0000
0000
1000
0000
0000
0000
0320
0000
0000
0000
0001
0000
0000
0000
0130
0000
0000
0000
0000
0000
1100
0000
0000
00M0
0000
0000
0100
0000
0001
0000
,  // measure 15
0100
0010
1000
0001
0020
0000
0130
0000
,  // measure 16
2100
0000
0000
0001
0000
0000
3010
0001
0010
0000
1000
0000
0100
00M0
0100
0000
,  // measure 17
0102
0000
0000
1000
0000
0000
0013
1000
0010
0000
0001
0000
0100
0000
0000
0000
,  // measure 18
2010
0000
0000
0001
0000
0000
3100
0001
0100
0000
1000
0000
0010
0M00
0010
0000
,  // measure 19
0012
0000
0000
1000
0000
0000
0103
1000
0100
0000
0001
0000
0010
0100
0010
0100
,  // measure 20
2000
0000
0000
0100
0000
0000
3010
0100
0002
0000
0000
0100
0000
0000
0013
0100
,  // measure 21
2000
0000
0000
0100
0000
0000
3010
0100
0002
0000
0000
0100
0000
0000
0013
0100
,  // measure 22
1000
0010
0100
0001
1000
0100
0010
0001
,  // measure 23
1000
0010
0000
1000
0010
0100
0001
1000
0001
0010
0001
0010
0100
0000
1000
0000
,  // measure 24
1002
0000
0000
0000
1003
0001
0100
00M0
0100
1000
0001
0000
1000
0010
0100
0001
,  // measure 25
2000
0000
0000
0000
3001
1000
0100
00M0
0100
0001
1000
0000
0100
0010
0100
0010
,  // measure 26
0002
0000
0100
0000
0100
0000
0100
0000
2003
0100
0000
0100
0000
3002
0100
0000
,  // measure 27
2003
0000
0100
0000
3001
1000
0002
0100
0000
0100
0000
0103
0001
1000
0100
0010
,  // measure 28
0002
0000
0000
0000
1003
0001
0010
0M00
0010
0100
0001
0000
1000
0100
0010
0001
,  // measure 29
2000
0000
0000
0000
3001
1000
0010
0M00
0010
0100
1000
0000
0010
0100
0010
0100
,  // measure 30
0002
0000
0010
0000
0010
0000
0010
0000
2003
0010
0000
0010
0000
3002
0010
0000
,  // measure 31
1003
0000
0000
0000
0001
0100
0010
1000
0100
0010
0000
0001
0000
1000
0000
0000
,  // measure 32
2002
0000
0000
0000
0000
0000
0000
0000
0000
0000
0000
0000
3003
0000
1000
0010
,  // measure 33
0100
0001
1000
0001
0010
0001
1000
0001
0100
0010
0100
0001
0000
0010
0M00
0010
,  // measure 34
0000
1000
0100
0010
0001
0010
0100
1000
0001
0100
0010
1000
0000
0010
0M00
0010
,  // measure 35
0000
0001
1000
0100
0000
0001
0000
0100
1000
0001
1000
0000
0001
0000
0100
0010
,  // measure 36
2000
0000
0000
0000
3010
1000
0001
1000
0000
0100
00M0
0100
0000
0001
0100
0001
,  // measure 37
0000
0010
0M00
0010
0000
1000
0010
0100
0000
0001
0010
0100
0000
1000
0010
0100
,  // measure 38
0002
0000
0000
0000
1003
0000
0001
0010
0000
0011
0000
1000
0000
1010
0000
2002
,  // measure 39
0000
3003
0002
0000
0023
0000
2030
0000
3002
0000
0203
2300
0000
0000
3000
0000
,  // measure 40
0002
0100
0000
0100
,  // measure 41
0000
0000
0000
0000
0100
0000
0000
0100
0000
0100
0000
0000
1003
0000
0001
0000
,  // measure 42
2000
0100
0000
0100
,  // measure 43
0000
0000
0000
0000
0100
0000
0000
0100
0000
0100
0000
0000
3001
1000
0001
1000
,  // measure 44
0001
0000
0100
0000
0010
0000
0000
0100
0000
0100
0001
0100
0010
0000
1000
0001
,  // measure 45
1000
0000
0100
0000
0010
0000
0000
0010
0000
0010
0100
1000
0010
0000
0100
0001
,  // measure 46
0200
0302
2003
3200
0320
0032
2003
3020
,  // measure 47
0130
0001
1000
0001
0010
0100
1000
0100
0010
0001
0100
0010
0100
0000
0000
0000
,  // measure 48
0200
0000
0000
0000
0001
0000
0000
0000
0001
0000
0000
0000
0010
0000
0000
0000
1300
0000
0000
0000
0000
0000
1100
0000
0000
00M0
0000
0000
1000
0000
0010
0000
,  // measure 49
2000
0000
0010
0000
0001
0000
3100
0000
1100
0000
0000
0101
0000
0000
0001
1000
,  // measure 50
0200
0000
0000
0000
1000
0000
0000
0000
1000
0000
0000
0000
0010
0000
0000
0000
0301
0000
0000
0000
0000
0000
0101
0000
0000
00M0
0000
0000
0001
0000
0010
0000
,  // measure 51
0002
0000
0010
0000
1000
0000
0103
0000
0101
0000
0000
1100
0000
0000
1000
0001
,  // measure 52
0200
0000
0000
0000
0001
0000
0000
0000
0001
0000
0000
0000
0010
0000
0000
0000
1300
0000
0000
0000
0000
0000
1100
0000
0000
00M0
0000
0000
1000
0000
0010
0000
,  // measure 53
2000
0000
0010
0000
0100
0000
3010
0000
1010
0000
0000
0101
0000
0000
0001
1000
,  // measure 54
0002
0000
0010
0000
0100
0000
0013
0000
0011
0000
0000
1100
0000
0000
1000
0001
,  // measure 55
1000
0000
0010
0000
0100
0000
0001
0000
0020
0000
0000
0000
0130
0010
0100
0000
,  // measure 56
1000
0010
0000
0010
0M00
0010
0001
1000
0001
0010
0000
0010
0M00
0010
1000
0001
,  // measure 57
1000
0100
1000
0100
0010
0001
0010
0001
1000
0010
1000
0001
0010
0001
1000
0010
,  // measure 58
1000
0100
00M0
0100
0001
1000
0001
1000
0001
0100
00M0
0100
1000
0001
1000
0001
,  // measure 59
0100
0010
0100
0010
1000
0000
0010
0100
0001
0010
0001
0010
0100
1000
0000
0010
,  // measure 60
1000
0100
0000
0100
00M0
0100
0001
0010
0001
0100
0000
0100
00M0
0100
1000
0010
,  // measure 61
1000
0100
0010
0100
0010
0001
1000
0001
0100
0010
0100
0010
1000
0001
0010
0100
,  // measure 62
1000
0010
0M00
0010
0001
0100
00M0
0100
1000
0010
0M00
0010
0001
0100
00M0
0100
,  // measure 63
1000
0001
0000
0100
0000
0010
0000
1000
0100
0010
0001
0100
0010
1000
0000
0000
,  // measure 64
0102
0000
0000
1000
0000
0000
0013
1000
0010
0000
0001
0000
0100
00M0
0100
0000
,  // measure 65
2100
0000
0000
0001
0000
0000
3010
0001
0010
0000
1000
0000
0100
0000
0000
0000
,  // measure 66
0012
0000
0000
1000
0000
0000
0103
1000
0100
0000
0001
0000
0010
0M00
0010
0000
,  // measure 67
2010
0000
0000
0001
0000
0000
3100
0001
0100
0000
1000
0000
0001
0100
0010
1000
,  // measure 68
0200
0000
0000
1000
0000
0000
0310
0001
0200
0000
0000
0001
0000
0000
0310
1000
,  // measure 69
0200
0000
0000
1000
0000
0000
0310
0001
0200
0000
0000
0001
0000
0000
0310
1000
,  // measure 70
0100
0001
0100
1000
0010
0001
0010
1000
,  // measure 71
0001
0010
0000
0001
0010
0100
1000
0001
2000
3020
0030
0200
0000
0000
0300
0000
;

//---------------dance-single - ----------------
#NOTEDATA:;
#CHARTNAME:;
#STEPSTYPE:dance-single;
#DESCRIPTION:;
#CHARTSTYLE:;
#DIFFICULTY:Hard;
#METER:12;
#RADARVALUES:0.508218,0.559513,0.116768,0.607193,0.393118,457.000000,442.000000,15.000000,78.000000,0.000000,0.000000,0.000000,0.000000,0.000000,0.508218,0.559513,0.116768,0.607193,0.393118,457.000000,442.000000,15.000000,78.000000,0.000000,0.000000,0.000000,0.000000,0.000000;
#CREDIT:;
#NOTES:
// measure 0
0000
0000
0000
0000
,  // measure 1
0000
0000
0000
0000
,  // measure 2
0000
0000
0000
0000
,  // measure 3
0000
0000
0000
0000
,  // measure 4
1000
0000
0010
0000
1000
0000
0010
0000
0100
0000
0000
0010
0000
0000
1000
0000
,  // measure 5
0001
0000
0010
0000
0001
0000
0010
0000
0100
0000
0000
0010
0000
0000
0001
0000
,  // measure 6
1000
0000
0010
0000
0100
0000
0001
0000
0010
0000
0000
0100
0000
0000
1000
0000
,  // measure 7
2000
0000
0001
3002
0000
1003
1001
0000
,  // measure 8
0001
0000
0100
0000
1000
0000
0100
0000
0002
0000
0000
0100
0000
0000
1003
0000
,  // measure 9
0010
0000
1000
0000
0010
0000
0100
0000
0002
0000
0000
0010
0000
0000
1003
0100
,  // measure 10
0000
0000
0100
0000
0001
0000
0100
0000
2000
0000
0000
0100
0000
0000
3001
0000
,  // measure 11
0010
0000
0001
0000
0010
0000
0100
0000
2000
0000
0000
0010
0000
0000
3001
0100
,  // measure 12
0000
0000
0100
0000
1000
0000
0100
0000
0002
0000
0000
0100
0000
0000
1003
0000
,  // measure 13
0100
0000
0001
0000
0100
0000
1000
0000
0020
0000
0000
1000
0000
0000
0130
0001
,  // measure 14
0000
0000
0001
0000
0100
0000
0001
0000
0020
0000
0000
0001
0000
0000
0130
0000
,  // measure 15
1000
0010
0100
0001
1000
0000
1001
0000
,  // measure 16
0002
0000
0000
0023
0000
0000
0031
0000
0010
0000
1000
0000
0010
0000
0001
0000
,  // measure 17
2000
0000
0000
3020
0000
0000
0031
0000
0010
0000
1000
0000
1000
0000
0000
0000
,  // measure 18
0002
0000
0000
0203
0000
0000
0301
0000
0100
0000
1000
0000
0100
0000
0001
0000
,  // measure 19
2000
0000
0000
3200
0000
0000
0301
0000
0100
0000
1000
0000
1000
0000
0000
0000
,  // measure 20
2000
0000
0000
0010
0000
0000
0001
0000
3002
0000
0000
0010
0000
0000
1000
0000
,  // measure 21
2003
0000
0000
0010
0000
0000
0001
0000
3002
0000
0000
0010
0000
0000
1000
0000
,  // measure 22
1003
0010
0100
0001
1000
0100
0010
0001
,  // measure 23
1000
0000
0000
0000
0001
0000
0100
0000
0010
1000
0000
0100
0000
0000
0010
0000
,  // measure 24
0002
0000
0010
0010
0010
0000
1000
0010
,  // measure 25
2003
0000
0010
0010
0010
0000
0010
0001
,  // measure 26
3100
0000
0010
0000
0100
0000
0010
0000
0100
1000
0000
0010
0000
0000
0010
0000
,  // measure 27
1000
0000
0002
0000
0023
0000
0030
0100
0000
1000
0000
0001
0100
0000
0010
0000
,  // measure 28
2000
0000
0010
0010
0010
0000
0001
0010
,  // measure 29
3002
0000
0010
0010
0010
0000
0010
1000
,  // measure 30
0103
0000
0010
0000
0100
0000
0010
0000
0100
0001
0000
0010
0000
0000
0010
0000
,  // measure 31
1001
0000
0000
0000
0001
0000
0100
0000
0010
0100
0000
0010
0000
1000
0000
0000
,  // measure 32
2002
0000
0000
0000
0000
0000
3003
1000
,  // measure 33
0001
0000
0010
0000
0001
0000
0010
0000
0200
0000
0000
0010
0000
0010
0000
1300
,  // measure 34
0000
0000
0010
0000
1000
0000
0010
0000
0200
0000
0000
0010
0000
0010
0000
0302
,  // measure 35
0000
0100
0000
2003
0000
0100
0000
3002
0000
0000
0013
0000
0100
0000
1000
0000
,  // measure 36
0002
0000
0000
0000
2003
0000
0000
0010
0000
0001
0000
3002
0000
0000
0000
0010
,  // measure 37
0000
1000
0000
2003
0000
0010
0000
3002
0000
0010
0000
2003
0000
0000
3001
0000
,  // measure 38
0100
0000
0000
0000
0001
0000
0100
0010
0000
1000
0000
0100
0000
0010
0000
0002
,  // measure 39
0000
0000
0023
0000
2030
0000
3020
0000
0032
0000
2003
3020
0000
0000
0130
0000
,  // measure 40
0002
0100
0000
0100
,  // measure 41
0000
0000
0100
0000
0100
0000
0103
0001
,  // measure 42
2000
0100
0000
0100
,  // measure 43
0000
0000
0100
0000
0100
0000
3100
1000
,  // measure 44
0001
0000
0101
0000
0010
0100
0001
0000
,  // measure 45
1000
0000
1100
0000
0010
0100
1000
0000
,  // measure 46
0002
0203
0320
2030
,  // measure 47
3100
0010
0100
0010
0001
0100
0010
0000
,  // measure 48
2010
0000
0000
0000
0001
0000
0000
0000
3100
0000
0000
0000
0000
0000
0100
1000
,  // measure 49
0100
1000
0001
1000
2020
0000
3030
0000
,  // measure 50
0012
0000
0000
0000
1000
0000
0000
0000
0103
0000
0000
0000
0000
0000
0100
0001
,  // measure 51
0100
0001
1000
0001
0022
0000
0033
0000
,  // measure 52
2010
0000
0000
0000
0001
0000
0000
0000
3100
0000
0000
0000
0000
0000
0010
0001
,  // measure 53
0010
0000
0001
0000
0100
0000
0010
0000
2020
0000
0000
0000
3030
0000
0010
1000
,  // measure 54
0010
0000
1000
0000
0100
0000
0010
0000
0022
0000
0000
0000
0033
0000
0001
1000
,  // measure 55
0001
0010
0001
1000
0020
0000
1030
0000
,  // measure 56
0001
0100
0000
0001
0000
0100
0010
0000
1000
0100
0000
1000
0000
0100
0010
0000
,  // measure 57
0001
0100
0010
1000
0100
0010
0011
0000
,  // measure 58
0010
0001
0000
1000
0001
0000
0100
0000
0010
1000
0000
0001
1000
0000
0100
0000
,  // measure 59
0001
0100
0010
0001
0100
0010
1010
0000
,  // measure 60
0001
0010
0000
0001
0000
0100
0010
0000
1000
0010
0000
1000
0000
0100
0010
0000
,  // measure 61
0001
0100
1000
0100
0001
0010
1000
0010
,  // measure 62
0001
0000
0000
0001
0100
0000
0000
0100
0010
0000
0000
0010
1000
0000
0000
1000
,  // measure 63
0001
1000
0000
0100
0000
0010
0000
0001
0000
1000
0000
0001
1000
0001
0000
0000
,  // measure 64
2000
0000
0000
3020
0000
0000
1030
0000
0010
0000
0001
0000
0010
0000
1000
0000
,  // measure 65
0002
0000
0000
0023
0000
0000
1030
0000
0010
0000
0001
0000
0001
0000
0000
0000
,  // measure 66
2000
0000
0000
3200
0000
0000
1300
0000
0100
0000
0001
0000
0100
0000
1000
0000
,  // measure 67
0002
0000
0000
0203
0000
0000
1300
0000
0100
0000
0001
0000
0001
0000
0000
0000
,  // measure 68
0002
0000
0000
0100
0000
0000
1000
0000
2003
0000
0000
0010
0000
0000
0001
0000
,  // measure 69
3002
0000
0000
0010
0000
0000
1000
0000
2003
0000
0000
0100
0000
0000
0001
0000
,  // measure 70
3001
0010
0100
1000
0001
0100
0010
1000
,  // measure 71
0001
0000
0000
0000
1000
0000
0100
0000
0010
0001
0000
0200
0000
0000
0300
0000
;

//---------------dance-single - ----------------
#NOTEDATA:;
#CHARTNAME:;
#STEPSTYPE:dance-single;
#DESCRIPTION:;
#CHARTSTYLE:;
#DIFFICULTY:Medium;
#METER:8;
#RADARVALUES:0.364761,0.419634,0.241320,0.708392,0.000000,328.000000,297.000000,31.000000,91.000000,0.000000,0.000000,0.000000,0.000000,0.000000,0.364761,0.419634,0.241320,0.708392,0.000000,328.000000,297.000000,31.000000,91.000000,0.000000,0.000000,0.000000,0.000000,0.000000;
#CREDIT:;
#NOTES:
// measure 0
0000
0000
0000
0000
,  // measure 1
0000
0000
0000
0000
,  // measure 2
0000
0000
0000
0000
,  // measure 3
0000
0000
0000
0000
,  // measure 4
1000
0010
1000
1000
,  // measure 5
0001
0010
0001
0001
,  // measure 6
1000
0010
0100
0001
,  // measure 7
0010
0010
0010
1001
,  // measure 8
0001
0100
0001
0100
0020
0000
1000
0000
,  // measure 9
0130
0001
0100
0001
0010
0000
0011
0000
,  // measure 10
1000
0100
1000
0100
0020
0000
0001
0000
,  // measure 11
0130
1000
0100
1000
0010
0000
1010
0000
,  // measure 12
0001
0100
0001
0100
0020
0000
0100
0000
,  // measure 13
1030
0010
0100
0010
1000
0000
1001
0000
,  // measure 14
0001
0010
0100
0010
0001
0000
1001
0000
,  // measure 15
1000
0010
0100
0001
1000
0000
0000
0000
,  // measure 16
0002
0000
0023
0000
0130
0010
0100
0010
,  // measure 17
0002
0000
0203
0000
0301
0100
0010
0000
,  // measure 18
2000
0000
3020
0000
0130
0010
0100
0010
,  // measure 19
2000
0000
3200
0000
0310
0100
0010
0000
,  // measure 20
0022
0033
2200
3300
,  // measure 21
2020
3030
0202
0303
,  // measure 22
0002
0023
0230
2300
,  // measure 23
3001
0000
0100
0010
,  // measure 24
2010
0100
0100
3010
,  // measure 25
1020
0000
0100
0000
1030
0001
1000
0000
,  // measure 26
0200
0000
0010
0010
,  // measure 27
2300
0000
0000
0000
3010
1000
0100
0000
,  // measure 28
0012
0100
0100
0013
,  // measure 29
0021
0000
0100
0000
0031
1000
0001
0000
,  // measure 30
0200
0000
0010
0010
,  // measure 31
0302
0000
0013
0100
1000
0000
0001
0000
,  // measure 32
2002
0000
0000
3003
,  // measure 33
0002
0000
0203
0000
0320
0000
1030
1000
,  // measure 34
2000
0000
3200
0000
0320
0000
0031
0001
,  // measure 35
0001
0000
1000
0000
0001
0100
0010
0000
,  // measure 36
0200
0000
0310
1000
0100
0000
0011
0000
,  // measure 37
0100
0000
1010
0000
0001
1000
0100
0000
,  // measure 38
0020
0000
0031
1000
0010
1000
0001
0000
,  // measure 39
1000
0100
0010
0001
2000
0000
3001
0000
,  // measure 40
0200
0001
0000
0001
,  // measure 41
0000
0001
0301
1000
,  // measure 42
0200
1000
0000
1000
,  // measure 43
0000
1000
1300
0001
,  // measure 44
0100
0010
1000
1000
,  // measure 45
0100
0010
0001
0001
,  // measure 46
2000
3020
2030
3002
,  // measure 47
0023
0032
0203
0310
,  // measure 48
2020
0030
0002
0003
,  // measure 49
3100
1000
0100
0000
0110
0000
0000
0000
,  // measure 50
0022
0030
2000
3000
,  // measure 51
0103
0001
0100
0000
0110
0000
0000
0000
,  // measure 52
2020
0030
0002
0003
,  // measure 53
3100
0010
0001
0000
0011
0000
0000
0000
,  // measure 54
0100
0010
1000
0000
1010
0000
0000
0000
,  // measure 55
1000
0100
1000
0100
0010
0000
0001
0000
,  // measure 56
1001
0000
0001
0100
1000
0000
1000
0100
,  // measure 57
0002
0023
0230
2300
,  // measure 58
3010
0000
0100
0001
0010
0000
0100
1000
,  // measure 59
0020
0000
0230
0000
0301
1000
0001
0000
,  // measure 60
1000
0000
1000
0100
0001
0000
0001
0100
,  // measure 61
2000
3020
0230
0302
,  // measure 62
0013
1100
0010
0101
,  // measure 63
1000
0010
0001
0010
1000
0000
1001
0000
,  // measure 64
2000
0000
3020
0000
0130
0010
0100
0010
,  // measure 65
2000
0000
3200
0000
1300
0100
0010
0000
,  // measure 66
0002
0000
0023
0000
0130
0010
0100
0010
,  // measure 67
0002
0000
0203
0000
0310
0100
0010
0000
,  // measure 68
2020
3030
0202
0303
,  // measure 69
0022
0033
2200
3300
,  // measure 70
2000
3020
0230
0302
,  // measure 71
1003
0000
0100
0000
0020
0000
0000
0030
;

//---------------dance-single - ----------------
#NOTEDATA:;
#CHARTNAME:;
#STEPSTYPE:dance-single;
#DESCRIPTION:;
#CHARTSTYLE:;
#DIFFICULTY:Easy;
#METER:4;
#RADARVALUES:0.207958,0.251781,0.108983,0.272458,0.000000,187.000000,173.000000,14.000000,35.000000,0.000000,0.000000,0.000000,0.000000,0.000000,0.207958,0.251781,0.108983,0.272458,0.000000,187.000000,173.000000,14.000000,35.000000,0.000000,0.000000,0.000000,0.000000,0.000000;
#CREDIT:;
#NOTES:
// measure 0
0000
0000
0000
0000
,  // measure 1
0000
0000
0000
0000
,  // measure 2
0000
0000
0000
0000
,  // measure 3
0000
0000
0000
0000
,  // measure 4
1000
0000
0100
0000
,  // measure 5
0010
0000
0001
0000
,  // measure 6
0100
0000
0010
0000
,  // measure 7
1000
1000
1000
0000
,  // measure 8
0001
0010
0100
0000
,  // measure 9
0010
0010
0001
0000
,  // measure 10
1000
0010
0100
0000
,  // measure 11
0010
0010
1000
0000
,  // measure 12
0001
0010
0100
0000
,  // measure 13
1000
0010
1000
0000
,  // measure 14
0001
0010
0001
0000
,  // measure 15
0100
0010
1001
0000
,  // measure 16
0002
0003
0001
0010
,  // measure 17
0200
0300
0110
0000
,  // measure 18
2000
3000
1000
0010
,  // measure 19
0200
0300
0110
0000
,  // measure 20
0002
0003
2000
3000
,  // measure 21
0002
0003
2000
3000
,  // measure 22
0001
1000
0001
1000
,  // measure 23
0002
0000
0000
0003
,  // measure 24
0022
0033
0100
0010
,  // measure 25
2020
3030
0100
0010
,  // measure 26
0001
0000
0001
0000
,  // measure 27
1000
0000
1000
0000
,  // measure 28
2200
3300
0010
0100
,  // measure 29
0202
0303
0010
0100
,  // measure 30
1000
0000
0001
0000
,  // measure 31
0200
0000
0310
0010
,  // measure 32
2002
0000
0000
3003
,  // measure 33
1000
0100
0010
0000
,  // measure 34
0001
0100
0010
0000
,  // measure 35
1000
0100
0010
0001
,  // measure 36
1000
0000
0001
0000
,  // measure 37
1000
0001
1000
0001
,  // measure 38
0100
0000
0010
0100
,  // measure 39
0001
1000
0100
0000
,  // measure 40
0020
0000
0000
0030
,  // measure 41
0002
0000
0000
0003
,  // measure 42
0200
0000
0000
0300
,  // measure 43
0020
0000
0000
0030
,  // measure 44
1000
0000
0010
0000
,  // measure 45
1000
0000
0100
0000
,  // measure 46
0020
0000
0000
0000
,  // measure 47
0200
0000
0000
0330
,  // measure 48
1000
1000
0010
0000
,  // measure 49
1000
0010
0110
0000
,  // measure 50
0001
0001
0010
0000
,  // measure 51
0001
0010
0110
0000
,  // measure 52
1000
1000
0010
0000
,  // measure 53
0100
0010
1010
0000
,  // measure 54
0100
0010
0011
0000
,  // measure 55
0001
1000
0001
0000
,  // measure 56
1000
0000
1000
0000
,  // measure 57
0010
1000
0100
1000
,  // measure 58
0010
0000
0010
0000
,  // measure 59
0100
0100
0001
1000
,  // measure 60
0001
0000
0001
0000
,  // measure 61
0010
0001
0100
0001
,  // measure 62
0010
0000
0100
0000
,  // measure 63
0010
0100
1000
0001
,  // measure 64
2000
3000
1000
0010
,  // measure 65
0200
0300
0110
0000
,  // measure 66
0002
0003
0001
0010
,  // measure 67
0200
0300
0110
0000
,  // measure 68
2000
3000
0002
0003
,  // measure 69
2000
3000
0002
0003
,  // measure 70
1000
0001
1000
0001
,  // measure 71
2000
0000
0000
0000
0000
0000
0000
3000
;

//---------------dance-single - ----------------
#NOTEDATA:;
#CHARTNAME:;
#STEPSTYPE:dance-single;
#DESCRIPTION:;
#CHARTSTYLE:;
#DIFFICULTY:Beginner;
#METER:2;
#RADARVALUES:0.132337,0.165810,0.038923,0.085630,0.000000,119.000000,114.000000,5.000000,11.000000,0.000000,0.000000,0.000000,0.000000,0.000000,0.132337,0.165810,0.038923,0.085630,0.000000,119.000000,114.000000,5.000000,11.000000,0.000000,0.000000,0.000000,0.000000,0.000000;
#CREDIT:;
#NOTES:
// measure 0
0000
0000
0000
0000
,  // measure 1
0000
0000
0000
0000
,  // measure 2
0000
0000
0000
0000
,  // measure 3
0000
0000
0000
0000
,  // measure 4
1000
0000
0000
0000
,  // measure 5
0001
0000
0000
0000
,  // measure 6
1000
0000
0000
0000
,  // measure 7
0001
0000
0000
0000
,  // measure 8
1000
1000
1000
0000
,  // measure 9
0100
0000
0010
0000
,  // measure 10
0001
0001
0001
0000
,  // measure 11
0010
0000
0100
0000
,  // measure 12
1000
1000
1000
0000
,  // measure 13
0010
0000
0100
0000
,  // measure 14
0001
0001
0001
0000
,  // measure 15
0010
0000
0100
0000
,  // measure 16
1000
0000
1000
0000
,  // measure 17
0010
0000
0010
0000
,  // measure 18
0100
0000
0100
0000
,  // measure 19
0001
0000
0001
0000
,  // measure 20
1000
0000
0001
0000
,  // measure 21
1000
0000
0001
0000
,  // measure 22
0020
0000
0000
0000
,  // measure 23
0030
0000
0000
0000
,  // measure 24
1001
0000
0000
0000
,  // measure 25
1001
0000
0000
0000
,  // measure 26
0100
0000
0100
0000
,  // measure 27
0010
0000
0010
0000
,  // measure 28
1001
0000
0000
0000
,  // measure 29
1001
0000
0000
0000
,  // measure 30
0100
0000
0010
0000
,  // measure 31
0100
0000
0000
0000
,  // measure 32
2002
0000
3003
0000
,  // measure 33
1000
0000
0100
0000
,  // measure 34
0010
0000
0001
0000
,  // measure 35
0100
0000
0010
0000
,  // measure 36
1000
0000
0001
0000
,  // measure 37
1000
0000
0001
0000
,  // measure 38
0010
0000
0100
0000
,  // measure 39
0010
0010
0010
0000
,  // measure 40
0200
0000
0000
0000
,  // measure 41
0300
0000
0000
0000
,  // measure 42
0020
0000
0000
0000
,  // measure 43
0030
0000
0000
0000
,  // measure 44
0001
0000
0000
0000
,  // measure 45
1000
0000
0000
0000
,  // measure 46
0020
0000
0000
0000
,  // measure 47
0030
0000
0000
0000
,  // measure 48
2000
0000
3000
0000
,  // measure 49
0010
0000
1000
0000
,  // measure 50
0002
0000
0003
0000
,  // measure 51
0010
0000
0001
0000
,  // measure 52
2000
0000
3000
0000
,  // measure 53
0010
0000
0100
0000
,  // measure 54
0002
0000
0003
0000
,  // measure 55
0010
0000
0100
0000
,  // measure 56
1000
0000
1000
0000
,  // measure 57
0010
0010
0010
0000
,  // measure 58
0100
0000
0100
0000
,  // measure 59
0001
0001
0001
0000
,  // measure 60
0010
0000
0010
0000
,  // measure 61
0100
0100
0100
0000
,  // measure 62
1000
0000
0001
0000
,  // measure 63
0100
0100
0100
0000
,  // measure 64
0001
0000
0001
0000
,  // measure 65
0010
0000
0010
0000
,  // measure 66
0100
0000
0100
0000
,  // measure 67
1000
0000
1000
0000
,  // measure 68
0001
0000
1000
0000
,  // measure 69
0001
0000
1000
0000
,  // measure 70
0020
0000
0000
0000
,  // measure 71
0030
0000
0000
0000
;
