#VERSION:0.83;
#TITLE:Cansei de S NIK;
#SUBTITLE:;
#ARTIST:PRASTIK DANCEFLOOR;
#TITLETRANSLIT:;
#SUBTITLETRANSLIT:;
#ARTISTTRANSLIT:;
#GENRE:Fidget House;
#ORIGIN:;
#CREDIT:;
#BANNER:Cansei de S NIK.png;
#BACKGROUND:Cansei de S NIK-bg.png;
#PREVIEWVID:;
#JACKET:Cansei de S NIK-jacket.png;
#CDIMAGE:;
#DISCIMAGE:;
#LYRICSPATH:;
#CDTITLE:cdtitle.png;
#MUSIC:Cansei de S NIK.ogg;
#OFFSET:-0.344000;
#SAMPLESTART:44.139622;
#SAMPLELENGTH:14.014599;
#SELECTABLE:YES;
#BPMS:0.000=137.000,
100.000=68.500,
116.000=137.000,
212.000=68.500;
#STOPS:;
#DELAYS:;
#WARPS:;
#TIMESIGNATURES:0.000=4=4;
#TICKCOUNTS:0.000=4;
#COMBOS:0.000=1;
#SPEEDS:0.000=1.000=0.000=0;
#SCROLLS:0.000=1.000;
#FAKES:;
#LABELS:0.000=Song Start;
#BGCHANGES:;
#KEYSOUNDS:;
#ATTACKS:
;

//---------------dance-single - ----------------
#NOTEDATA:;
#CHARTNAME:;
#STEPSTYPE:dance-single;
#DESCRIPTION:;
#CHARTSTYLE:;
#DIFFICULTY:Challenge;
#METER:15;
#RADARVALUES:0.710628,0.929004,0.155450,0.356620,0.873263,544.000000,527.000000,17.000000,39.000000,0.000000,0.000000,6.000000,0.000000,0.000000,0.710628,0.929004,0.155450,0.356620,0.873263,544.000000,527.000000,17.000000,39.000000,0.000000,0.000000,6.000000,0.000000,0.000000;
#CREDIT:;
#OFFSET:-0.344000;
#BPMS:0.000000=137.000000
,100.000000=68.500000
,116.000000=137.000000
,212.000000=68.500000
;
#STOPS:;
#DELAYS:;
#WARPS:;
#TIMESIGNATURES:0.000000=4=4
;
#TICKCOUNTS:0.000000=4
;
#COMBOS:0.000000=1
;
#SPEEDS:0.000000=1.000000=0.000000=0
;
#SCROLLS:0.000000=1.000000
,31.000000=0.500000
,33.500000=1.000000
,66.000000=2.000000
,66.250000=1.000000
,66.500000=0.500000
,66.875000=1.000000
,107.500000=0.000000
,107.562500=2.000000
,107.625000=0.000000
,107.687500=2.000000
,107.750000=0.000000
,107.812500=2.000000
,107.875000=0.000000
,107.937500=2.000000
,108.000000=1.000000
,109.500000=0.000000
,109.583336=2.000000
,109.666664=0.000000
,109.750000=2.000000
,109.833336=0.000000
,109.916664=2.000000
,110.000000=1.000000
,111.000000=0.000000
,111.020836=2.000000
,111.041664=0.000000
,111.062500=2.000000
,111.083336=0.000000
,111.104164=2.000000
,111.125000=0.000000
,111.145836=2.000000
,111.166664=0.000000
,111.187500=2.000000
,111.208336=0.000000
,111.229164=2.000000
,111.250000=0.000000
,111.270836=2.000000
,111.291664=0.000000
,111.312500=2.000000
,111.333336=0.000000
,111.354164=2.000000
,111.375000=0.000000
,111.395836=2.000000
,111.416664=0.000000
,111.437500=2.000000
,111.458336=0.000000
,111.479164=2.000000
,111.500000=0.000000
,111.520836=2.000000
,111.541664=0.000000
,111.562500=2.000000
,111.583336=0.000000
,111.604164=2.000000
,111.625000=0.000000
,111.645836=2.000000
,111.666664=0.000000
,111.687500=2.000000
,111.708336=0.000000
,111.729164=2.000000
,111.750000=0.000000
,111.770836=2.000000
,111.791664=0.000000
,111.812500=2.000000
,111.833336=0.000000
,111.854164=2.000000
,111.875000=0.000000
,111.895836=2.000000
,111.916664=0.000000
,111.937500=2.000000
,111.958336=0.000000
,111.979164=2.000000
,112.000000=1.000000
,113.000000=0.000000
,113.020836=2.000000
,113.041664=0.000000
,113.062500=2.000000
,113.083336=0.000000
,113.104164=2.000000
,113.125000=0.000000
,113.145836=2.000000
,113.166664=0.000000
,113.187500=2.000000
,113.208336=0.000000
,113.229164=2.000000
,113.250000=0.000000
,113.270836=2.000000
,113.291664=0.000000
,113.312500=2.000000
,113.333336=0.000000
,113.354164=2.000000
,113.375000=0.000000
,113.395836=2.000000
,113.416664=0.000000
,113.437500=2.000000
,113.458336=0.000000
,113.479164=2.000000
,113.500000=1.000000
,179.000000=-1.000000
,179.250000=-0.500000
,179.500000=0.000000
,179.750000=4.000000
,180.000000=1.000000
,219.000000=0.000000
,219.166672=2.000000
,219.333328=0.000000
,219.500000=2.000000
,219.666672=0.000000
,220.000000=1.000000
;
#FAKES:;
#LABELS:0.000000=Song Start
;
#NOTES:
0000
0000
0000
0000
,
0000
0000
0000
0000
,
0000
0000
0000
0000
,
0000
0000
0000
0000
,
0000
0000
0000
0000
,
0001
0000
0001
0010
0100
0000
0100
0000
0010
0100
1000
0000
1000
0000
0001
0000
,
1000
0000
1000
0010
0100
0000
0100
0000
0010
0100
0001
0000
1000
0001
0010
0100
,
0010
0000
0001
1000
0001
0000
0100
0000
0001
1000
0001
0000
0020
0000
0000
0000
,
0000
0000
0000
0000
0000
0000
0030
0000
0000
0001
0010
0001
0010
0000
0000
0100
0000
0000
2000
0000
0000
3002
0000
0000
,
0103
0000
0000
0000
0010
0000
0100
0000
0010
0000
0000
0000
0010
0000
0000
0000
0200
0000
0000
0000
0000
0000
0000
0000
1000
0000
0000
0000
0000
0000
0310
0100
,
0020
0000
0030
1000
0010
0001
0010
1000
,
0100
0000
0000
0000
0010
0000
0100
0000
0010
0000
0000
0000
0010
0000
0000
0000
0200
0000
0000
0000
0000
0000
0000
0000
0001
0000
0000
0000
0000
0000
0310
0100
,
0020
0000
0000
0000
0000
0000
0030
0000
0000
0100
1000
0001
1000
0000
0000
0001
0000
0000
0100
0000
0000
0010
0000
0000
,
1000
0000
0000
0000
0001
0000
0010
0000
0100
0000
0000
0000
0100
0000
0000
0000
0020
0000
0000
0000
0000
0000
0000
0000
1000
0000
0000
0000
0000
0000
0130
0010
,
0200
0000
0300
1000
0100
0001
0100
1000
,
0001
0000
0000
0000
1000
0000
0010
0000
0100
0000
0000
0000
0100
0000
0000
0000
0020
0000
0000
0000
0000
0000
0000
0000
0001
0000
0000
0000
0000
0000
0130
0010
,
0200
0000
0000
0000
0000
0000
0300
0000
0000
0001
1000
0001
0010
0000
0000
0000
0000
0000
0011
0000
0000
1000
0000
0000
,
1000
0000
0010
0100
0010
0000
1000
0000
0001
0000
0010
0100
0010
0000
0001
0000
,
1000
0000
0010
0100
0010
0000
1000
0000
0001
0010
0100
0010
2000
0000
0000
0000
,
3010
0000
0100
0010
0100
0000
1000
0000
0001
0000
0100
0010
0100
0000
0010
0000
,
0001
0000
0010
0100
0010
0000
1000
0010
0100
0001
0010
0100
2000
0000
0000
0000
,
3001
0000
0010
0100
1000
0000
0001
0000
1000
0000
0010
0100
0001
0000
1000
0000
,
0001
0000
0010
0100
1000
0000
0001
0000
1000
0010
0100
0010
0002
0000
0000
0000
,
0013
0000
1000
0010
0100
0000
0001
0000
1000
0000
0001
0010
0100
0000
0010
0000
,
2000
0000
0000
0000
3010
0000
0200
0000
0310
0000
0001
0000
0010
0001
1000
0001
,
0200
0000
0000
0000
1000
0000
0320
0000
0000
0000
0001
0000
0230
0000
0000
0310
1000
0000
0100
0010
0100
0010
0100
0010
0001
0000
0000
0000
1000
0000
1000
0001
,
0200
0000
0000
0000
0000
0000
0301
1000
0100
0000
0100
0000
0020
0000
0000
0031
2000
0000
0000
3000
1010
0000
0002
0000
0000
0003
0011
0000
0001
0100
0010
1000
,
0200
0000
0000
0000
0000
0000
0000
0000
0000
0000
0000
0000
0000
0000
0000
0000
0000
0000
0000
0000
0000
0000
0000
0000
0001
0000
0000
0000
0000
0000
0000
0000
0000
0000
0000
0000
0320
0000
0000
0000
0000
0000
0000
0000
0000
0000
0000
0000
0000
0000
0000
0000
0000
0000
0000
0000
0000
0000
0000
0000
1000
0000
0000
0000
0000
0000
0000
0000
0000
0000
0000
0000
0130
0000
0000
0000
0000
0000
0000
0000
0010
0000
0000
0000
0000
0000
0000
0000
0001
0000
0000
0000
0000
0000
0000
0000
1000
0000
0000
0000
0000
0000
0000
0000
0000
0000
0000
0000
0010
0000
0000
0000
0000
0000
0100
0000
0000
0000
0000
0000
0010
0000
0000
0000
0000
0000
0100
0000
0000
0000
0000
0000
0010
0000
0000
0000
0000
0000
0100
0000
0000
0000
0000
0000
0004
0000
0000
0000
0000
0000
0000
0000
0000
0000
0000
0000
0000
0000
0000
0000
0000
0000
0000
0000
0000
0000
0000
0000
4003
0000
0000
0000
0000
0000
0000
0000
0000
0000
0000
0000
0000
0000
0000
0000
0000
0000
0000
0000
0000
0000
0000
0000
,
3200
0000
0000
0000
0000
0000
0310
0001
0400
0000
0000
0000
0340
0030
4000
3000
1010
0000
0001
0000
0001
0000
0010
0001
0010
0001
1000
0000
0001
0100
0010
1000
,
0100
0000
0001
0100
0000
0001
0100
0000
0010
0000
0001
1000
0000
0001
1000
0000
,
0010
0000
0000
0000
0000
0000
0001
0000
0000
0010
0000
0000
0000
0000
0000
0010
0000
0000
1000
0000
0000
0000
0000
0000
0001
0000
0000
0000
0000
0000
1000
0000
0100
0000
0010
0000
0002
0000
0000
0000
0000
0000
0000
0000
0000
0000
0000
0000
,
1003
0000
0010
0100
0000
0010
0100
0000
0010
0000
0001
0010
0000
0100
0001
0000
,
1000
0000
0000
0000
0000
0000
0100
0000
0000
0001
0000
0000
0000
0000
0000
0100
0000
0000
0010
0000
0000
0000
0000
0000
0001
0000
0000
0000
0000
0000
1000
0000
0001
0000
1000
0000
0002
0000
0000
0000
0000
0000
0000
0000
0000
0000
0000
0000
,
0103
0000
1000
0100
0000
1000
0100
0000
0010
0000
1000
0001
0000
1000
0001
0000
,
0010
0000
0000
0000
0000
0000
1000
0000
0000
0010
0000
0000
0000
0000
0000
0010
0000
0000
0001
0000
0000
0000
0000
0000
1000
0000
0000
0000
0000
0000
0001
0000
0100
0000
0010
0000
2000
0000
0000
0000
0000
0000
0000
0000
0000
0000
0000
0000
,
3001
0000
1000
0100
0000
0100
0010
0000
0110
0000
0001
0100
0000
0100
0010
0000
,
0110
0000
0000
0000
0000
0000
1000
0000
0000
0001
0000
0000
0000
0000
0000
1000
0000
0000
0001
0000
0000
0000
0000
0000
1002
0000
0000
0000
0000
0000
0013
0000
0100
0000
0010
0000
0100
0000
0000
0000
0000
0000
1000
0000
0000
0000
0000
0000
,
0001
0000
1000
0010
1000
0010
0100
0000
1000
0000
0100
0010
1000
0001
0010
0000
,
1000
0000
0000
0000
0000
0000
0010
0000
0000
0100
0000
0000
0010
0000
0000
0001
0000
0000
1000
0000
0000
0000
0000
0000
0001
0000
0000
0000
0000
0000
1000
0000
0010
0000
0100
0000
0002
0000
0000
0000
0000
0000
1000
0000
0000
0000
0000
0000
,
1003
0000
0100
0010
0100
0010
1000
0000
0010
0000
0001
1000
0001
0100
0010
0000
,
0001
0000
0000
0000
0000
0000
0010
0000
0000
0100
0000
0000
0001
0000
0000
1000
0000
0000
0100
0000
0000
0000
0000
0000
0010
0000
0000
0000
0000
0000
0001
0000
0100
0000
0010
0000
2000
0000
0000
0000
0000
0000
3001
0000
0000
0000
0000
0000
,
1000
0000
0001
0010
0001
0010
0100
0000
0001
0000
0100
0010
0001
1000
0010
0000
,
0001
0000
0000
0000
0000
0000
0010
0000
0000
0100
0000
0000
0010
0000
0000
1000
0000
0000
0001
0000
0000
0000
0000
0000
1000
0000
0000
0000
0000
0000
0001
0000
0010
0000
0100
0000
2000
0000
0000
0000
0000
0000
0001
0000
0000
0000
0000
0000
,
3001
0000
1000
0010
0100
0010
1000
0000
1010
0000
0001
0010
0100
0010
0001
0000
,
0011
0000
0000
0000
0000
0000
1000
0000
0000
0010
0000
0000
0100
0000
0000
0001
0000
0000
1000
0000
0000
0000
0000
0000
0001
0000
0000
0000
0000
0000
1000
0000
0001
0000
1000
0000
0400
0000
0000
0000
0000
0000
0000
0000
0000
0000
0000
0000
,
0301
0000
0100
0010
0100
0000
1000
0000
0001
0000
0100
0010
0100
0000
1000
0000
,
0001
0000
0010
0100
0010
0000
1000
0000
0010
1000
0001
1000
0200
0000
0310
0000
,
1000
0000
0010
0100
0010
0000
0001
0000
1000
0000
0010
0100
0010
0000
0001
0000
,
1000
0000
0100
0010
0100
0000
0001
0000
0100
0010
1000
0001
0020
0000
0130
0000
,
1000
0000
0001
0100
0000
0000
0101
0000
0000
0000
0100
1000
0000
0000
1100
0000
,
0000
0000
1000
0010
0000
0000
1010
0000
0000
0000
0001
0000
0000
0000
0001
0000
,
0000
0000
1000
0100
0000
0000
0011
0000
0000
0000
0001
0100
0000
0000
1010
0000
,
0000
0000
0000
0000
0000
0000
0001
0000
0000
0010
0000
0000
0001
0000
0000
0000
0010
0000
0000
0000
0100
0000
0000
0000
1000
0000
0000
0000
0010
0000
0000
0000
0100
0000
0000
0000
0001
0000
0000
0010
0000
0000
0100
0000
0000
1000
0000
0000
,
0002
0000
0000
0000
0000
0000
0000
0000
0000
0000
0000
0000
0000
0000
0000
0000
0000
0000
0000
0000
0000
0000
0000
0000
0000
0000
0000
0000
0000
0000
0000
0000
0000
0000
0000
0000
0103
0000
0000
0000
0000
0000
0000
0000
0000
0000
0000
0000
1000
0000
0000
0000
0000
0000
0000
0000
0100
0000
0000
0000
0000
0000
0000
0000
1000
0000
0000
0000
0000
0000
0000
0000
0100
0000
0000
0000
0000
0000
0000
0000
0010
0000
0000
0000
0000
0000
0000
0000
2000
0000
0000
0000
0000
0000
0000
0000
0001
0000
0000
0000
0000
0000
0000
0000
0000
0000
0000
0000
0000
0000
0000
0000
0000
0000
0010
0000
0000
0000
0000
0000
0000
0000
0000
0000
0000
0000
0000
0000
0000
0000
0000
0000
3100
0000
0000
0000
0000
0000
0000
0000
0000
0000
0000
0000
0001
0000
0000
0000
0000
0000
0000
0000
0100
0000
0000
0000
0000
0000
0000
0000
0001
0000
0000
0000
0000
0000
0000
0000
0100
0000
0000
0000
0000
0000
0000
0000
0010
0000
0000
0000
0000
0000
0000
0000
0002
0000
0000
0000
0000
0000
0000
0000
,
1000
0000
0000
0000
0000
0000
0000
0000
0000
0000
0000
0000
0000
0000
0000
0000
0000
0000
0000
0000
0000
0000
0000
0000
0103
0000
0000
0000
0000
0000
0000
0000
0000
0000
0000
0000
0010
0000
0000
0000
0000
0000
0000
0000
0000
0000
0000
0000
0001
0000
0000
0000
0000
0000
0000
0000
0010
0000
0000
0000
0000
0000
0000
0000
0100
0000
0000
0000
0000
0000
0000
0000
0010
0000
0000
0000
0000
0000
0000
0000
1000
0000
0000
0000
0000
0000
0000
0000
0001
0000
0000
0000
0000
0000
0000
0000
0020
0000
0000
0000
0000
0000
0000
0000
0000
0000
0000
0000
0000
0000
0000
0000
0000
0000
1000
0000
0000
0000
0000
0000
0000
0000
0000
0000
0000
0000
0000
0000
0030
0000
0000
0000
0100
0000
0000
0000
0000
0000
0000
0000
0000
0000
0000
0000
0110
0000
0000
0000
0000
0000
0000
0000
0000
0000
0000
0000
0000
0000
0000
0000
0011
0000
0000
0000
0000
0000
0000
0000
0000
0000
0000
0000
0000
0000
0000
0000
1001
0000
0000
0000
0000
0000
0000
0000
0000
0000
0000
0000
0000
0000
0000
0000
;

//---------------dance-single - ----------------
#NOTEDATA:;
#CHARTNAME:;
#STEPSTYPE:dance-single;
#DESCRIPTION:;
#CHARTSTYLE:;
#DIFFICULTY:Hard;
#METER:13;
#RADARVALUES:0.577385,0.729243,0.091441,0.512070,0.530358,442.000000,432.000000,10.000000,56.000000,0.000000,0.000000,0.000000,0.000000,0.000000,0.577385,0.729243,0.091441,0.512070,0.530358,442.000000,432.000000,10.000000,56.000000,0.000000,0.000000,0.000000,0.000000,0.000000;
#CREDIT:;
#OFFSET:-0.344000;
#BPMS:0.000000=137.000000
,100.000000=68.500000
,116.000000=137.000000
,212.000000=68.500000
;
#STOPS:;
#DELAYS:;
#WARPS:;
#TIMESIGNATURES:0.000000=4=4
;
#TICKCOUNTS:0.000000=4
;
#COMBOS:0.000000=1
;
#SPEEDS:0.000000=1.000000=0.000000=0
;
#SCROLLS:0.000000=1.000000
;
#FAKES:;
#LABELS:0.000000=Song Start
;
#NOTES:
// measure 0
0000
0000
0000
0000
,  // measure 1
0000
0000
0000
0000
,  // measure 2
0000
0000
0000
0000
,  // measure 3
0000
0000
0000
0000
,  // measure 4
0000
0000
0000
0000
,  // measure 5
0001
0010
0001
1000
0001
1000
0010
0001
,  // measure 6
0010
1000
0001
1000
0001
0010
1000
0010
,  // measure 7
0100
0000
0000
0000
0010
0000
0100
0000
0010
0100
0010
0000
0200
0000
0000
0000
,  // measure 8
0000
0000
0000
0000
0000
0000
1300
0001
1000
0000
0001
0000
0100
0000
0010
0000
,  // measure 9
1000
0000
0001
0010
0001
0000
0010
0000
0200
0000
0000
0000
0320
0000
0000
0031
,  // measure 10
2000
0000
3000
0001
0100
0100
0001
0010
,  // measure 11
0001
0000
1000
0010
1000
0000
0010
0000
0200
0000
0000
0000
0320
0000
0000
1030
,  // measure 12
0002
0000
0000
0000
0003
0000
1000
0001
1000
0000
0100
0000
1000
0000
0001
0000
,  // measure 13
0100
0000
0010
1000
0010
0000
1000
0000
0200
0000
0000
0000
0320
0000
0000
0031
,  // measure 14
0200
0000
0300
0010
1000
1000
0001
1000
,  // measure 15
0100
0000
0010
0001
0010
0000
0001
0000
0200
0000
0000
0000
0320
0000
0000
1030
,  // measure 16
0200
0000
0000
0000
0000
0000
0310
0001
1000
0000
0000
0000
1001
0000
0000
0000
,  // measure 17
0001
0100
1000
0100
0001
0100
1000
0100
,  // measure 18
0001
0000
0100
0000
0010
0000
1000
0000
0001
0010
0001
0010
0002
0000
0000
0000
,  // measure 19
1003
0010
0001
0010
1000
0001
0010
1000
,  // measure 20
0010
0000
0001
0000
1000
0000
0010
0000
1000
0001
1000
0001
2000
0000
0000
0000
,  // measure 21
3100
0001
0100
1000
0100
0001
0100
1000
,  // measure 22
0100
0000
0001
0000
0100
0000
1000
0000
0010
1000
0010
1000
0020
0000
0000
0000
,  // measure 23
0130
1000
0100
0001
1000
0100
0001
0100
,  // measure 24
2000
0000
3010
0000
0100
0000
0002
0000
0013
0000
0100
0000
1000
0001
1000
0001
,  // measure 25
2000
0000
0000
0000
3010
0000
2000
0000
0000
0000
3010
0000
2000
0000
0000
3000
0001
0000
0010
0000
1000
0000
0010
0000
0001
0000
0000
0000
1000
0000
0001
0000
,  // measure 26
0200
0000
0000
0000
0000
0000
0310
0000
0001
0000
0010
0000
2000
0000
0000
0000
3200
0000
0000
0000
0310
0000
0200
0000
0000
0000
0310
0000
0001
1000
0001
1000
,  // measure 27
0002
0000
0000
0000
1003
0000
0001
0000
0100
0000
0010
0000
1010
0000
0000
0000
0001
0000
0000
1000
0000
0000
0100
0000
0012
0000
0000
0000
1000
0000
0000
0000
,  // measure 28
0203
0000
0000
0000
0000
0000
0310
0000
2002
0000
0000
0000
3003
0000
0000
0000
1000
0000
0100
0000
0010
0000
0001
0000
1000
0001
1000
0000
0020
0000
0000
0000
,  // measure 29
0130
0000
0010
1000
0000
0010
1000
0000
0001
0000
1000
0100
0000
1000
0100
0000
,  // measure 30
1000
0000
0010
0100
0000
0001
0010
0000
0100
0000
1000
0100
2000
0000
0000
0000
,  // measure 31
3001
0000
1000
0010
0000
0100
0001
0000
0010
0000
0100
1000
0000
0001
0100
0000
,  // measure 32
0010
0000
1000
0001
0000
0001
1000
0000
0100
0000
0010
0100
0020
0000
0000
0000
,  // measure 33
0130
0000
0010
0001
0000
0010
0001
0000
1000
0000
0001
0100
0000
0001
0100
0000
,  // measure 34
0001
0000
0010
0100
0000
1000
0010
0000
0100
0000
0001
0100
0002
0000
0000
0000
,  // measure 35
1003
0000
0001
0010
0000
0010
0001
0000
1000
0000
0001
0100
0000
0100
0001
0000
,  // measure 36
0010
0000
1000
0010
0000
0001
0100
0000
1000
0000
0100
0000
0002
0000
0023
0000
,  // measure 37
1030
0000
0010
0100
0000
0010
0100
0000
1000
0000
0001
0100
0000
0001
0100
0000
,  // measure 38
1000
0000
0100
0010
0000
1000
0001
0000
0010
0000
0001
0010
0200
0000
0000
0000
,  // measure 39
1300
0000
0001
0010
0000
0100
1000
0000
0010
0000
0100
0001
0000
1000
0100
0000
,  // measure 40
0010
0000
0001
1000
0000
1000
0001
0000
0100
0000
0010
0100
0020
0000
0000
0000
,  // measure 41
0031
0000
0010
0100
0000
0010
0100
0000
0001
0000
1000
0100
0000
1000
0100
0000
,  // measure 42
0001
0000
0100
0010
0000
0001
1000
0000
0001
0000
1000
0010
0200
0000
0000
0000
,  // measure 43
0301
0000
1000
0010
0000
0010
1000
0000
0001
0000
1000
0100
0000
0100
1000
0000
,  // measure 44
0010
0000
0001
0010
0000
1000
0100
0000
0001
0000
0100
0000
0220
0000
0330
0000
,  // measure 45
1000
0100
0001
0100
0001
0100
1000
0010
,  // measure 46
1000
0000
0010
0000
0001
0000
0010
0000
1000
0010
1000
0010
2000
0000
0000
0000
,  // measure 47
3001
0100
1000
0100
1000
0100
0001
0010
,  // measure 48
0001
0000
0010
0000
1000
0000
0010
0000
0001
0010
0001
0010
0002
0000
0000
0000
,  // measure 49
0103
0000
0010
1000
0000
0000
1010
0000
0000
0000
0001
0010
0000
0000
0011
0000
,  // measure 50
0000
0000
1000
0100
0000
0000
1100
0000
0000
0000
0001
0000
0000
0000
0001
0000
,  // measure 51
0000
0000
1000
0010
0000
0000
0101
0000
0000
0000
0001
0010
0000
0000
1100
0000
,  // measure 52
0000
0000
0001
0200
0000
0000
0310
0000
1000
0001
1000
0000
0200
0000
0000
0000
,  // measure 53
0302
0000
0000
0000
0000
0000
0000
0000
0000
0000
0000
0000
0000
0000
0000
0000
0000
0000
0000
0000
0000
0000
0000
0000
0000
0000
0000
0000
0000
0000
0000
0000
0000
0000
0000
0000
2003
0000
0000
0000
0000
0000
0000
0000
0000
0000
0000
0000
3020
0000
0000
0000
0000
0000
0000
0000
0000
0000
0000
0000
0000
0000
0000
0000
0000
0000
0000
0000
0000
0000
0000
0000
0100
0000
0000
0000
0000
0000
0000
0000
0000
0000
0000
0000
0000
0000
0000
0000
0000
0000
0000
0000
0000
0000
0000
0000
0031
0000
0000
0000
0000
0000
0000
0000
0000
0000
0000
0000
0000
0000
0000
0000
0000
0000
0010
0000
0000
0000
0000
0000
0000
0000
0000
0000
0000
0000
0000
0000
0000
0000
0000
0000
0001
0000
0000
0000
0000
0000
0000
0000
0000
0000
0000
0000
1000
0000
0000
0000
0000
0000
0000
0000
0001
0000
0000
0000
0000
0000
0000
0000
1000
0000
0000
0000
0000
0000
0000
0000
0002
0000
0000
0000
0000
0000
0000
0000
0000
0000
0000
0000
0000
0000
0000
0000
0000
0000
0000
0000
0000
0000
0000
0000
,  // measure 54
0203
0000
0000
0000
0000
0000
0000
0000
0000
0000
0000
0000
0000
0000
0000
0000
0000
0000
0000
0000
0000
0000
0000
0000
0000
0000
0000
0000
0000
0000
0000
0000
0000
0000
0000
0000
2300
0000
0000
0000
0000
0000
0000
0000
0000
0000
0000
0000
3002
0000
0000
0000
0000
0000
0000
0000
0000
0000
0000
0000
0000
0000
0000
0000
0000
0000
0000
0000
0000
0000
0000
0000
0023
0000
0000
0000
0000
0000
0000
0000
0000
0000
0000
0000
0000
0000
0000
0000
0000
0000
0000
0000
0000
0000
0000
0000
1030
0000
0000
0000
0000
0000
0000
0000
0000
0000
0000
0000
0000
0000
0000
0000
0000
0000
0010
0000
0000
0000
0000
0000
0000
0000
0000
0000
0000
0000
0000
0000
0000
0000
0000
0000
1000
0000
0000
0000
0000
0000
0000
0000
0000
0000
0000
0000
0002
0000
0000
0000
0000
0000
0000
0000
0000
0000
0000
0000
0000
0000
0000
0000
0023
0000
0000
0000
0000
0000
0000
0000
0000
0000
0000
0000
0000
0000
0000
0000
0032
0000
0000
0000
0000
0000
0000
0000
0000
0000
0000
0000
0000
0000
0000
0000
,  // measure 55
0003
0000
0000
0000
;

//---------------dance-single - ----------------
#NOTEDATA:;
#CHARTNAME:;
#STEPSTYPE:dance-single;
#DESCRIPTION:;
#CHARTSTYLE:;
#DIFFICULTY:Medium;
#METER:10;
#RADARVALUES:0.421935,0.527272,0.173738,0.402341,0.164594,323.000000,304.000000,19.000000,44.000000,0.000000,0.000000,0.000000,0.000000,0.000000,0.421935,0.527272,0.173738,0.402341,0.164594,323.000000,304.000000,19.000000,44.000000,0.000000,0.000000,0.000000,0.000000,0.000000;
#CREDIT:;
#OFFSET:-0.344000;
#BPMS:0.000000=137.000000
,100.000000=68.500000
,116.000000=137.000000
,212.000000=68.500000
;
#STOPS:;
#DELAYS:;
#WARPS:;
#TIMESIGNATURES:0.000000=4=4
;
#TICKCOUNTS:0.000000=4
;
#COMBOS:0.000000=1
;
#SPEEDS:0.000000=1.000000=0.000000=0
;
#SCROLLS:0.000000=1.000000
;
#FAKES:;
#LABELS:0.000000=Song Start
;
#NOTES:
// measure 0
0000
0000
0000
0000
,  // measure 1
0000
0000
0000
0000
,  // measure 2
0000
0000
0000
0000
,  // measure 3
0000
0000
0000
0000
,  // measure 4
0000
0000
0000
0000
,  // measure 5
1000
0010
1000
0010
1000
0001
0010
0000
,  // measure 6
0001
0010
0001
0010
0100
1000
0010
0000
,  // measure 7
2000
0000
0000
3001
1000
0100
0200
0000
,  // measure 8
0000
0000
0300
1000
0001
1000
0001
1000
,  // measure 9
0000
0000
0001
0000
0100
0000
0010
0000
2000
0000
0000
0000
3001
0000
0000
1000
,  // measure 10
0200
0000
0000
0310
0010
0001
0010
0001
,  // measure 11
0000
0000
1000
0000
0100
0000
0010
0000
0002
0000
0000
0000
1003
0000
0000
0001
,  // measure 12
0200
0000
0300
0010
0010
0100
0001
1000
,  // measure 13
0000
0000
0001
0000
0010
0000
0100
0000
2000
0000
0000
0000
3001
0000
0000
1000
,  // measure 14
0020
0000
0030
0100
0100
0010
1000
0001
,  // measure 15
0000
0000
1000
0000
0010
0000
0100
0000
0002
0000
0000
0000
1003
0000
0000
0001
,  // measure 16
0020
0000
0000
0100
0130
0000
1001
0000
,  // measure 17
1000
0010
1000
0000
0010
0100
0010
0000
,  // measure 18
0100
0001
0100
0001
1000
0001
0020
0000
,  // measure 19
0031
0010
0001
0000
0010
0100
0010
0000
,  // measure 20
0100
1000
0001
1000
0001
0100
2000
0000
,  // measure 21
3100
0010
0100
0000
0001
1000
0001
0000
,  // measure 22
1000
0100
0010
0001
0100
0010
2000
0000
,  // measure 23
3001
0010
0001
0000
1000
0010
1000
0000
,  // measure 24
0200
0000
0310
0001
0100
0010
1000
0000
,  // measure 25
2010
0000
0000
3002
0000
0000
2003
0000
3100
0000
0010
0100
0010
0000
0001
0000
,  // measure 26
0012
0000
0000
0003
1000
0001
2000
0000
3020
0000
0030
0200
0000
0300
0001
0000
,  // measure 27
1002
0000
0000
0023
0000
0030
0110
0000
1000
0001
1000
0000
0020
0000
0000
0030
,  // measure 28
0220
0000
0000
0330
0002
0000
2003
0000
3001
0010
0100
1000
0001
0000
1001
0000
,  // measure 29
1000
0000
0000
1000
0000
0000
0010
0000
0100
0000
0000
0100
0000
0000
0010
0000
,  // measure 30
1000
0000
0000
1000
0000
0000
0001
0000
1000
0000
0100
0000
0020
0000
0000
0000
,  // measure 31
0130
0000
0000
1000
0000
0000
0001
0000
0100
0000
0000
0010
0000
0000
1000
0000
,  // measure 32
0100
0000
0000
0010
0000
0000
0001
0000
0100
0000
0010
0000
2000
0000
0000
0000
,  // measure 33
3001
0000
0000
0001
0000
0000
0010
0000
0100
0000
0000
0100
0000
0000
0010
0000
,  // measure 34
0001
0000
0000
0001
0000
0000
1000
0000
0001
0000
0100
0000
0020
0000
0000
0000
,  // measure 35
1030
0000
0000
1010
0000
0000
1000
0000
0001
0000
0000
0011
0000
0000
0001
0000
,  // measure 36
0100
0000
0000
1010
0000
0000
0001
0000
0010
0000
0100
0000
2000
0000
0000
0000
,  // measure 37
3001
0000
0000
0001
0000
0000
0100
0000
1000
0000
0000
1000
0000
0000
0100
0000
,  // measure 38
0001
0000
0000
0001
0000
0000
1000
0000
0100
0000
0010
0000
0200
0000
0000
0000
,  // measure 39
0310
0000
0000
0001
0000
0000
1000
0000
0010
0000
0000
1000
0000
0000
0001
0000
,  // measure 40
0010
0000
0000
0100
0000
0000
1000
0000
0010
0000
0100
0000
0002
0000
0000
0000
,  // measure 41
1003
0000
0000
1000
0000
0000
0100
0000
0001
0000
0000
0001
0000
0000
0100
0000
,  // measure 42
1000
0000
0000
1000
0000
0000
0001
0000
0100
0000
0010
0000
2000
0000
0000
0000
,  // measure 43
3001
0000
0000
0011
0000
0000
0001
0000
1000
0000
0000
1010
0000
0000
1000
0000
,  // measure 44
0100
0000
0000
0011
0000
0000
1000
0000
0010
0000
1000
0000
0200
0000
0000
0000
,  // measure 45
0310
0001
1000
0000
0001
1000
0010
0000
,  // measure 46
1000
0010
0100
0001
1000
0010
0002
0000
,  // measure 47
0013
1000
0001
0000
1000
0001
0010
0000
,  // measure 48
0001
0010
0100
1000
0001
0010
2000
0000
,  // measure 49
3000
0010
0000
0001
0000
1000
0000
0001
,  // measure 50
0000
0100
0000
0010
0000
1001
0000
1001
,  // measure 51
0000
1000
0000
0100
0000
0001
0000
0100
,  // measure 52
0000
1000
0001
1000
0010
0000
0100
0000
,  // measure 53
0102
0000
0000
0000
0000
0000
0000
0000
0010
0000
0000
0000
0010
0000
0000
0000
0203
0000
0000
0300
0001
0000
0000
0000
0012
0000
0000
0000
1003
0000
0000
0000
,  // measure 54
2010
0000
0000
0000
0000
0000
0010
0000
0000
0010
0000
0000
3100
0000
0000
0010
0000
0000
2002
0000
3000
0000
0003
0000
;

//---------------dance-single - ----------------
#NOTEDATA:;
#CHARTNAME:;
#STEPSTYPE:dance-single;
#DESCRIPTION:;
#CHARTSTYLE:;
#DIFFICULTY:Easy;
#METER:6;
#RADARVALUES:0.288693,0.401731,0.155450,0.182882,0.000000,221.000000,204.000000,17.000000,20.000000,0.000000,0.000000,0.000000,0.000000,0.000000,0.288693,0.401731,0.155450,0.182882,0.000000,221.000000,204.000000,17.000000,20.000000,0.000000,0.000000,0.000000,0.000000,0.000000;
#CREDIT:;
#OFFSET:-0.344000;
#BPMS:0.000000=137.000000
,100.000000=68.500000
,116.000000=137.000000
,212.000000=68.500000
;
#STOPS:;
#DELAYS:;
#WARPS:;
#TIMESIGNATURES:0.000000=4=4
;
#TICKCOUNTS:0.000000=4
;
#COMBOS:0.000000=1
;
#SPEEDS:0.000000=1.000000=0.000000=0
;
#SCROLLS:0.000000=1.000000
;
#FAKES:;
#LABELS:0.000000=Song Start
;
#NOTES:
// measure 0
0000
0000
0000
0000
,  // measure 1
0000
0000
0000
0000
,  // measure 2
0000
0000
0000
0000
,  // measure 3
0000
0000
0000
0000
,  // measure 4
0000
0000
0000
0000
,  // measure 5
1000
1000
0100
0010
,  // measure 6
0001
0001
0100
0010
,  // measure 7
2000
0000
0000
3002
0000
0000
2000
0000
,  // measure 8
0000
3003
0010
0010
,  // measure 9
0000
1000
0001
1000
,  // measure 10
1200
0000
0010
0310
,  // measure 11
0000
0001
1000
0001
,  // measure 12
0201
0000
0000
0000
0310
1000
0010
0000
,  // measure 13
0000
1000
0100
0010
,  // measure 14
0012
0000
1000
1003
,  // measure 15
0000
0001
0100
0010
,  // measure 16
2010
0000
3001
1001
,  // measure 17
1000
0100
0010
0001
,  // measure 18
0100
0000
0010
0000
1000
0010
1000
0000
,  // measure 19
0001
0100
0010
1000
,  // measure 20
0100
0000
0010
0000
0001
1000
0001
0000
,  // measure 21
1000
0010
1000
0001
,  // measure 22
1000
0000
0100
0000
0010
0100
0010
0000
,  // measure 23
0001
1000
0001
0100
,  // measure 24
0020
0030
0010
1000
,  // measure 25
0001
0000
1001
0000
0001
0010
0011
0000
,  // measure 26
1000
0000
1001
0000
1000
0010
1010
0000
,  // measure 27
0001
0010
0100
1000
0010
0100
0002
0000
,  // measure 28
1003
0000
1002
0000
0013
0001
0100
0010
,  // measure 29
1000
1000
0100
0100
,  // measure 30
0010
0000
0010
0000
0001
0010
0001
0000
,  // measure 31
0100
0100
0010
0010
,  // measure 32
1000
0000
0100
0000
0010
0100
0010
0000
,  // measure 33
0001
0001
0100
0100
,  // measure 34
0010
0000
0010
0000
1000
0010
1000
0000
,  // measure 35
0001
0011
1000
1001
,  // measure 36
0100
0101
0002
1003
,  // measure 37
0010
0010
0001
0001
,  // measure 38
0010
0000
0010
0000
1000
0001
1000
0000
,  // measure 39
0100
0100
1000
1000
,  // measure 40
0010
0000
1000
0000
0001
1000
0001
0000
,  // measure 41
0010
0010
1000
1000
,  // measure 42
0010
0000
0010
0000
0001
1000
0001
0000
,  // measure 43
1000
1010
0001
1001
,  // measure 44
0100
1100
0002
2003
,  // measure 45
3001
0100
0001
1000
,  // measure 46
0100
0000
1000
0000
0001
1000
0001
0000
,  // measure 47
1000
0010
0100
0001
,  // measure 48
0010
0000
0100
0000
1000
0001
1000
0000
,  // measure 49
0010
0000
0010
0000
,  // measure 50
0010
0000
0010
1000
,  // measure 51
0100
0000
0100
0000
,  // measure 52
0010
0001
1000
0010
,  // measure 53
0200
0000
0010
0000
0302
1003
2001
0000
,  // measure 54
3200
0000
0000
0000
0000
0000
0010
0000
0000
0000
0000
0000
2300
0000
0000
3002
0000
0000
0200
0000
0003
0000
0300
0000
;

//---------------dance-single - ----------------
#NOTEDATA:;
#CHARTNAME:;
#STEPSTYPE:dance-single;
#DESCRIPTION:;
#CHARTSTYLE:;
#DIFFICULTY:Beginner;
#METER:3;
#RADARVALUES:0.171126,0.250320,0.091441,0.100585,0.000000,131.000000,121.000000,10.000000,11.000000,0.000000,0.000000,0.000000,0.000000,0.000000,0.171126,0.250320,0.091441,0.100585,0.000000,131.000000,121.000000,10.000000,11.000000,0.000000,0.000000,0.000000,0.000000,0.000000;
#CREDIT:;
#OFFSET:-0.344000;
#BPMS:0.000000=137.000000
;
#STOPS:;
#DELAYS:;
#WARPS:;
#TIMESIGNATURES:0.000000=4=4
;
#TICKCOUNTS:0.000000=4
;
#COMBOS:0.000000=1
;
#SPEEDS:0.000000=1.000000=0.000000=0
;
#SCROLLS:0.000000=1.000000
;
#FAKES:;
#LABELS:0.000000=Song Start
;
#NOTES:
// measure 0
0000
0000
0000
0000
,  // measure 1
0000
0000
0000
0000
,  // measure 2
0000
0000
0000
0000
,  // measure 3
0000
0000
0000
0000
,  // measure 4
0000
0000
0000
0000
,  // measure 5
0001
0000
0001
0000
,  // measure 6
1000
0000
1000
0000
,  // measure 7
2002
0000
0000
3003
,  // measure 8
0000
0000
0000
0000
,  // measure 9
0000
1000
1000
0000
,  // measure 10
0100
0000
1000
0000
,  // measure 11
0000
0001
0001
0000
,  // measure 12
0100
0000
0001
0000
,  // measure 13
0000
1000
1000
0000
,  // measure 14
0010
0000
1000
0000
,  // measure 15
0000
0001
0001
0000
,  // measure 16
0010
0000
1001
0000
,  // measure 17
0001
0000
0001
0000
,  // measure 18
0001
0000
0100
0100
,  // measure 19
0100
0000
0100
0000
,  // measure 20
0100
0000
0010
0010
,  // measure 21
0010
0000
0010
0000
,  // measure 22
0010
0000
1000
1000
,  // measure 23
1000
0000
1000
0000
,  // measure 24
0001
0000
1000
0000
,  // measure 25
0200
0000
0300
0000
,  // measure 26
0010
0000
0100
0000
,  // measure 27
0020
0000
0030
0000
,  // measure 28
0001
0000
1000
0000
,  // measure 29
0002
0000
0003
0000
,  // measure 30
0100
0000
0010
0000
,  // measure 31
2000
0000
3000
0000
,  // measure 32
0001
0000
0001
0000
,  // measure 33
1000
0000
0100
0000
,  // measure 34
0010
0000
0001
0001
,  // measure 35
0001
0000
0100
0000
,  // measure 36
0010
0000
1000
1000
,  // measure 37
1000
0000
0001
0000
,  // measure 38
1000
0000
0100
0100
,  // measure 39
0100
0000
1001
0000
,  // measure 40
0110
0000
1001
0000
,  // measure 41
0001
0001
0001
0000
,  // measure 42
0100
0100
0100
0000
,  // measure 43
0010
0010
0010
0000
,  // measure 44
1000
1000
1000
0000
,  // measure 45
0100
0100
0100
0000
,  // measure 46
0010
0010
0010
0000
,  // measure 47
1001
0000
0110
0000
,  // measure 48
1001
0000
0010
0010
,  // measure 49
0010
0000
1000
0000
,  // measure 50
0100
0000
0010
0010
,  // measure 51
0010
0000
0001
0000
,  // measure 52
0100
0000
0010
0020
,  // measure 53
0030
0010
0000
0010
,  // measure 54
0000
0100
0000
0100
,  // measure 55
0000
0010
0000
0010
,  // measure 56
0000
1000
1000
0000
,  // measure 57
0002
0003
1001
0000
,  // measure 58
0010
0010
0010
0000
,  // measure 59
2000
3000
1001
0000
,  // measure 60
0200
0000
0000
0300
0000
0000
0002
0000
0000
0000
0003
0000
;
