#VERSION:0.83;
#TITLE:クラッシュ万事休す;
#SUBTITLE:;
#ARTIST:SCSC-ZIPS;
#TITLETRANSLIT:CRASH banji-kyuusu;
#SUBTITLETRANSLIT:;
#ARTISTTRANSLIT:;
#GENRE:Crash Dance;
#ORIGIN:;
#CREDIT:;
#BANNER:CRASH banji-kyuusu.png;
#BACKGROUND:CRASH banji-kyuusu-bg.png;
#PREVIEWVID:;
#JACKET:CRASH banji-kyuusu-jacket.png;
#CDIMAGE:;
#DISCIMAGE:;
#LYRICSPATH:;
#CDTITLE:cdtitle.png;
#MUSIC:CRASH banji-kyuusu.ogg;
#OFFSET:0.393000;
#SAMPLESTART:4.450593;
#SAMPLELENGTH:17.558023;
#SELECTABLE:YES;
#BPMS:0.000=198.200;
#STOPS:;
#DELAYS:;
#WARPS:;
#TIMESIGNATURES:0.000=4=4;
#TICKCOUNTS:0.000=4;
#COMBOS:0.000=1;
#SPEEDS:0.000=1.000=0.000=0;
#SCROLLS:0.000=1.000;
#FAKES:;
#LABELS:0.000=Song Start;
#BGCHANGES:1.500=CRASH banji-kyuusu.mp4=1.000=1=0=1===CrossFade==,
99999=-nosongbg-=1.000=0=0=0 // don't automatically add -songbackground-
;
#KEYSOUNDS:;
#ATTACKS:
;

//---------------dance-single - Crash Bandicoot Simulator 2026----------------
#NOTEDATA:;
#CHARTNAME:;
#STEPSTYPE:dance-single;
#DESCRIPTION:Crash Bandicoot Simulator 2026;
#CHARTSTYLE:;
#DIFFICULTY:Edit;
#METER:14;
#RADARVALUES:0.554059,0.653929,0.276240,0.397786,0.011050,351.000000,326.000000,25.000000,36.000000,0.000000,0.000000,0.000000,0.000000,0.000000,0.554059,0.653929,0.276240,0.397786,0.011050,351.000000,326.000000,25.000000,36.000000,0.000000,0.000000,0.000000,0.000000,0.000000;
#CREDIT:Death Tornado Spin;
#NOTES:
// measure 0
0000
0000
0000
0000
,  // measure 1
0000
0000
0000
0000
,  // measure 2
0000
0000
0000
0000
,  // measure 3
1000
0100
0001
0010
,  // measure 4
1000
0100
1000
0100
0001
0100
0001
0100
,  // measure 5
0001
0010
0001
0010
1000
0010
1000
0010
,  // measure 6
1000
0100
1000
0100
0001
0100
0001
0100
,  // measure 7
0001
0010
0001
0010
1000
0100
0001
0010
,  // measure 8
1000
0100
0001
0010
2000
0000
3000
0000
,  // measure 9
0000
0000
0000
0000
0001
0100
0001
0100
,  // measure 10
1000
0100
1000
0100
1000
0010
1000
0010
,  // measure 11
0001
0010
0001
0010
0001
0100
0001
0100
,  // measure 12
1000
0100
1000
0100
1000
0010
0001
1000
,  // measure 13
0001
0100
0001
0100
1000
0100
1000
0100
,  // measure 14
1000
0010
1000
0010
0001
0010
0001
0010
,  // measure 15
0001
0100
0001
0100
1000
0100
1000
0100
,  // measure 16
1000
0010
1000
0010
0001
0100
1000
0010
,  // measure 17
0001
0100
1000
0010
0002
0000
0003
0000
,  // measure 18
0000
1001
1000
0100
,  // measure 19
0001
0000
0010
0000
1000
0010
0001
0100
,  // measure 20
1000
0000
0001
0000
1000
0100
0000
0001
,  // measure 21
0010
1000
1001
0110
,  // measure 22
1001
0110
0001
0100
,  // measure 23
1000
0000
0010
0000
0001
0010
1000
0100
,  // measure 24
0001
0000
1000
0000
0001
0100
0000
1000
,  // measure 25
0010
0000
0001
0000
0001
0010
1000
0100
,  // measure 26
0001
0000
0001
0000
1000
0010
0001
0100
,  // measure 27
1000
1000
2002
3003
,  // measure 28
0001
0100
1000
0010
0011
0000
0101
0000
,  // measure 29
1100
0000
1010
0000
0012
0000
0000
0203
,  // measure 30
0000
2300
3020
0032
,  // measure 31
0000
0000
0203
0000
2300
0000
0000
3020
,  // measure 32
0000
0000
0031
0000
,  // measure 33
1000
0000
0001
0000
,  // measure 34
1000
0000
0000
0000
0020
0000
0000
0032
,  // measure 35
0000
0103
1000
0000
,  // measure 36
0001
0000
1000
1000
,  // measure 37
0001
1000
0010
0000
2010
0000
0000
3200
,  // measure 38
0000
0302
0023
2030
,  // measure 39
0000
0000
3200
0000
0302
0000
0000
0023
,  // measure 40
0000
0000
1030
0000
,  // measure 41
0001
0000
1000
0000
,  // measure 42
0001
0000
0000
0000
0020
0000
0000
2030
,  // measure 43
0000
3100
0001
0000
,  // measure 44
1000
0000
0000
0000
0002
0000
0023
2030
,  // measure 45
3200
0302
0003
0000
,  // measure 46
0000
0000
0000
0000
,  // measure 47
0000
0000
1000
0100
,  // measure 48
0001
0000
0010
0000
1000
0100
1000
0100
,  // measure 49
0001
0100
0001
0100
0001
0010
0001
0010
,  // measure 50
1000
0010
1000
0010
1000
0100
1000
0100
,  // measure 51
0001
0100
0001
0100
0001
0010
1000
0001
,  // measure 52
1000
0100
1000
0100
0001
0100
0001
0100
,  // measure 53
0001
0010
0001
0010
1000
0010
1000
0010
,  // measure 54
1000
0100
1000
0100
0001
0100
0001
0100
,  // measure 55
0001
0010
0001
0010
1000
0100
0001
0010
,  // measure 56
1000
0100
0001
0010
2000
0000
3000
0000
,  // measure 57
0000
0000
0000
0000
0011
0000
0001
0010
,  // measure 58
0001
0100
0001
0000
0101
0000
0100
0001
,  // measure 59
0100
1000
0100
0000
1100
0000
1000
0100
,  // measure 60
1000
0010
1000
0000
1010
0000
0010
1000
,  // measure 61
0010
0001
0010
0000
0011
0000
0001
0100
,  // measure 62
1000
0000
1000
0010
0001
1000
0100
0001
,  // measure 63
0010
1000
0001
0000
2002
0000
3003
0000
,  // measure 64
0110
2002
3003
0220
,  // measure 65
0000
0000
0330
0000
,  // measure 66
0000
0000
0000
0000
,  // measure 67
0000
0000
1001
0000
,  // measure 68
0001
0000
0000
0010
0000
0000
1000
0000
0000
0000
0001
0000
0000
0010
0000
0000
,  // measure 69
1000
0000
1001
0000
0110
1001
0000
0000
;

//---------------dance-single - ----------------
#NOTEDATA:;
#CHARTNAME:;
#STEPSTYPE:dance-single;
#DESCRIPTION:;
#CHARTSTYLE:;
#DIFFICULTY:Medium;
#METER:10;
#RADARVALUES:0.410414,0.500064,0.276240,0.651927,0.000000,260.000000,235.000000,25.000000,59.000000,0.000000,0.000000,0.000000,0.000000,0.000000,0.410414,0.500064,0.276240,0.651927,0.000000,260.000000,235.000000,25.000000,59.000000,0.000000,0.000000,0.000000,0.000000,0.000000;
#CREDIT:;
#NOTES:
0000
0000
0000
0000
,
0000
0000
0000
0000
,
0000
0000
0000
0000
,
0001
0010
0100
1000
,
1001
0000
0000
0000
1000
0000
0010
0100
,
0001
0000
1001
0000
,
1000
0000
0010
1000
0200
0000
0320
0000
,
0031
0000
0000
0000
0010
0000
0100
1000
,
0000
0001
0100
0000
0220
0000
0330
0000
,
0000
0000
1001
0000
,
0001
0000
0100
0010
1000
0000
0000
0000
,
1001
0000
0000
0000
0001
0000
0100
0001
,
0020
0230
1300
0000
,
1001
0000
0000
0000
0001
0000
0010
0100
,
1000
0000
1001
0000
,
0001
0000
0010
0001
0200
0000
0320
0000
,
1030
0000
0000
0000
0010
0000
0100
0001
,
0000
1000
0100
0000
0220
0000
0330
0000
,
0000
0000
1001
0000
0001
0000
0100
0010
,
0100
0000
0001
0000
0020
0000
0030
0100
,
1000
0000
0001
0000
1000
0010
0000
0100
,
0001
0000
1000
0000
1001
0000
0000
0220
,
0000
0330
1000
0100
,
0010
0100
0000
1000
0020
0000
0030
0100
,
0001
0000
1000
0000
0001
0010
0000
0100
,
1000
0000
0001
0000
0101
0000
0100
0020
,
0000
0000
1030
0000
1100
0000
0100
0020
,
0000
0031
2002
3003
,
1000
0001
1000
0001
0200
0300
0020
0030
,
2000
3000
0002
0003
1000
0000
0100
0010
,
0000
0100
0010
0000
0002
0000
0010
0000
,
0000
0000
2003
0000
0100
0000
0000
0002
,
0000
0000
3003
0000
0001
0000
0100
0010
,
0000
1000
0000
0010
0200
0000
0300
0000
,
0001
0000
1000
0000
0200
0000
0000
0320
,
0000
0000
0030
0000
0001
0000
0100
0010
,
0000
0100
0001
0000
1000
0000
0100
0000
,
1000
0100
0010
0000
0001
0000
0100
0010
,
0000
0100
0010
0000
2000
0000
0010
0000
,
0000
0000
3002
0000
0100
0000
0000
2000
,
0000
0000
3003
0000
1000
0000
0100
0010
,
0000
0001
0000
0001
0000
0010
0000
0100
,
1000
0000
0001
0000
0200
0000
0000
0320
,
0000
0000
0030
0000
1000
0000
0100
0010
,
0000
0100
1000
0000
0002
0000
2003
3020
,
0230
0302
1003
0000
,
0000
0000
0000
0000
,
0000
0000
1000
0010
,
0100
0001
1001
0000
,
1000
0000
0100
0010
0001
0000
0000
0000
,
1001
0000
0000
0000
1000
0000
0100
1000
,
0020
0230
0301
0000
,
1001
0000
0000
0000
1000
0000
0010
0100
,
0001
0000
1001
0000
,
1000
0000
0010
1000
0200
0000
0320
0000
,
0031
0000
0000
0000
0010
0000
0100
1000
,
0000
0001
0100
0000
0220
0000
0330
0000
,
0000
0000
0001
1000
0002
0000
0013
0200
,
0000
1300
0001
0000
2000
0000
3010
0000
,
0200
0301
2000
3100
,
0020
0032
2000
0003
,
0002
0000
3000
0000
1003
0000
0001
0100
,
0010
0000
1000
0100
0010
0000
0001
0100
,
0010
1000
2001
0000
,
3200
0320
0000
0002
,
0000
0000
0033
0000
,
0000
0000
0000
0000
,
0000
0000
1001
0000
,
1002
0000
0000
0103
0000
2001
0000
0000
,
3100
0000
1001
0000
0000
0110
0000
0000
;

//---------------dance-single - ----------------
#NOTEDATA:;
#CHARTNAME:;
#STEPSTYPE:dance-single;
#DESCRIPTION:;
#CHARTSTYLE:;
#DIFFICULTY:Hard;
#METER:13;
#RADARVALUES:0.584050,0.653929,0.530381,0.861869,0.022099,370.000000,322.000000,48.000000,78.000000,14.000000,0.000000,0.000000,0.000000,0.000000,0.584050,0.653929,0.530381,0.861869,0.022099,370.000000,322.000000,48.000000,78.000000,14.000000,0.000000,0.000000,0.000000,0.000000;
#CREDIT:;
#NOTES:
0000
0000
0000
0000
,
0000
0000
0000
0000
,
0000
0000
0000
0000
,
0001
0010
0100
1000
0001
0100
0010
1000
,
2010
0000
3100
0000
0012
0000
0103
0010
,
1000
0010
0100
0000
2010
0000
3100
0000
,
0012
0000
0103
0010
0001
0010
0100
0000
,
0010
1000
0001
1000
0200
0000
1300
0200
,
0000
0301
0100
1000
0020
0000
0030
0000
,
1000
0010
0100
0000
0102
0000
0013
0000
,
2100
0000
3010
0100
0001
0100
0010
0000
,
0102
0000
0013
0000
2100
0000
3010
0100
,
1000
0100
0010
0000
0100
0001
0010
0000
,
0012
0000
0103
0000
2010
0000
3100
0010
,
0001
0010
0100
0000
0012
0000
0103
0000
,
2010
0000
3100
0010
1000
0010
0100
0000
,
0010
0001
1000
0001
0200
0000
0301
0200
,
0000
1300
0100
0001
0020
0000
0030
0000
,
0100
1000
0001
0000
1001
0000
0001
0100
,
1000
0000
1000
0000
0001
0010
0100
0010
,
1000
0000
0001
1000
0001
0100
00M0
0100
,
1000
0100
0010
0000
0002
0000
1003
0020
,
0000
0130
0001
0000
1001
0000
0001
1000
,
0100
0001
0000
0001
1000
0010
0100
0010
,
0001
0000
1000
0001
1000
0100
00M0
0100
,
0001
0000
0100
0000
0010
0000
0000
0000
1000
0000
0010
0M00
0010
0000
0002
0000
,
0000
0000
1000
0000
1003
0000
0000
0000
0001
0000
0010
0M00
0010
0000
2000
0000
,
0000
0001
3001
0000
2002
0000
3003
0001
,
1000
0100
0010
0001
MM22
0033
22MM
3300
,
M2M2
0303
2M2M
3030
1001
0000
0001
0010
,
0M00
0010
1000
0000
1010
0000
0202
0000
,
0303
0000
2000
0000
3200
0000
0000
0320
,
0000
0000
0000
0000
0031
0000
1000
0010
,
0000
0001
0000
0010
2000
0000
3000
0000
,
0010
1000
0100
0000
0022
0000
0033
2020
,
0000
0000
3030
0000
0001
0000
1000
0100
,
0000
0001
0100
0000
1000
0000
1000
0000
,
0001
1000
0001
0000
1001
0000
1000
0010
,
0M00
0010
0001
0000
0011
0000
2200
0000
,
3300
0000
0002
0000
0203
0000
0000
0320
,
0000
0000
0000
0000
1030
0000
0001
0010
,
0000
1000
0000
1000
0000
0010
0000
0001
,
0010
0001
0100
0000
2020
0000
3030
0022
,
0000
0000
0033
0000
1000
0000
0001
0100
,
0000
1000
0100
0000
0002
0000
0023
2030
,
3002
0203
1300
0000
,
0000
0000
0000
0000
,
0000
0000
0000
0000
0001
0100
0010
1000
,
0001
0010
0100
1000
2100
0000
3010
0000
,
0102
0000
0013
0100
1000
0100
0010
0000
,
2100
0000
3010
0000
0102
0000
0013
0100
,
0001
0100
0010
0000
0100
1000
0010
0000
,
2010
0000
3100
0000
0012
0000
0103
0010
,
1000
0010
0100
0000
2010
0000
3100
0000
,
0012
0000
0103
0010
0001
0010
0100
0000
,
0010
1000
0001
1000
0200
0000
1300
0200
,
0000
0301
0100
1000
0020
0000
0030
0000
,
0100
0001
1000
0001
0021
0000
0130
1000
,
0001
0100
0010
0000
1020
0000
0130
0001
,
1000
0100
0010
0000
0210
0000
1300
0001
,
0100
0000
0010
0100
0210
0000
0010
0000
,
0320
0000
0100
0000
0130
0000
0001
0100
,
1000
0000
0001
0010
1000
0100
0001
1000
,
0010
0001
1000
0000
2010
0000
0000
0000
,
3100
0012
0000
0200
,
0000
0000
0303
0000
,
0000
0000
0000
0000
,
0000
0000
1001
0000
,
1002
0000
0000
0013
0000
0000
0001
0000
0000
0000
2001
0000
0000
3010
0000
0000
,
1000
0000
1002
0000
0013
0110
0000
0000
;

//---------------dance-single - DO THE CRASH DANCE! \:)----------------
#NOTEDATA:;
#CHARTNAME:;
#STEPSTYPE:dance-single;
#DESCRIPTION:DO THE CRASH DANCE! \:);
#CHARTSTYLE:;
#DIFFICULTY:Easy;
#METER:6;
#RADARVALUES:0.239934,0.307731,0.044198,0.265190,0.000000,152.000000,148.000000,4.000000,24.000000,0.000000,0.000000,0.000000,0.000000,0.000000,0.239934,0.307731,0.044198,0.265190,0.000000,152.000000,148.000000,4.000000,24.000000,0.000000,0.000000,0.000000,0.000000,0.000000;
#CREDIT:;
#NOTES:
0000
0000
0000
0000
,
0000
0000
0000
0000
,
0000
0000
0000
0000
,
0001
0010
0100
1000
,
0001
0000
1000
0000
,
0001
0000
1000
0000
,
1000
0000
0002
0000
,
0003
0000
0001
0100
,
1000
0010
0001
0000
,
0000
0000
0001
0000
,
1000
0000
0001
0000
,
1000
0000
1000
0000
,
0002
0000
0003
0000
,
0001
0000
1000
0000
,
0001
0000
1000
0000
,
1000
0000
0002
0000
,
0003
0000
0001
0100
,
1000
0010
0001
0000
,
0000
0000
0001
0010
,
0001
0000
0020
0000
,
0130
0000
1000
0000
,
0001
0000
0100
0100
,
0010
0000
1000
0010
,
1000
0000
0020
0000
,
0130
0000
0001
0000
,
1000
0000
0100
0100
,
0010
0000
0100
0100
,
0010
0000
0002
0000
,
0103
0010
2000
3000
,
0002
0003
1000
0000
,
0100
0000
0010
0000
,
0001
1000
0002
0000
,
0200
0303
0001
0100
,
0010
0000
0100
0000
,
0000
0000
0002
0000
,
2003
0000
3100
0010
,
0001
0000
1000
1000
,
1000
0000
0001
0000
,
0100
0000
0010
0000
,
1000
0001
2000
0000
,
0200
3300
1000
0100
,
0010
0000
0010
0000
,
0100
0000
2000
0000
,
3002
0000
0103
0010
,
1000
0000
0001
0010
,
0100
1000
0000
0000
,
0000
0000
0000
0000
,
0000
0000
0001
0100
,
0010
1000
0001
0000
,
1000
0000
0001
0000
,
1000
0000
1000
0000
,
0002
0000
0003
0000
,
0001
0000
1000
0000
,
0001
0000
1000
0000
,
1000
0000
0002
0000
,
0003
0000
0001
0100
,
1000
0010
0001
0000
,
0000
0000
0001
0010
,
0100
0000
0010
0100
,
1000
0000
1000
0010
,
0100
0001
2000
3000
,
0002
0003
1000
0100
,
0010
0000
0100
0010
,
0001
0000
2002
3003
,
0100
0010
0000
0220
,
0000
0000
0330
0000
,
0000
0000
0000
0000
,
0000
0000
1001
0000
,
0100
0000
0000
0000
0000
0100
0000
0000
,
0000
0000
0100
0000
0000
1001
0000
0000
;
