#TITLE:CHASER;
#SUBTITLE:;
#ARTIST:Nauts;
#TITLETRANSLIT:;
#SUBTITLETRANSLIT:;
#ARTISTTRANSLIT:;
#GENRE:Electro Big Band;
#CREDIT:;
#BANNER:CHASER.png;
#BACKGROUND:CHASER-bg.png;
#LYRICSPATH:;
#CDTITLE:cdtitle.png;
#MUSIC:CHASER.ogg;
#OFFSET:0.000000;
#SAMPLESTART:54.000000;
#SAMPLELENGTH:12.000004;
#SELECTABLE:YES;
#BPMS:0.000000=160.000000
;
#STOPS:
;
#BGCHANGES:;
#KEYSOUNDS:;
#ATTACKS:;

//---------------dance-single - ----------------
#NOTES:
     dance-single:
     :
     Challenge:
     16:
     0.792811,0.862613,0.315534,0.788834,0.937320,598.000000,564.000000,34.000000,85.000000,0.000000,0.000000,0.792811,0.862613,0.315534,0.788834,0.937320,598.000000,564.000000,34.000000,85.000000,0.000000,0.000000:
// measure 0
0000
0000
0000
0000
,  // measure 1
0000
0000
0000
0000
,  // measure 2
0001
0000
0010
0000
0100
0000
0000
0000
0010
0000
0100
0000
1000
0001
0000
0001
,  // measure 3
1000
0000
0010
0000
0100
0000
0000
0000
0001
1000
0100
1000
0001
1000
0100
1000
,  // measure 4
0001
0000
1000
0010
0100
0000
0000
0000
0100
0000
0010
0000
1000
0001
0000
1000
,  // measure 5
0001
0000
0010
0100
0000
0100
0000
1000
0001
0100
0001
0000
1000
0100
1000
0000
,  // measure 6
0020
0000
0000
0000
0100
0000
0230
0000
0000
0000
0301
0000
1000
0100
0000
0100
,  // measure 7
0010
0000
0001
0100
0000
0100
0000
0010
1000
0001
0010
0000
0001
1000
0010
0000
,  // measure 8
1000
0000
0001
0010
0100
0000
0000
0000
0100
0000
0010
0000
0001
1000
0000
0001
,  // measure 9
1000
0000
0010
0100
0000
0100
0000
0001
1000
0100
1000
0000
0001
0100
0001
0000
,  // measure 10
2000
0000
0100
3200
0000
0310
0012
0000
,  // measure 11
1003
0000
0001
0100
0000
0100
0000
0010
1000
0001
0010
0000
0100
1000
0001
1000
,  // measure 12
0020
0000
0000
0000
1000
0000
0000
0000
0000
0000
0130
0000
0010
1000
0000
1000
,  // measure 13
0001
0000
1000
0100
0010
0000
0100
0000
0200
0000
0300
2000
0000
3000
0020
0030
,  // measure 14
0002
0000
0000
0000
0013
0000
2000
0000
0000
0000
3001
0000
1000
0100
0000
0010
,  // measure 15
0001
0000
0001
0000
0100
0010
0100
0010
1000
0000
0001
0010
0000
0010
0100
0000
,  // measure 16
0020
0000
0000
0000
0001
0000
0000
0000
0000
0000
0130
0000
0010
0001
0000
0001
,  // measure 17
1000
0000
0001
0100
0010
0000
0100
0000
0200
0000
0300
0002
0000
0003
0020
0030
,  // measure 18
2000
0000
0000
0000
3001
0000
0200
0000
0000
0000
1300
0000
0002
0000
0000
1003
,  // measure 19
0010
0000
0010
0000
1000
0001
1000
0001
0010
0000
0100
1000
0001
1000
0001
0100
,  // measure 20
0020
0000
0000
0000
1000
0030
0020
0000
0100
0000
0000
0000
0000
0000
0000
0000
1030
0000
0010
0000
1000
0000
0000
0000
0010
0000
1000
0000
0000
0000
0001
0000
,  // measure 21
0010
0001
1000
0010
0000
1000
0100
0000
0200
0000
1300
0200
1300
0000
0020
0030
,  // measure 22
0002
0000
0000
0000
0013
0000
2000
0000
0000
0000
3001
0000
0010
0100
0000
0010
,  // measure 23
0100
1000
0001
0100
0000
0100
0000
0010
1000
0001
1000
0000
0001
1000
0100
0000
,  // measure 24
0020
0000
0000
0000
0001
0030
0020
0000
0100
0000
0000
0000
0000
0000
0000
0000
0031
0000
0010
0000
0001
0000
0000
0000
0010
0000
0001
0000
0000
0000
1000
0000
,  // measure 25
0010
1000
0001
0010
0000
0001
0100
0000
0200
0000
0301
0200
0301
0000
0020
0030
,  // measure 26
2000
0000
0000
0000
3001
0000
0200
0000
0000
0000
1300
0000
0002
0000
0000
1003
,  // measure 27
0010
0100
0001
1000
0000
1000
0000
0001
1000
0001
0010
0001
1000
0001
0010
0001
,  // measure 28
0200
0000
0000
0000
1000
0000
0000
0000
0310
0100
0010
0000
0100
0001
0000
0100
,  // measure 29
0001
0000
0000
0000
0000
0000
0001
0000
0000
1000
0000
0000
0100
0000
0000
0000
0000
0000
0010
0000
0001
0000
0010
0000
0002
0000
0000
0000
0000
0000
0000
0000
0000
0000
0000
0000
0103
0000
0000
0000
0000
0000
0010
0000
0000
1000
0000
0000
,  // measure 30
0200
0000
0000
0000
0001
0000
0000
0000
0310
0100
0010
0000
0100
1000
0000
0001
,  // measure 31
0100
0010
1000
0001
0000
0001
0000
0001
0010
0000
0100
0010
0100
0010
0100
1000
,  // measure 32
0020
0000
0000
0000
0001
0000
0000
0000
0130
0010
0100
0000
0010
1000
0000
0010
,  // measure 33
1000
0000
0000
0000
0000
0000
1000
0000
0000
0001
0000
0000
0010
0000
0000
0000
0000
0000
0100
0000
1000
0000
0100
0000
2000
0000
0000
0000
0000
0000
0000
0000
0000
0000
0000
0000
3010
0000
0000
0000
0000
0000
0100
0000
0000
0001
0000
0000
,  // measure 34
0020
0000
0000
0000
1000
0000
0000
0000
0130
0010
0001
0000
0010
0001
0100
0010
,  // measure 35
0200
0000
0000
0000
1000
0000
0000
0000
0310
0100
0001
0100
0010
0100
0001
0000
,  // measure 36
1001
0000
0000
1000
0100
1000
0100
1000
0010
0000
0000
1000
0000
0000
1010
0000
,  // measure 37
1001
0000
0000
1100
0000
0000
0220
0000
0000
0000
0330
0000
0010
0100
0000
0100
,  // measure 38
1000
0000
0001
0100
0001
0100
0010
1000
0100
0000
0000
0010
0000
0000
0110
0000
,  // measure 39
0022
0000
0000
0000
0033
0000
2020
0000
0000
0000
3030
0000
0001
0010
0100
1000
,  // measure 40
0001
0000
0100
0001
0100
0000
0001
0000
0010
0000
0000
0001
0000
0000
0011
0000
,  // measure 41
1100
0000
0000
1010
0000
0000
0220
0000
0000
0000
0330
0000
0010
0100
0000
0100
,  // measure 42
0001
0000
0000
1000
0000
0100
0000
0010
0000
0001
0000
0100
0010
0000
1000
0000
,  // measure 43
2010
0000
0000
0000
3100
0010
0200
0000
0000
0000
0301
0100
1000
0000
0000
0000
,  // measure 44
1001
0000
0000
0000
0000
0000
0000
0000
0000
0000
0000
1000
0020
0000
0000
0000
,  // measure 45
0230
0000
0000
0000
0000
0000
0000
0300
,  // measure 46
0020
0000
2030
0000
3200
0000
0000
0320
,  // measure 47
0032
0000
0000
0000
0000
0000
0000
0003
,  // measure 48
0012
1003
2010
3001
,  // measure 49
0011
1100
1010
0101
,  // measure 50
2001
0010
3001
1001
,  // measure 51
1002
0000
0000
0000
0010
0000
0000
0000
1003
0000
0000
0001
0100
0010
0100
0000
,  // measure 52
2000
0000
0000
3100
0010
0000
0000
0010
0100
0000
0001
0000
1000
0000
0100
0000
,  // measure 53
0002
0000
0000
0103
0010
0000
0000
0010
0100
0000
1000
0000
0001
0100
0010
0000
,  // measure 54
2020
3030
0202
0303
2200
3300
0022
0033
,  // measure 55
2001
0000
0000
3010
0100
0000
0010
0000
1002
0000
0000
0000
0013
0100
0010
0000
,  // measure 56
2000
0000
0000
3010
0100
0000
0000
0100
1000
0000
0001
0000
1000
0000
0010
0000
,  // measure 57
0002
0000
0000
0013
0100
0000
0000
0100
0001
0000
1000
0000
0100
0010
0001
0000
,  // measure 58
0012
0000
0000
1003
0010
0000
1000
0100
1000
0000
0100
0000
0011
0000
0000
0000
,  // measure 59
2010
0000
0000
0000
3001
0000
0001
0010
0001
1000
0010
1000
0001
1000
0010
1000
,  // measure 60
0200
0000
0000
0000
0010
0000
0000
0000
0301
0100
0001
0000
0100
0010
0000
0100
,  // measure 61
1000
0000
0000
0000
0000
0000
1000
0000
0000
0001
0000
0000
0100
0000
0000
0000
0000
0000
0010
0000
1000
0000
0010
0000
2000
0000
0000
0000
0000
0000
0000
0000
0000
0000
0000
0000
3100
0000
0000
0000
0000
0000
0010
0000
0000
0001
0000
0000
,  // measure 62
0200
0000
0000
0000
0010
0000
0000
0000
1300
0100
1000
0000
0100
0001
0000
1000
,  // measure 63
0100
0010
0001
1000
0000
1000
0000
1000
0010
0000
0100
0010
0100
0010
0100
0001
,  // measure 64
0020
0000
0000
0000
0100
0000
0000
0000
1030
0010
1000
0000
0010
0100
0000
0010
,  // measure 65
0001
0000
0000
0000
0000
0000
0001
0000
0000
1000
0000
0000
0010
0000
0000
0000
0000
0000
0100
0000
0001
0000
0100
0000
0002
0000
0000
0000
0000
0000
0000
0000
0000
0000
0000
0000
0013
0000
0000
0000
0000
0000
0100
0000
0000
1000
0000
0000
,  // measure 66
0020
0000
0000
0000
0100
0000
0000
0000
0031
0010
0100
0000
0010
1000
0100
0010
,  // measure 67
0200
0000
0000
0000
0301
0000
0100
0010
0001
1000
0010
1000
0001
1000
0010
1000
,  // measure 68
0001
0000
1000
0000
1001
0000
0000
0001
0010
0100
0010
0001
0010
0100
0010
0001
,  // measure 69
0200
0000
0000
0000
,  // measure 70
0000
0000
0000
0000
,  // measure 71
0000
0000
0300
0000
;

//---------------dance-single - ----------------
#NOTES:
     dance-single:
     :
     Hard:
     12:
     0.554172,0.597194,0.194888,0.788834,0.227370,418.000000,397.000000,21.000000,85.000000,0.000000,0.000000,0.554172,0.597194,0.194888,0.788834,0.227370,418.000000,397.000000,21.000000,85.000000,0.000000,0.000000:
0000
0000
0000
0000
,
0000
0000
0000
0000
,
1000
0010
0100
0000
0010
0100
0001
0000
,
1000
0100
0010
0000
0001
1000
0001
1000
,
0001
0100
1000
0000
0100
0001
1000
0000
,
0001
0000
1000
0100
0000
0100
0000
0000
0010
0000
0001
0000
1000
0000
0010
0000
,
0200
0000
0001
0302
0000
1003
0100
1000
,
0100
0000
0010
0001
0000
0001
0000
0000
1000
0000
0010
0000
0100
0000
0001
0000
,
1000
0100
0001
0000
0100
1000
0001
0000
,
1000
0000
0001
0100
0000
0100
0000
0000
0010
0000
1000
0000
0001
0000
0010
0000
,
0200
0000
0010
0320
0000
0031
1002
0000
,
0103
0000
0010
1000
0000
1000
0000
0000
0001
0000
1000
0000
0001
0000
1000
0000
,
0200
0000
0010
0000
0000
0010
0010
0000
,
0000
0000
0010
0000
0310
0000
0100
0000
0200
0000
0300
2000
0000
3000
0020
0030
,
0002
0000
0000
0000
0013
0000
2000
0000
0000
0000
3001
0000
1000
0001
0000
0000
,
1000
0100
0010
0000
0010
0100
1000
0001
,
0200
0000
0010
0000
0000
0010
0010
0000
,
0000
0000
0010
0000
0310
0000
0100
0000
0200
0000
0300
0002
0000
0003
0020
0030
,
2000
0000
3001
0200
0000
1300
0002
0000
,
1003
0000
0010
0000
0100
0000
0000
0000
0001
0000
1000
0001
0000
0000
1000
0000
,
0200
0010
0010
0000
1000
0000
0010
0000
,
1300
0000
0000
1000
0100
0000
0001
0000
0200
0000
0300
2000
0000
3000
0020
0030
,
0002
0000
0000
0000
0013
0000
2000
0000
0000
0000
3001
0000
1000
0001
0000
0000
,
1000
0000
0001
0010
0000
0010
0000
0000
0010
0000
0100
0000
1000
0000
0001
0000
,
0200
0010
0010
0000
0001
0000
0010
0000
,
0301
0000
0000
0001
0100
0000
1000
0000
0200
0000
0300
0002
0000
0003
0020
0030
,
2000
0000
3001
0200
0000
1300
0002
0000
,
1003
0000
0010
1000
0000
1000
0000
0000
0001
0000
0010
0000
0001
0000
1000
0010
,
2000
0000
0100
0000
3010
1000
0100
0000
,
1000
0000
0100
0000
0010
0000
0001
1000
0002
0000
0000
0000
0103
0000
0010
0000
,
2000
0000
0010
0000
3100
1000
0010
0000
,
0010
0000
1000
0000
0100
0000
0010
0000
0200
0000
0000
0000
0310
0000
0001
0010
,
0002
0000
0100
0000
0013
0001
0100
0000
,
0001
0000
0100
0000
0010
0000
1000
0001
2000
0000
0000
0000
3100
0000
0010
0000
,
0002
0000
0000
0000
0010
0000
0000
0000
0103
0000
0100
0000
0010
0000
1000
0010
,
2000
0000
0010
0000
3100
0001
0100
1000
,
0001
0000
0000
0001
0100
0000
0010
0000
0100
0000
0000
0010
0000
0000
1000
0000
,
1010
0000
0000
1001
0000
0000
2200
0000
0000
0000
3300
0000
0001
0000
0010
0000
,
0100
0000
1000
0001
1000
0000
0010
0000
0100
0000
0000
0001
0000
0000
1000
0000
,
2002
0000
3003
0022
0000
0033
1000
0010
,
1000
0000
0000
0000
0100
0000
0010
0000
0100
0000
0000
0010
0000
0000
0001
0000
,
0101
0000
0000
1100
0000
0000
0202
0000
0000
0000
0303
0000
1000
0000
0001
0000
,
1000
0000
0000
0001
0000
0010
0000
0100
0000
1000
0000
0001
0100
0000
0010
0000
,
1020
0000
0000
0032
0000
0000
1003
0100
,
0001
0000
0000
0000
0000
0000
0000
0000
0000
0000
0000
0001
0020
0000
0000
0000
,
0230
0000
0000
0000
0000
0000
0000
0300
,
0020
0000
0032
0000
0203
0000
0000
0320
,
2030
0000
0000
0000
0000
0000
0000
3000
,
0002
0013
0020
0130
,
0200
2300
3020
0230
,
0302
1000
1003
0002
,
2003
0000
0000
0000
0001
0000
0000
0000
3100
0000
0000
0100
0010
0000
0001
0000
,
0012
0000
0000
0000
1003
0000
0000
1000
0001
0000
0100
0000
0001
0000
0100
0000
,
2000
0000
0000
0000
3001
0000
0000
0010
1000
0000
0010
0000
1000
0000
0000
0000
,
1010
0011
1100
0101
,
1002
0013
1002
0103
,
2010
0000
0000
0000
3001
0000
0000
0001
1000
0000
0100
0000
0002
0000
0000
0000
,
1003
0010
0001
0000
0001
0100
0010
1000
,
2020
0000
3030
0000
0010
1000
0100
0010
,
0022
0000
0000
0000
0033
0000
0000
0000
1000
0000
0010
0000
1000
0000
0100
0010
,
0200
0000
0010
0000
0301
0100
0010
0000
,
0100
0000
0010
0000
0001
0000
1000
0001
2000
0000
0000
0000
3001
0000
0100
0000
,
0020
0000
0100
0000
0031
0010
1000
0000
,
1000
0000
0001
0000
0010
0000
0100
0000
2000
0000
0000
0000
3001
0000
0100
0001
,
0200
0000
0010
0000
1300
0100
0010
0000
,
0100
0000
0010
0000
1000
0000
0001
1000
0002
0000
0000
0000
1003
0000
0100
0000
,
0020
0000
0000
0000
1000
0000
0000
0000
0031
0000
0001
0000
1000
0000
0010
0100
,
0020
0000
0001
0000
1030
0010
0100
0001
,
1000
0000
0100
0000
0010
0000
0000
0001
0100
0000
0001
0000
0100
0000
0010
0000
,
0220
0000
0000
0000
,
0000
0000
0000
0000
,
0000
0000
0330
0000
;

//---------------dance-single - ----------------
#NOTES:
     dance-single:
     :
     Medium:
     8:
     0.360610,0.398129,0.046402,0.714591,0.000000,272.000000,267.000000,5.000000,77.000000,0.000000,0.000000,0.360610,0.398129,0.046402,0.714591,0.000000,272.000000,267.000000,5.000000,77.000000,0.000000,0.000000:
0000
0000
0000
0000
,
0000
0000
0000
0000
,
1000
1000
0001
0001
,
1000
0000
0001
0000
0100
0010
1000
0000
,
0001
0000
0010
0000
0001
0010
0001
0000
,
0100
0000
0001
0000
0100
0001
0100
0000
,
0020
0000
0000
2030
0000
0000
3001
0000
,
0010
0000
0010
0000
0001
1000
0001
0000
,
1000
0000
0010
0000
1000
0010
1000
0000
,
0100
0000
1000
0000
0100
1000
0100
0000
,
0020
0000
0000
0032
0000
0000
0203
0000
,
0000
0000
0310
0000
0010
0000
1000
0001
,
0020
0100
0000
0100
,
0000
0130
2000
3002
,
0203
0000
0320
0000
,
0130
0000
0001
0000
0100
0000
0010
0100
,
0020
0100
0000
0100
,
0000
0130
0002
2003
,
3200
0000
0320
0032
,
0000
0000
1003
0000
0100
0000
0010
0100
,
0020
0001
0001
0100
,
0100
0000
0031
0010
0002
0000
0013
0001
,
0200
0310
0020
1030
,
0100
0010
0001
0000
0100
0000
0010
0100
,
0020
1000
1000
0100
,
0100
0000
1030
0010
2000
0000
3010
1000
,
0200
0310
0020
0031
,
0100
0010
1000
0000
0001
0000
1000
0100
,
0020
0000
0000
0000
0130
0010
0001
0000
,
0001
0000
0000
0001
0100
0000
0001
0100
,
0020
0000
0000
0000
0130
0010
1000
0000
,
1000
0000
0000
0000
0001
0010
0001
0010
,
0200
0000
0000
0000
0310
0100
1000
0000
,
1000
0000
0000
1000
0010
0000
1000
0010
,
0200
0000
0000
0000
0310
0000
0100
0001
,
0020
0000
0000
0000
0130
0010
0100
0000
,
1000
0001
0100
0010
,
1010
0001
2200
3300
,
0100
0010
0100
1000
,
0020
0000
0000
0230
0000
0000
0301
0000
,
0001
1000
0100
0010
,
0011
1000
2020
3030
,
0001
0100
0010
1000
,
0200
0000
0000
0320
0000
0000
0032
0000
,
0103
0000
0000
0020
,
2030
0000
0000
0000
0000
0000
0000
3000
,
0002
0000
0023
0000
0230
0000
0000
2300
,
3002
0000
0000
0000
0000
0000
0000
0003
,
2000
3010
0020
0130
,
0200
0302
0023
0230
,
2300
0001
3001
2000
,
3002
0000
1000
0000
0103
0000
0100
0010
,
2000
0000
0000
0000
3010
1000
0000
1000
,
0002
0000
0000
0000
0013
0001
0010
0000
,
0200
2300
3002
0203
,
0320
0000
2030
0000
,
3200
0000
0000
0000
0310
0001
0200
0000
,
0320
2030
3002
0023
,
2030
0000
0000
3020
,
0032
0000
0000
0000
1003
0000
0001
1000
,
0020
0000
0000
0000
0031
0010
1000
0000
,
1000
0000
0000
1000
0010
0000
1000
0001
,
0020
0000
0000
0000
1030
0010
0001
0000
,
0001
0000
0000
0000
1000
0001
1000
0001
,
0200
0000
0000
0000
1300
0100
0001
0000
,
0001
0000
0000
0001
1000
0000
0001
1000
,
0200
0000
0000
0000
0301
0000
0100
1000
,
0020
0000
0000
0000
0130
0010
0100
0000
,
0110
0000
0000
0000
0001
0100
0010
1000
,
0200
0000
0000
0000
,
0000
0000
0000
0000
,
0000
0000
0300
0000
;

//---------------dance-single - ----------------
#NOTES:
     dance-single:
     :
     Easy:
     5:
     0.247919,0.331774,0.167047,0.575385,0.000000,187.000000,169.000000,18.000000,62.000000,0.000000,0.000000,0.247919,0.331774,0.167047,0.575385,0.000000,187.000000,169.000000,18.000000,62.000000,0.000000,0.000000:
0000
0000
0000
0000
,
0000
0000
0000
0000
,
1000
0000
0001
0000
,
1000
0000
0001
1000
,
0001
0010
0000
0010
,
0000
0010
0001
1000
,
0020
0030
2000
3000
,
1000
0100
0010
0001
,
1000
0010
0000
0010
,
0000
0010
1000
0001
,
0020
0030
0200
0300
,
1000
0001
1000
0010
,
0200
0000
0000
0000
,
0300
0000
0100
0010
,
2000
0000
3002
0000
,
0003
0000
0000
1000
,
0200
0000
0000
0000
,
0300
0000
0100
0010
,
0002
0000
2003
0000
,
3000
0000
0001
0100
,
0020
1000
0000
1000
,
0030
1000
0010
0100
,
0002
0000
2003
0000
,
3100
0010
0100
0100
,
0020
0001
0000
0001
,
0030
0001
0010
0100
,
2000
0000
3002
0000
,
1003
0010
0100
0001
,
2002
0000
0000
3003
,
1000
0100
0011
0000
,
2200
0000
0000
3300
,
0001
0100
0010
1000
,
2002
0000
0000
3003
,
0001
0100
1010
0000
,
0202
0303
1000
0100
,
0220
0330
0001
1000
,
0001
0000
0100
0000
,
1000
0100
0001
0000
,
0010
0000
0100
0000
,
2000
3000
0002
0003
,
1000
0000
0010
0000
,
0001
0010
1000
0000
,
0001
0010
1000
0000
,
0110
0000
0001
0010
,
0100
0000
0000
2000
,
3002
0000
0000
0000
0000
0000
0000
0003
,
2000
0000
3020
0000
0230
0000
0000
0300
,
0002
0000
0000
0000
0000
0000
0000
0003
,
0020
0030
0200
0300
,
2000
3020
0230
0302
,
2003
0000
0000
0001
,
0002
0000
3003
1000
,
0200
0300
0010
0001
,
0200
0300
0010
0010
,
1000
0100
0010
0100
,
2000
0000
3002
0000
,
0203
0300
0010
1000
,
0100
0100
0010
0001
,
0022
0000
0033
1001
,
2020
3030
0001
1000
,
2002
0000
0000
3003
,
1000
0010
0011
0000
,
0202
0000
0000
0303
,
0001
0100
0010
1000
,
2002
0000
0000
3003
,
1000
0100
0101
0000
,
0022
0033
0001
0100
,
0220
0330
0001
1000
,
0100
0000
0100
0010
,
0200
0000
0000
0000
,
0000
0000
0000
0000
,
0000
0000
0300
0000
;

//---------------dance-single - ----------------
#NOTES:
     dance-single:
     :
     Beginner:
     2:
     0.157767,0.224122,0.102084,0.306253,0.000000,119.000000,108.000000,11.000000,33.000000,0.000000,0.000000,0.157767,0.224122,0.102084,0.306253,0.000000,119.000000,108.000000,11.000000,33.000000,0.000000,0.000000:
0000
0000
0000
0000
,
0000
0000
0000
0000
,
0000
0000
0000
0000
,
0000
0000
0000
0000
,
0001
0001
0000
0000
,
0010
0010
0000
0000
,
0002
0000
0003
0000
,
0100
0000
0010
0000
,
1000
1000
0000
0000
,
0010
0010
0000
0000
,
2000
0000
3000
0000
,
0100
0000
0010
0000
,
0002
0000
0000
0000
,
0003
0000
0001
0000
,
0100
0000
0020
0000
,
0030
0000
0000
0000
,
2000
0000
0000
0000
,
3000
0000
1000
0000
,
0100
0000
0020
0000
,
0030
0000
0000
0000
,
0002
0000
0003
0000
,
0001
0001
0001
0000
,
0100
0000
0020
0000
,
0030
0000
0010
0000
,
2000
0000
3000
0000
,
1000
1000
1000
0000
,
0100
0000
0020
0000
,
0030
0000
0001
0000
,
2002
0000
3003
0000
,
0001
0000
0010
0000
,
2002
0000
3003
0000
,
0001
0000
1000
0000
,
2002
0000
3003
0000
,
1000
0000
0010
0000
,
2002
0000
3003
0000
,
0110
0000
0001
0001
,
0001
0000
0010
0000
,
0100
0100
0100
0000
,
1000
0000
0001
0000
,
2000
0000
3000
0000
,
0001
0000
0100
0000
,
0010
0010
0010
0000
,
1000
0000
0100
0000
,
0220
0000
0330
0000
,
0001
0000
0000
0000
,
1000
0000
0000
0000
,
0010
0000
0100
0000
,
0010
0000
0000
0000
,
0100
0000
0001
0000
,
1000
1000
1000
0000
,
0002
0000
0003
0000
,
2000
0000
3000
0000
,
0100
0000
0010
0000
,
0001
0000
1000
0000
,
0010
0010
0010
0000
,
1000
0000
0001
0000
,
0020
0000
0030
0000
,
0100
0100
0100
0000
,
2000
0000
3000
0000
,
0010
0000
0010
0000
,
2002
0000
3003
0000
,
1000
0000
0010
0000
,
2002
0000
3003
0000
,
1000
0000
0001
0000
,
2002
0000
3003
0000
,
0001
0000
0010
0000
,
2002
0000
3003
0000
,
0110
0000
1000
1000
,
1000
0000
0000
0000
,
0001
0000
0000
0000
;
