#VERSION:0.83;
#TITLE:Burning Flame;
#SUBTITLE:;
#ARTIST:AJURIKA feat.SAK.;
#TITLETRANSLIT:;
#SUBTITLETRANSLIT:;
#ARTISTTRANSLIT:;
#GENRE:Hyper Techno;
#ORIGIN:;
#CREDIT:;
#BANNER:Burning Flame.png;
#BACKGROUND:Burning Flame-bg.png;
#PREVIEWVID:;
#JACKET:Burning Flame-jacket.png;
#CDIMAGE:;
#DISCIMAGE:;
#LYRICSPATH:;
#CDTITLE:cdtitle.png;
#MUSIC:Burning Flame.ogg;
#OFFSET:1.992150;
#SAMPLESTART:55.462395;
#SAMPLELENGTH:11.636360;
#SELECTABLE:YES;
#BPMS:0.000=165.000;
#STOPS:;
#DELAYS:;
#WARPS:;
#TIMESIGNATURES:0.000=4=4;
#TICKCOUNTS:0.000=4;
#COMBOS:0.000=1;
#SPEEDS:0.000=1.000=0.000=0;
#SCROLLS:0.000=1.000;
#FAKES:;
#LABELS:0.000=Song Start;
#BGCHANGES:3.813=Burning Flame.mp4=1.000=1=0=1===CrossFade==,
320.000=Burning Flame-bg.png=1.000=1=0=1===CrossFade==,
99999=-nosongbg-=1.000=0=0=0 // don't automatically add -songbackground-
;
#KEYSOUNDS:;
#ATTACKS:
;

//---------------dance-single - ----------------
#NOTEDATA:;
#CHARTNAME:;
#STEPSTYPE:dance-single;
#DESCRIPTION:;
#CHARTSTYLE:;
#DIFFICULTY:Challenge;
#METER:16;
#RADARVALUES:0.764242,0.867969,0.317142,0.876314,0.788683,641.000000,603.000000,38.000000,105.000000,4.000000,0.000000,0.000000,0.000000,0.000000,0.764242,0.867969,0.317142,0.876314,0.788683,641.000000,603.000000,38.000000,105.000000,4.000000,0.000000,0.000000,0.000000,0.000000;
#CREDIT:;
#NOTES:
// measure 0
0000
0000
0000
0000
,  // measure 1
0000
0000
0000
0000
,  // measure 2
0000
0000
0000
0000
,  // measure 3
0000
0000
0000
0000
,  // measure 4
0000
0000
0000
0000
,  // measure 5
0000
0000
0000
0000
,  // measure 6
0021
0000
0000
0230
0000
0000
0302
0000
0000
0203
0000
0000
1300
0000
0010
0000
,  // measure 7
1020
0000
0000
0230
0000
0000
2300
0000
0000
3200
0000
0000
0301
0000
0000
0000
,  // measure 8
1002
0000
0000
0023
0000
0000
0230
0000
0000
0302
0000
0000
0103
0000
1000
0000
,  // measure 9
1001
0000
0000
1010
0000
0000
0110
0000
0000
0101
0000
0000
0001
1000
0100
0000
,  // measure 10
1200
0000
0000
0320
0000
0000
2030
0000
0000
3020
0000
0000
0031
0000
0100
0000
,  // measure 11
0201
0000
0000
0320
0000
0000
0032
0000
0000
0023
0000
0000
1030
0000
0000
0000
,  // measure 12
2001
0000
0000
3200
0000
0000
0320
0000
0000
2030
0000
0000
3010
0000
0001
0000
,  // measure 13
0200
0000
0000
0010
0000
0000
0010
0000
0000
0310
0000
1000
0001
0000
0000
0000
,  // measure 14
1000
0100
0001
0100
1000
0000
1100
0000
,  // measure 15
0001
0010
1000
0010
0001
0000
0011
0000
,  // measure 16
1000
0000
1000
0000
0010
0100
0000
0010
0100
0000
0001
1000
0000
0100
0010
0000
,  // measure 17
0001
1000
0001
0000
0100
0010
0000
0100
0001
0000
1000
0100
0010
0000
0000
0000
,  // measure 18
0001
0100
1000
0100
0001
0000
0101
0000
,  // measure 19
1000
0010
0001
0010
1000
0000
1010
0000
,  // measure 20
0002
0000
0023
0000
2030
0000
3001
0100
,  // measure 21
1000
0000
0001
0100
0000
0100
0010
0000
0000
1000
0010
0100
0001
1000
0001
0000
,  // measure 22
1000
0000
1000
0000
1000
0000
0001
1000
0100
0000
1000
0100
0000
1000
0001
0100
,  // measure 23
0010
0000
0100
0010
0000
1000
0001
1000
0100
0010
0000
0000
0100
0010
0000
0000
,  // measure 24
0100
1000
0001
0010
1000
0010
0001
1000
,  // measure 25
0010
0001
0010
1000
0001
0010
0110
0000
,  // measure 26
0001
0000
0001
0000
1000
0001
1000
0001
0100
0000
0001
0100
0000
0001
1000
0100
,  // measure 27
0010
0000
0100
0010
0000
0001
1000
0001
0100
0010
0000
0000
0100
0010
0000
0000
,  // measure 28
1000
0010
0001
0010
1000
0100
0001
0100
,  // measure 29
1000
0000
0001
0100
0020
0000
0100
0000
0000
0100
0000
0130
0010
0000
1000
0001
,  // measure 30
0020
0000
0100
0000
1030
0010
0001
0200
,  // measure 31
1000
0000
0010
0000
0301
1000
0100
0010
,  // measure 32
0002
0000
0103
0010
2000
0000
3100
0010
,  // measure 33
0001
0000
0001
0000
0100
0000
0010
1000
0010
1000
0100
0000
0010
0001
1000
0000
,  // measure 34
0020
0000
0100
0000
0031
0010
1000
0200
,  // measure 35
0001
0000
0010
0000
1300
0001
0100
0010
,  // measure 36
2000
0000
0000
0000
3100
0000
0010
0000
0002
0000
0000
0000
1003
0000
0010
0100
,  // measure 37
0001
0000
1000
0000
0100
0010
0100
0010
0001
1000
0001
1000
0001
0100
0001
1000
,  // measure 38
0100
0000
0010
0001
0000
1000
0010
0000
0100
0001
0000
1000
0100
0000
0100
0000
,  // measure 39
0100
0000
0000
0000
MMMM
0000
0000
0000
0001
0000
1000
0000
0001
0100
0010
0100
,  // measure 40
2000
0000
0000
3100
0001
0000
1000
0010
1000
0000
0001
1000
0001
0000
0010
0100
,  // measure 41
0002
0000
0000
0103
1000
0000
0001
0010
0001
0000
1000
0001
1000
0000
0001
0100
,  // measure 42
0020
0000
0000
1030
0001
0000
1000
0100
0010
0000
0001
0100
0010
0000
1000
0001
,  // measure 43
0020
0000
0000
0130
0010
0001
1000
0100
0010
0001
1000
0001
0100
0000
0010
0000
,  // measure 44
2010
0000
0000
3010
0100
0000
0010
0000
0012
0000
0000
0013
0100
0000
0010
0000
,  // measure 45
2010
0000
0000
3100
0010
0000
0100
0000
0001
0000
0100
0010
0100
0000
1000
0000
,  // measure 46
2001
0000
0000
3010
0100
0000
0010
0000
1002
0000
0000
0013
0100
0000
0010
0000
,  // measure 47
0001
0000
1000
0010
1000
0010
0100
0000
0001
0010
0100
1000
0001
0010
0100
0010
,  // measure 48
2000
0000
0000
3010
0001
0000
1000
0001
1000
0000
0010
1000
0010
0000
0100
0010
,  // measure 49
0002
0000
0000
0013
1000
0000
0001
1000
0001
0000
0010
0001
0010
0000
0001
0010
,  // measure 50
0200
0000
0000
1300
0001
0000
1000
0010
0100
0000
0001
0010
0100
0000
1000
0001
,  // measure 51
0200
0000
0000
0310
0100
0001
1000
0010
0100
0001
1000
0001
0010
0000
0100
0000
,  // measure 52
2100
0000
0000
3100
0010
0000
0100
0000
0102
0000
0000
0103
0010
0000
0100
0000
,  // measure 53
2100
0000
0000
3010
0100
0000
0010
0000
0001
0000
0010
0100
0010
0000
1000
0000
,  // measure 54
1020
0000
0000
0130
0001
0000
0010
0000
0021
0000
0000
0130
1000
0000
0010
0000
,  // measure 55
0100
0000
0001
0100
0001
0000
1000
0100
1000
0000
0001
0100
0010
1000
0001
1000
,  // measure 56
0200
0000
0000
0320
0000
0000
2030
0000
0000
3020
0000
0000
0031
0000
1000
0001
,  // measure 57
0200
0000
0000
0320
0000
0000
0032
0000
0000
0023
0000
0000
1030
0000
0000
0000
,  // measure 58
2001
0000
0000
3200
0000
0000
0320
0000
0000
2030
0000
0000
3010
0000
0001
1000
,  // measure 59
0001
0000
0000
0101
0000
0000
0110
0000
0000
1010
0000
0000
1000
0001
0010
0000
,  // measure 60
0021
0000
0000
2030
0000
0000
3002
0000
0000
0203
0000
0000
1300
0000
0001
1000
,  // measure 61
0020
0000
0000
0032
0000
0000
2003
0000
0000
3200
0000
0000
0301
0000
0000
0000
,  // measure 62
1002
0000
0000
0023
0000
0000
0230
0000
0000
2300
0000
0000
3100
0010
0001
1000
,  // measure 63
0020
0000
0000
0100
0000
0000
0100
0000
0000
0130
0000
0001
1000
0001
0010
0000
,  // measure 64
0022
0000
0000
0000
0000
0000
0030
0010
,  // measure 65
0010
0000
0000
1000
0000
0000
0200
0000
0000
0000
0000
0000
0303
0000
0000
0000
,  // measure 66
2020
0000
0000
0030
,  // measure 67
0010
0000
0000
0001
0000
0000
0200
0000
0000
0000
0000
0000
3300
0000
0000
0000
,  // measure 68
2000
3200
0302
0203
,  // measure 69
2300
0000
0000
0000
3020
0000
0000
0000
0032
0000
0000
0000
0023
0000
1030
0001
,  // measure 70
0010
0000
0100
0000
1000
0000
0001
0000
0010
0100
0010
0100
1000
0001
0100
0010
,  // measure 71
0200
0000
0000
0010
0000
0000
0310
0000
0000
0000
1000
0010
1000
0010
0100
0010
,  // measure 72
0002
0000
0000
0013
1000
0000
0010
1000
0001
0000
1000
0100
0010
0000
0100
0010
,  // measure 73
2000
0000
0000
3010
0001
0000
0010
0001
1000
0000
0001
0100
0010
0000
1000
0001
,  // measure 74
0020
0000
0000
0130
0010
0000
0100
1000
0010
0000
0100
0001
0010
0000
0100
1000
,  // measure 75
0002
0000
0000
0103
0010
1000
0001
0100
0010
1000
0001
1000
0100
0000
0010
0000
,  // measure 76
0012
0000
0000
0013
0100
0000
0010
0000
2010
0000
0000
3010
0100
0000
0010
0000
,  // measure 77
0012
0000
0000
0103
0010
0000
0100
0000
1000
0000
0100
0010
0100
0000
0001
0000
,  // measure 78
0021
0000
0000
0130
1000
0000
0010
0000
1020
0000
0000
0130
0001
0000
0010
0000
,  // measure 79
0200
0000
0000
0010
0000
0000
0310
0000
0000
0000
0010
0100
1000
0001
0100
0010
,  // measure 80
1000
0000
0000
0000
;

//---------------dance-single - ----------------
#NOTEDATA:;
#CHARTNAME:;
#STEPSTYPE:dance-single;
#DESCRIPTION:;
#CHARTSTYLE:;
#DIFFICULTY:Hard;
#METER:12;
#RADARVALUES:0.562749,0.567518,0.208646,0.901352,0.212819,472.000000,447.000000,25.000000,108.000000,4.000000,0.000000,0.000000,0.000000,0.000000,0.562749,0.567518,0.208646,0.901352,0.212819,472.000000,447.000000,25.000000,108.000000,4.000000,0.000000,0.000000,0.000000,0.000000;
#CREDIT:;
#NOTES:
0000
0000
0000
0000
,
0000
0000
0000
0000
,
0000
0000
0000
0000
,
0000
0000
0000
0000
,
0000
0000
0000
0000
,
0000
0000
0000
0000
,
2000
0000
0000
3020
0000
0000
0230
0000
0000
0320
0000
0000
1030
0000
0001
0000
,
2000
0000
0000
3200
0000
0000
0320
0000
0000
0230
0000
0000
2300
0000
0000
0000
,
3002
0000
0000
0023
0000
0000
0230
0000
0000
0320
0000
0000
0031
0000
1000
0000
,
0001
0000
0000
0101
0000
0000
1000
0000
0000
1100
0000
0000
1001
0000
0000
0000
,
0002
0000
0000
0203
0000
0000
0320
0000
0000
2030
0000
0000
3100
0000
0010
0000
,
0002
0000
0000
2003
0000
0000
3020
0000
0000
0230
0000
0000
0302
0000
0000
0000
,
2003
0000
0000
3200
0000
0000
0320
0000
0000
0032
0000
0000
0103
0000
0010
0000
,
2000
0000
0000
0001
0000
0000
0001
0000
0000
3001
0000
0000
1001
0000
0000
0000
,
1000
0100
1000
0100
0010
0000
0110
0000
,
1000
0100
1000
0100
0001
0000
0110
0000
,
1000
0100
1000
0000
0001
0100
0001
0000
,
1000
0010
0100
0001
0010
0100
1000
0000
,
0001
0100
0001
0100
0010
0000
0110
0000
,
0001
0100
0001
0100
1000
0000
0110
0000
,
0002
0000
0023
0000
0230
0000
1300
0001
,
0200
0000
0000
0010
0000
0000
0310
0000
0000
0000
0010
0000
0100
0000
0001
0000
,
1000
0100
0001
0000
1000
0100
0001
0000
,
1000
0001
1000
0000
1001
0000
1001
0000
,
0001
0010
0001
0010
0001
1000
0010
0000
,
1000
0010
0100
0001
0010
0100
1000
0000
,
0001
0100
1000
0000
0001
0100
1000
0000
,
0001
1000
0001
0000
1001
0000
1001
0000
,
1000
0010
0100
0001
0010
0100
1000
0001
,
0100
0000
0000
0010
0000
0000
0110
0000
0000
0000
0010
0000
1000
0000
0001
0000
,
0020
0000
0100
0000
0130
1000
0001
1000
,
0020
0000
0100
0000
0130
0001
1000
0001
,
0020
0000
0031
1000
0020
0000
0130
0001
,
1000
1000
0100
0010
0001
0100
0010
1000
,
0200
0000
0010
0000
0310
0001
1000
0001
,
0200
0000
0010
0000
0310
1000
0001
1000
,
0200
0000
0301
0100
2000
0000
3001
0100
,
1000
0100
0001
1000
0001
0010
0100
1000
,
0002
0000
0000
1000
0000
0000
1000
0000
0000
1000
0000
0000
1000
0000
1003
0000
,
1001
0000
MMMM
0000
0001
1000
0001
0100
,
2000
0000
3100
0010
1000
0010
1000
0100
,
0002
0000
0103
0010
0001
0010
0001
1000
,
0020
0000
0130
0010
1000
0001
0010
0100
,
0010
0000
0000
0010
0001
0000
0000
0001
1000
0000
0000
1000
0010
0000
0000
0010
,
0200
0000
1300
0100
0002
0000
1003
0100
,
0002
0000
0103
0010
0100
0010
0001
1000
,
0020
0000
0031
0010
2000
0000
3001
0010
,
0100
1000
0010
0100
0001
1000
0001
0010
,
2000
0000
3010
0100
1000
0100
1000
0010
,
0002
0000
0013
0100
0001
0100
0001
1000
,
0200
0000
0310
0100
1000
0001
0100
0010
,
0100
0000
0000
0100
0001
0000
0000
0001
1000
0000
0000
1000
0100
0000
0000
0100
,
0020
0000
1030
0010
0002
0000
1003
0010
,
0002
0000
0013
0100
0010
0100
0001
1000
,
0200
0000
0301
0100
2000
0000
3001
0100
,
0010
0000
0000
1000
0001
0000
1000
0000
0100
0000
0010
0000
0100
0000
0010
0000
,
0002
0000
0000
0203
0000
0000
0320
0000
0000
2030
0000
0000
3100
0000
0010
0000
,
0002
0000
0000
2003
0000
0000
3020
0000
0000
0230
0000
0000
0302
0000
0000
0000
,
2003
0000
0000
3200
0000
0000
0320
0000
0000
0032
0000
0000
0103
0000
0010
0000
,
1000
0000
0000
1100
0000
0000
0001
0000
0000
0101
0000
0000
1001
0000
0000
0000
,
0002
0000
0000
0023
0000
0000
2030
0000
0000
3020
0000
0000
0031
0000
1000
0000
,
0002
0000
0000
0203
0000
0000
2300
0000
0000
3200
0000
0000
0302
0000
0000
0000
,
2003
0000
0000
3200
0000
0000
0320
0000
0000
0032
0000
0000
0103
0000
0010
0000
,
1001
0000
0000
0110
0000
0000
1001
0000
0000
0000
1000
0000
0100
0000
0010
0000
,
0022
0000
0000
0000
0000
0000
0033
0001
,
0100
0000
0000
0001
0000
0000
0202
0000
0000
0000
0000
0000
0303
0000
0000
0000
,
2020
0000
0000
3030
,
1000
0000
0000
0100
0000
0000
2200
0000
0000
0000
0000
0000
3300
0000
0000
0000
,
0002
0023
0230
2300
,
3020
0000
0230
0000
0302
0000
1003
0100
,
0010
0001
0100
0001
0010
0001
0100
0010
,
2000
0000
0000
0010
0000
0000
3010
0000
0000
0000
1000
0000
0001
0000
0100
0000
,
2000
0000
3001
0010
1000
0001
1000
0100
,
0002
0000
1003
0010
0001
1000
0001
0100
,
0020
0000
1030
0010
0100
0001
0010
0100
,
1000
0000
0000
1000
0010
0000
0000
0010
0100
0000
0000
0100
0001
0000
0000
0001
,
0020
0000
1030
0010
0002
0000
1003
0010
,
0002
0000
0013
0100
0010
0100
0001
1000
,
0200
0000
0301
0100
2000
0000
3001
0100
,
0020
0000
0100
0130
0000
1001
0200
0000
,
0300
0000
0000
0000
;

//---------------dance-single - ----------------
#NOTEDATA:;
#CHARTNAME:;
#STEPSTYPE:dance-single;
#DESCRIPTION:;
#CHARTSTYLE:;
#DIFFICULTY:Medium;
#METER:9;
#RADARVALUES:0.443522,0.534135,0.200300,0.617593,0.008346,372.000000,348.000000,24.000000,74.000000,4.000000,0.000000,0.000000,0.000000,0.000000,0.443522,0.534135,0.200300,0.617593,0.008346,372.000000,348.000000,24.000000,74.000000,4.000000,0.000000,0.000000,0.000000,0.000000;
#CREDIT:;
#NOTES:
0000
0000
0000
0000
,
0000
0000
0000
0000
,
0000
0000
0000
0000
,
0000
0000
0000
0000
,
0000
0000
0000
0000
,
0000
0000
0000
0000
,
2000
0000
0010
0000
3001
0000
1000
0010
,
2000
0010
3001
1001
,
0002
0000
0010
0000
1003
0000
0001
0010
,
0002
0100
2003
0100
,
3002
0000
0100
0000
1003
0000
0001
0100
,
0002
0100
1003
1001
,
2000
0000
0100
0000
3001
0000
1000
0100
,
0020
0000
0000
0030
0000
0000
0200
0000
0000
0300
0000
0000
1001
0000
0000
0000
,
1000
0010
1000
0010
1000
0000
1010
0000
,
1000
0010
0100
0010
1000
0000
1001
0000
,
0001
0100
0001
0000
1000
0100
1000
0000
,
0001
0000
0001
0000
1000
0010
0100
0000
,
0001
0010
0001
0010
0001
0000
0011
0000
,
0001
0010
0100
0010
0001
0000
1001
0000
,
2000
0000
3020
0000
0230
0000
0301
1000
,
0200
0000
0000
0300
0000
0100
0100
0000
,
1000
0100
1000
0000
0001
1000
0001
0000
,
1000
0010
1000
0000
1010
0000
1010
0000
,
0001
0000
0001
0000
0100
0001
0010
0000
,
0100
0000
0100
0000
0010
0001
0100
0000
,
0001
0100
0001
0000
1000
0001
1000
0000
,
0001
0010
0001
0000
0011
0000
0011
0000
,
1000
0000
0100
0000
0010
0001
0100
0000
,
0010
1000
0100
0000
0010
0001
1000
0000
,
0020
1000
1000
1000
,
0230
0001
0001
0001
,
0320
1000
0230
0301
,
1000
0100
0010
0000
0100
0010
0001
0000
,
0020
0001
0001
0001
,
0230
1000
1000
1000
,
0320
0001
0230
1000
,
0310
0001
1000
0000
0010
1000
0001
0000
,
2002
0000
0000
0000
,
3003
0000
MMMM
0000
1001
0000
1000
0100
,
0002
0000
0103
0000
1100
0000
0001
0100
,
2000
0000
3100
0000
0101
0000
1000
0001
,
0020
0000
0130
0000
0110
0000
1000
0001
,
0200
0320
2030
3002
,
0013
0100
0010
0000
0001
1000
0001
0000
,
0100
0010
0100
0000
0001
0000
1000
0000
,
0001
0010
0100
0000
1000
0010
0100
0000
,
0001
0010
0100
1000
0001
0000
1000
0010
,
0002
0000
0013
0000
1010
0000
0001
0010
,
2000
0000
3010
0000
0011
0000
1000
0001
,
0200
0000
0310
0000
0110
0000
1000
0001
,
0020
0230
2300
3002
,
0103
0010
0100
0000
0001
1000
0001
0000
,
0010
0100
0010
0000
0001
0000
1000
0000
,
0001
0100
0010
0000
1000
0100
0010
0000
,
0002
0203
0320
2030
,
3002
0000
0010
0000
1003
0000
0001
0100
,
0002
0100
1003
1001
,
2000
0000
0010
0000
3001
0000
1000
0001
,
2000
0100
3002
0100
,
2003
0000
0010
0000
3001
0000
1000
0100
,
2000
0100
3001
1001
,
0002
0000
0010
0000
1003
0000
0001
0100
,
0020
0000
0000
0030
0000
0000
0200
0000
0000
0300
0000
0000
0001
0000
1000
0000
,
0200
0000
0000
0000
0000
0000
0300
0010
,
0010
0000
0000
0100
0000
0000
0020
0000
0000
0000
0000
0000
0030
0000
0000
0000
,
0002
0000
0000
0003
,
1000
0000
0000
0001
0000
0000
2000
0000
0000
0000
0000
0000
3000
0000
0000
0000
,
0002
0203
0302
2003
,
3200
0000
2300
0000
3002
0000
0103
0010
,
0100
0000
0001
0000
1000
0001
1000
0100
,
0020
0000
0000
0000
0030
0000
0001
0010
,
2000
0000
3010
0000
0011
0000
1000
0010
,
0002
0000
0013
0000
1010
0000
0001
1000
,
0200
0000
0310
0000
0110
0000
0001
1000
,
0020
0230
0302
2003
,
3100
0010
0001
0000
0100
0010
1000
0000
,
0100
0010
0001
0000
1000
0000
0010
0000
,
0100
0001
0010
0000
0100
1000
0010
0000
,
0200
0000
0001
0302
0000
1000
2000
0000
,
3003
0000
0000
0000
;

//---------------dance-single - ----------------
#NOTEDATA:;
#CHARTNAME:;
#STEPSTYPE:dance-single;
#DESCRIPTION:;
#CHARTSTYLE:;
#DIFFICULTY:Easy;
#METER:5;
#RADARVALUES:0.269452,0.333834,0.141879,0.642631,0.000000,226.000000,209.000000,17.000000,77.000000,4.000000,0.000000,0.000000,0.000000,0.000000,0.269452,0.333834,0.141879,0.642631,0.000000,226.000000,209.000000,17.000000,77.000000,4.000000,0.000000,0.000000,0.000000,0.000000;
#CREDIT:;
#NOTES:
0000
0000
0000
0000
,
0000
0000
0000
0000
,
0000
0000
0000
0000
,
0000
0000
0000
0000
,
0000
0000
0000
0000
,
0000
0000
0000
0000
,
2000
0010
3010
0000
,
2000
0010
3010
0100
,
0002
0010
0013
0000
,
0100
0010
0001
1000
,
0002
0100
0103
0000
,
0002
0100
0103
0010
,
2000
0100
3100
0000
,
0220
0000
0000
0330
,
0001
0010
0100
0000
,
0100
0010
0001
0000
,
1000
0000
1000
0000
,
0001
0100
0010
0000
,
1000
0100
0010
0000
,
0010
0100
1000
0010
,
0200
0000
0310
0010
,
2002
0000
3003
0000
,
1000
0100
1000
0000
,
0010
0000
1010
1010
,
0001
0001
0100
0000
,
0001
0001
1000
0000
,
0001
0100
0001
0000
,
0010
0000
0011
0011
,
1000
1000
0100
0000
,
1000
1000
0001
1000
,
0020
0000
0130
0010
,
0200
0000
0301
1000
,
0002
0003
2000
3000
,
0001
0001
1000
0100
,
0020
0000
0130
0010
,
0200
0000
1300
0001
,
0200
0300
0020
0030
,
1000
0010
0100
0001
,
0020
0000
0000
0000
,
0030
MMMM
0000
0001
,
0012
0000
1003
0010
,
2010
0000
3100
0010
,
0210
0000
0310
0001
,
2000
3020
0230
0302
,
2003
0000
3200
0000
,
0302
0000
0103
1000
,
0002
0000
0203
0000
,
0310
1000
0001
1000
,
2100
0000
3001
0100
,
0102
0000
0013
0100
,
0120
0000
0130
1000
,
0002
0203
0320
2030
,
3002
0000
0023
0000
,
2030
0000
3010
0001
,
2000
0000
3020
0000
,
0130
0100
0001
1000
,
0002
0010
0013
0000
,
0200
0010
0310
0001
,
2000
0010
3010
0000
,
0100
0010
1000
0001
,
2000
0100
3100
0000
,
0020
0100
0130
1000
,
0002
0100
0103
0000
,
0220
0000
0330
0010
,
2001
0000
0000
0000
,
3002
0000
0000
0000
,
0023
0000
0000
0000
,
0230
0000
0000
0000
,
2300
0000
3002
0000
,
0203
0000
0320
0000
,
2030
3002
0023
0230
,
1300
0000
0000
1000
,
2010
0000
3001
0010
,
0012
0000
0103
0010
,
0210
0000
0310
1000
,
0002
0023
0230
2300
,
3002
0000
0203
0000
,
2300
0000
3100
0001
,
0020
0000
1030
0010
,
0002
0000
0000
2000
,
3003
0000
0000
0000
;

//---------------dance-single - ----------------
#NOTEDATA:;
#CHARTNAME:;
#STEPSTYPE:dance-single;
#DESCRIPTION:;
#CHARTSTYLE:;
#DIFFICULTY:Beginner;
#METER:1;
#RADARVALUES:0.100150,0.133534,0.000000,0.225338,0.000000,84.000000,84.000000,0.000000,27.000000,0.000000,0.000000,0.000000,0.000000,0.000000,0.100150,0.133534,0.000000,0.225338,0.000000,84.000000,84.000000,0.000000,27.000000,0.000000,0.000000,0.000000,0.000000,0.000000;
#CREDIT:;
#NOTES:
0000
0000
0000
0000
,
0000
0000
0000
0000
,
0000
0000
0000
0000
,
0000
0000
0000
0000
,
0000
0000
0000
0000
,
0000
0000
0000
0000
,
1000
0000
0000
0000
,
0001
0000
0000
0000
,
1000
0000
0000
0000
,
0010
0000
0000
0000
,
1000
0000
0000
0000
,
0001
0000
0000
0000
,
1000
0000
0000
0000
,
0100
0000
0000
0000
,
0010
0000
0000
0000
,
0010
0000
0000
0000
,
0100
0000
0000
0000
,
0100
0000
0000
0000
,
0010
0000
0000
0000
,
0010
0000
0000
0000
,
0200
0000
0000
0000
,
0300
0000
0000
0000
,
1000
0000
1000
0000
,
1000
0000
0000
0000
,
0001
0000
0000
0000
,
1000
0000
0000
0000
,
0001
0000
0001
0000
,
0001
0000
0000
0000
,
1000
0000
0000
0000
,
0001
0000
0000
0000
,
2000
0000
3000
0000
,
0020
0000
0030
0000
,
2000
0000
3000
0000
,
0001
0000
0001
0000
,
0002
0000
0003
0000
,
0020
0000
0030
0000
,
0002
0000
0003
0000
,
1000
0000
1000
0000
,
2000
0000
0000
0000
,
3000
0000
0000
0000
,
0020
0000
0030
0000
,
0020
0000
0030
0000
,
1000
0000
0001
0000
,
1000
0000
0000
0000
,
0200
0000
0300
0000
,
0200
0000
0300
0000
,
0010
0000
0010
0000
,
0100
0000
0000
0000
,
0020
0000
0030
0000
,
0020
0000
0030
0000
,
0001
0000
1000
0000
,
0001
0000
0000
0000
,
0200
0000
0300
0000
,
0200
0000
0300
0000
,
0010
0000
0010
0000
,
0100
0000
0000
0000
,
0001
0000
0000
0000
,
1000
0000
0000
0000
,
0001
0000
0000
0000
,
0010
0000
0000
0000
,
0001
0000
0000
0000
,
1000
0000
0000
0000
,
0001
0000
0000
0000
,
0100
0000
0000
0000
,
0020
0000
0030
0000
,
2000
0000
3000
0000
,
0002
0000
0003
0000
,
0020
0000
0030
0000
,
0100
0000
0100
0000
,
0200
0000
0300
0000
,
0010
0000
0010
0000
,
0020
0000
0030
0000
,
0002
0000
0003
0000
,
2000
0000
3000
0000
,
0001
0000
1000
0000
,
0001
0000
0000
0000
,
0200
0000
0300
0000
,
0020
0000
0030
0000
,
0100
0000
0100
0000
,
0020
0000
0000
0000
,
0030
0000
0000
0000
;
