#TITLE:Boomy and The Boost;
#SUBTITLE:;
#ARTIST:Eagle;
#TITLETRANSLIT:;
#SUBTITLETRANSLIT:;
#ARTISTTRANSLIT:;
#GENRE:Neo Jungle;
#CREDIT:;
#BANNER:Boomy and The Boost.png;
#BACKGROUND:Boomy and The Boost-bg.png;
#LYRICSPATH:;
#CDTITLE:cdtitle.png;
#MUSIC:Boomy and The Boost.ogg;
#OFFSET:-1.879030;
#SAMPLESTART:34.982475;
#SAMPLELENGTH:11.034481;
#SELECTABLE:YES;
#BPMS:0.000000=174.000000
;
#STOPS:
;
#BGCHANGES:;
#KEYSOUNDS:;
#ATTACKS:;

//---------------dance-single - ----------------
#NOTES:
     dance-single:
     :
     Challenge:
     16:
     0.752372,0.822712,0.607685,0.849201,0.560940,676.000000,598.000000,78.000000,109.000000,0.000000,0.000000,0.752372,0.822712,0.607685,0.849201,0.560940,676.000000,598.000000,78.000000,109.000000,0.000000,0.000000:
// measure 0
0000
0000
0000
0000
,  // measure 1
0000
0000
0000
0000
,  // measure 2
0000
0000
0000
0000
,  // measure 3
0000
0000
0000
0000
0000
0000
0000
0000
0000
0000
0000
0000
0000
0000
0001
0010
,  // measure 4
0001
0010
0001
2000
0000
0000
3000
0000
,  // measure 5
0001
0000
1000
0000
0001
0000
0200
0000
0000
0000
0000
0000
0300
0000
0001
0100
,  // measure 6
0001
0100
0001
0020
0000
0000
0030
0000
,  // measure 7
0001
0000
1000
0000
0010
0000
1000
0000
0100
0000
1000
0000
0001
0000
1000
0010
,  // measure 8
1000
0010
0100
0020
0100
0000
1030
0001
,  // measure 9
1000
0000
0100
0000
0010
0000
0200
0000
0010
0000
0000
0000
1300
0000
0010
1000
,  // measure 10
0010
0000
0100
0000
0010
0000
2000
0000
0001
0000
0000
0000
3100
0010
0100
0010
,  // measure 11
0100
0000
0000
0000
1001
0000
0000
0000
1000
0000
0010
0000
0100
0000
0001
0010
,  // measure 12
0001
0010
0100
0020
0100
0000
0031
1000
,  // measure 13
0001
0000
0100
0000
0010
0000
0200
0000
0010
0000
0000
0000
0301
0000
0010
0001
,  // measure 14
0010
0000
0100
0000
0010
0000
0002
0000
1000
0000
0000
0000
0103
0010
0100
0010
,  // measure 15
1000
0001
0010
0001
0100
0001
1000
0000
,  // measure 16
1002
0000
0000
0000
0023
0000
0000
0000
0230
0000
0000
0302
0000
0000
0203
0000
,  // measure 17
0000
0000
0320
0000
0032
0000
0000
0000
0013
0000
0000
0110
0000
0000
0011
0000
,  // measure 18
2001
0000
0000
0000
3020
0000
0000
0000
0230
0000
0000
2300
0000
0000
3200
0000
,  // measure 19
0000
0000
0320
0000
2030
0000
0000
0000
3010
0000
0000
0110
0000
0000
1010
0000
,  // measure 20
1001
0000
0000
0000
0011
0000
0000
0000
1010
0000
0000
1100
0000
0000
0101
0000
,  // measure 21
0000
0000
1001
0000
1001
0000
0000
0000
0011
0000
0000
1100
0000
0000
1010
0000
,  // measure 22
0102
0000
0000
0000
1000
0000
0000
0000
0010
0000
0000
0013
0100
0000
0010
0000
,  // measure 23
0012
2000
3003
2010
0002
0000
3003
0000
,  // measure 24
1002
0000
0000
0000
0010
0000
2003
0000
0000
0000
0010
0000
3001
0100
0001
0100
,  // measure 25
0020
0000
1000
0230
0000
0001
0310
1000
,  // measure 26
2001
0000
0000
0000
0010
0000
3002
0000
0000
0000
0010
0000
1003
0100
1000
0100
,  // measure 27
0020
0000
0001
0230
0000
1300
1002
0000
,  // measure 28
2003
3000
0020
0030
0200
0300
0002
0003
0020
0030
0200
0300
1000
0001
1000
0001
,  // measure 29
0200
0000
0310
2001
0000
3100
0100
0010
,  // measure 30
0011
0000
0000
0000
0110
0000
0000
0000
2100
0000
0000
0001
0000
0000
3010
0000
,  // measure 31
0000
1010
0110
0000
0102
0000
2003
0000
,  // measure 32
3200
0000
0000
0000
0310
0100
0020
0000
0000
0000
0130
0000
0010
0001
1000
0001
,  // measure 33
0100
0000
0000
0000
2010
0000
0001
0000
0000
3100
0010
0000
0001
0000
0001
0000
,  // measure 34
0200
0000
0000
0000
0310
0100
0020
0000
0000
0000
0130
0000
0010
1000
0001
1000
,  // measure 35
0100
0000
0000
0110
0000
0000
0011
0000
0000
1000
0000
0010
1000
0010
1000
0000
,  // measure 36
0002
0003
0020
0030
0200
0300
2000
3000
0020
0030
0200
0300
0001
1000
0001
1000
,  // measure 37
0200
0000
0000
0000
0310
0000
1002
0000
0000
0103
0010
0000
1000
0000
0001
0000
,  // measure 38
0020
0000
0000
0000
,  // measure 39
1000
0000
0000
0000
0100
0000
0000
0000
0001
0000
0000
0001
0000
0000
0031
0000
,  // measure 40
0011
0000
0000
0000
0002
0000
0000
0010
0000
0000
0203
0000
0000
0010
0000
0000
,  // measure 41
0302
0000
0000
0100
0000
0000
0013
0000
0000
0011
0000
0000
1000
0010
0100
0001
,  // measure 42
1000
0000
0000
0000
2000
0000
0000
0010
0000
0000
3200
0000
0000
0010
0000
0000
,  // measure 43
2300
0000
0000
0100
0000
0000
3010
0000
0000
1010
0000
0000
0100
0010
0100
0000
,  // measure 44
1001
0000
0000
0000
0012
0000
0000
1003
0000
0000
2010
0000
0000
3001
0000
0000
,  // measure 45
0012
0000
0000
0103
0000
0000
2010
0000
0000
3100
0000
0000
0010
0100
1000
0001
,  // measure 46
1000
0000
0000
0000
2000
0000
0000
3020
0000
0000
0032
0000
0000
2003
0000
0000
,  // measure 47
3200
0000
0000
0000
0302
0000
0000
0000
2003
0000
0000
0000
3001
1000
0001
1000
,  // measure 48
0001
1000
0002
0000
0000
0010
2003
0000
,  // measure 49
3100
0010
0100
0001
0000
0100
0010
0100
,  // measure 50
2000
0000
3000
1100
0000
1100
0000
0000
,  // measure 51
0002
0000
0003
0101
0000
0001
0010
0100
,  // measure 52
1000
0001
2000
0000
0000
0010
3002
0000
,  // measure 53
0103
0010
0100
1000
0000
0100
0010
0100
,  // measure 54
0002
0000
0003
0011
0000
0011
0000
0000
,  // measure 55
2000
0000
3000
1010
0000
1000
0010
0100
,  // measure 56
0001
0000
1000
0000
0001
0000
1000
0000
0100
0000
0010
0000
1000
0010
1000
0000
,  // measure 57
0010
0000
0100
0000
1000
0000
0001
0000
0100
0000
0010
0000
0100
1000
0100
0000
,  // measure 58
0020
0000
0000
0000
0130
0000
0010
0000
0100
0000
0010
0000
1000
0100
1000
0100
,  // measure 59
0020
0000
0130
0010
0100
0020
0100
0031
,  // measure 60
1000
0000
0001
0000
1000
0000
0001
0000
0100
0000
0010
0000
0001
0010
0001
0000
,  // measure 61
0010
0000
0100
0000
0001
0000
1000
0000
0100
0000
0010
0000
0100
0001
0100
0000
,  // measure 62
0020
0000
0000
0000
0130
0000
0010
0000
0100
0000
0010
0000
0001
0100
0001
0100
,  // measure 63
0020
0000
0130
0010
0100
0002
1000
0013
,  // measure 64
0011
0000
0000
0000
1010
0000
0000
0000
1100
0000
0000
0001
0100
0000
0001
0010
,  // measure 65
0001
0000
0011
0000
0101
0000
0000
0000
1100
0000
0000
0001
0100
0000
0010
0000
,  // measure 66
1010
0000
0000
0000
0011
0000
0000
0000
0101
0000
0000
1000
0100
0000
1000
0010
,  // measure 67
1000
0000
1010
0000
1100
0000
0000
0000
0101
0000
0000
1000
0100
0000
0010
0000
,  // measure 68
0001
0000
0010
0000
1000
0000
0010
0000
0001
0000
0100
0010
0000
0100
0010
0000
,  // measure 69
1000
0000
0010
0000
0001
0000
0010
0000
1000
0000
0100
0010
0000
0100
0010
0000
,  // measure 70
0001
0000
0100
0000
1000
0000
0100
0000
0002
0000
0000
2003
0000
0000
3001
0000
,  // measure 71
0012
0000
2000
0000
3003
0000
2010
0000
0002
0000
3003
0000
1000
0000
0001
1000
,  // measure 72
0200
0300
0000
0000
0000
0000
0000
0000
0010
0000
0001
0000
0000
0000
0011
0000
0000
0000
0000
0000
1000
0000
0001
0000
0000
0000
1001
0000
0000
0000
0000
0000
,  // measure 73
0100
0001
0000
0101
0000
0000
1000
0001
0000
1001
0000
0000
0001
0010
0100
1000
,  // measure 74
0001
0000
0000
0000
1000
0010
1000
0010
0100
0000
0010
0200
1000
0000
0000
0000
,  // measure 75
0310
0000
0100
0001
0100
0001
0100
0001
0010
0000
0100
1000
0010
0000
0100
0000
,  // measure 76
0200
0300
0000
0000
0000
0000
0000
0000
0010
0000
1000
0000
0000
0000
1010
0000
0000
0000
0000
0000
0001
0000
1000
0000
0000
0000
1001
0000
0000
0000
0000
0000
,  // measure 77
0100
1000
0000
1100
0000
0000
0001
1000
0000
1001
0000
0000
1000
0010
0100
0001
,  // measure 78
1000
0000
0000
0000
0001
0010
0001
0010
0100
0000
0010
0200
0001
0000
0000
0000
,  // measure 79
0310
0000
0100
1000
0100
1000
0100
1000
0010
0000
0100
0000
0001
0100
0010
1000
,  // measure 80
0002
0003
0000
0000
0000
0000
0000
0000
1000
0000
0100
0000
0000
0000
0011
0000
0000
0000
0000
0000
0001
0000
0100
0000
0000
0000
1010
0000
0000
0000
0000
0000
,  // measure 81
0001
0010
0000
1100
0000
0000
1000
0010
0000
0101
0000
0000
0001
0100
0001
0010
,  // measure 82
0200
0300
0000
0000
0000
0000
0000
0000
1000
0000
0100
0000
1000
0000
0100
0000
0010
0000
0000
0000
0100
0000
0020
0000
1000
0000
0000
0000
0000
0000
0000
0000
,  // measure 83
0031
0000
1000
0010
0100
0001
1000
0100
0010
0000
0001
1000
0001
0000
0100
0010
,  // measure 84
2000
3000
0000
0000
0000
0000
0000
0000
0001
0000
0010
0000
0001
0000
1000
0000
0000
0000
0000
0000
1000
0000
0010
0000
1000
0000
0001
0000
0000
0000
0000
0000
,  // measure 85
0001
0100
0001
1000
0000
0000
1000
0100
1000
0001
0000
0000
1000
0010
1000
0100
,  // measure 86
0010
0000
0100
0000
0010
0000
0100
0000
0011
0000
0000
1001
0000
0000
1010
0000
,  // measure 87
0220
0000
0000
0000
,  // measure 88
0330
0000
0000
0000
;

//---------------dance-single - ----------------
#NOTES:
     dance-single:
     :
     Hard:
     13:
     0.579861,0.617034,0.467450,0.888155,0.194771,521.000000,461.000000,60.000000,114.000000,0.000000,0.000000,0.579861,0.617034,0.467450,0.888155,0.194771,521.000000,461.000000,60.000000,114.000000,0.000000,0.000000:
// measure 0
0000
0000
0000
0000
,  // measure 1
0000
0000
0000
0000
,  // measure 2
0000
0000
0000
0000
,  // measure 3
0000
0000
0000
0000
0000
0000
0000
0001
,  // measure 4
0010
0001
0010
0200
0000
0000
0000
0000
,  // measure 5
1300
0100
0010
0002
0000
0000
0000
1003
,  // measure 6
0010
1000
0010
0200
0000
0000
0000
0000
,  // measure 7
0301
1000
0001
1000
0100
0010
0001
0000
,  // measure 8
0011
0000
1000
0001
1000
0001
0100
0000
,  // measure 9
1010
0000
0001
1000
0001
1000
0100
0000
,  // measure 10
0110
0000
0001
0010
0100
1000
0001
1000
,  // measure 11
0010
0000
0100
0001
0100
0001
0010
0000
,  // measure 12
1100
0000
0001
1000
0001
1000
0010
0000
,  // measure 13
0101
0000
1000
0001
1000
0001
0010
0000
,  // measure 14
0110
0000
1000
0010
0100
0001
1000
0000
,  // measure 15
0001
0010
0100
0010
0100
1000
0001
0000
,  // measure 16
2000
0000
0000
0000
0010
0000
0000
0000
0001
0000
0000
0001
0000
0000
3001
0000
,  // measure 17
0000
0000
2000
0000
0010
0000
0000
0000
0001
0000
0000
3100
0000
0000
0010
0000
,  // measure 18
0002
0000
0000
0000
0010
0000
0000
0000
1000
0000
0000
1000
0000
0000
1003
0000
,  // measure 19
0000
0000
0002
0000
0010
0000
0000
0000
1000
0000
0000
0103
0000
0000
0010
0000
,  // measure 20
2010
0000
0000
0000
3001
0000
0000
0000
0012
0000
0000
1000
0000
0000
1003
0000
,  // measure 21
0000
0000
0102
0000
1003
0000
0000
0000
2100
0000
0000
0001
0000
0000
3001
0000
,  // measure 22
0200
0000
0000
0000
1000
0000
0000
0000
0010
0000
0000
0001
0000
0000
0301
0000
,  // measure 23
2000
0100
0000
3002
0100
0000
0003
0000
,  // measure 24
1001
0000
2000
0000
0100
3200
0000
0010
,  // measure 25
0320
0000
1000
1000
0000
0130
0010
0100
,  // measure 26
1000
0000
0002
0000
0100
0203
0000
0010
,  // measure 27
0320
0000
0001
0001
0000
0130
0020
0000
,  // measure 28
2030
3000
0200
0300
0020
0030
0200
0300
2000
3000
0020
0000
0000
0000
0130
0000
,  // measure 29
0210
0000
0301
2001
0000
3100
0010
0001
,  // measure 30
0012
0000
0000
0000
1000
0000
0000
0000
0100
0000
0000
0100
0000
0000
0103
0000
,  // measure 31
0000
2010
0001
0000
0200
0000
3300
0000
,  // measure 32
0100
0010
2000
0000
3010
0002
0000
0103
,  // measure 33
0210
0000
0310
2001
0000
3100
0010
0100
,  // measure 34
1000
0010
0002
0000
0013
2000
0000
3100
,  // measure 35
0110
0000
0000
0011
0000
0000
2002
0000
0000
0000
0000
0000
3003
0000
0000
0000
,  // measure 36
0002
0003
0200
0300
0020
0030
0200
0300
0002
0003
0020
0000
0000
0000
0130
0000
,  // measure 37
0210
0000
1300
1002
0000
1003
0010
0100
,  // measure 38
0020
0000
0000
0000
,  // measure 39
0001
0000
0000
0000
0100
0000
0000
0000
1000
0000
0000
1000
0000
0000
1030
0000
,  // measure 40
1010
0000
0000
0000
0002
0000
0000
0013
0000
0000
0002
0000
0000
1003
0000
0000
,  // measure 41
0002
0000
0000
0103
0000
0000
0002
0000
0000
1003
0000
0000
0001
0000
0010
0000
,  // measure 42
0011
0000
0000
0000
2000
0000
0000
3010
0000
0000
2000
0000
0000
3001
0000
0000
,  // measure 43
2000
0000
0000
3100
0000
0000
2000
0000
0000
3001
0000
0000
1000
0000
0010
0000
,  // measure 44
1010
0000
0000
0000
0002
0000
0000
0100
0000
0000
2003
0000
0000
0100
0000
0000
,  // measure 45
3002
0000
0000
0010
0000
0000
2003
0000
0000
0010
0000
0000
3001
0000
1000
0000
,  // measure 46
1001
0000
0000
0000
0002
0000
0000
0023
0000
0000
2030
0000
0000
3020
0000
0000
,  // measure 47
0032
0203
2300
3200
,  // measure 48
0302
0000
0010
0000
0000
1000
1000
0000
,  // measure 49
0103
0010
1000
0001
0000
0001
0010
0000
,  // measure 50
0200
0000
0000
0010
0000
1300
0000
0000
,  // measure 51
0200
0000
0000
0010
0000
1000
1300
0000
,  // measure 52
2000
0000
0010
0000
0000
0001
0001
0000
,  // measure 53
3100
0010
0001
1000
0000
1000
0010
0000
,  // measure 54
0200
0000
0000
0010
0000
0301
0000
0000
,  // measure 55
0200
0000
0000
0010
0000
0001
0301
0000
,  // measure 56
1000
0100
0010
0100
0010
0100
0002
0000
,  // measure 57
0103
0010
0100
1000
0001
0100
0010
0000
,  // measure 58
1010
0000
1000
0010
0001
0010
1000
0000
,  // measure 59
0011
0000
0001
0010
1000
0010
0001
0000
,  // measure 60
0001
0100
0010
0100
0010
0100
2000
0000
,  // measure 61
3100
0010
0100
0001
1000
0100
0010
0000
,  // measure 62
0011
0000
1000
0100
0001
0100
1000
0000
,  // measure 63
1010
0000
0001
0100
1000
0100
0001
0000
,  // measure 64
0101
0000
0000
0000
1001
0000
0000
0000
0021
0000
0000
0100
0000
0000
0130
0000
,  // measure 65
0000
0000
0110
0000
0210
0000
0000
0000
0001
0000
0000
0010
0000
0000
1300
0000
,  // measure 66
1100
0000
0000
0000
1001
0000
0000
0000
1020
0000
0000
0100
0000
0000
0130
0000
,  // measure 67
0000
0000
0110
0000
0210
0000
0000
0000
1000
0000
0000
0010
0000
0000
0301
0000
,  // measure 68
0101
1010
1100
0011
,  // measure 69
1000
0100
0010
0001
1000
0010
0100
0010
,  // measure 70
0002
0000
0000
0000
2003
0000
0000
0000
3200
0000
0000
0302
0000
0000
1003
0000
,  // measure 71
0002
0010
0003
2000
0010
0000
3100
0010
,  // measure 72
0002
0003
0000
0000
0000
0000
0000
0000
0012
0000
0000
0000
0000
0000
1003
0000
0000
0000
0000
0000
1002
0000
0000
0000
0000
0000
0103
0000
0000
0000
0000
0000
,  // measure 73
0102
0000
0000
1003
0000
0000
0012
0000
0000
0103
0000
0000
0100
0010
0100
0000
,  // measure 74
1000
0000
0100
1000
0100
0010
2000
0000
,  // measure 75
3010
0100
1000
0100
0010
1000
0200
0010
,  // measure 76
2300
3000
0000
0000
0000
0000
0000
0000
2010
0000
0000
0000
0000
0000
3001
0000
0000
0000
0000
0000
2001
0000
0000
0000
0000
0000
3100
0000
0000
0000
0000
0000
,  // measure 77
2100
0000
0000
3001
0000
0000
2010
0000
0000
3100
0000
0000
0100
0010
0100
0000
,  // measure 78
0001
0000
0100
0001
0100
0010
0002
0000
,  // measure 79
0013
0100
0001
0100
0010
0001
0200
0010
,  // measure 80
0302
0003
0000
0000
0000
0000
0000
0000
0102
0000
0000
0000
0000
0000
0013
0000
0000
0000
0000
0000
0012
0000
0000
0000
0000
0000
0103
0000
0000
0000
0000
0000
,  // measure 81
0102
0000
0000
1003
0000
0000
0021
0000
0000
0130
0000
0000
0010
0100
0010
0000
,  // measure 82
1000
0000
0010
0100
0001
0100
2000
0000
,  // measure 83
3010
0100
1000
0100
0001
1000
0200
0010
,  // measure 84
2300
3000
0000
0000
0000
0000
0000
0000
2100
0000
0000
0000
0000
0000
3010
0000
0000
0000
0000
0000
2010
0000
0000
0000
0000
0000
3100
0000
0000
0000
0000
0000
,  // measure 85
2100
0000
0000
3001
0000
0000
1020
0000
0000
0130
0000
0000
0010
0100
0010
0000
,  // measure 86
0001
0000
0010
0000
0100
0000
0010
0000
1000
0000
0000
0100
0000
0000
0001
0000
,  // measure 87
0002
0000
0000
0000
,  // measure 88
0003
0000
0000
0000
;

//---------------dance-single - ----------------
#NOTES:
     dance-single:
     :
     Medium:
     9:
     0.389542,0.445636,0.233725,0.459659,0.003895,350.000000,320.000000,30.000000,59.000000,0.000000,0.000000,0.389542,0.445636,0.233725,0.459659,0.003895,350.000000,320.000000,30.000000,59.000000,0.000000,0.000000:
// measure 0
0000
0000
0000
0000
,  // measure 1
0000
0000
0000
0000
,  // measure 2
0000
0000
0000
0000
,  // measure 3
0000
0000
0000
0000
,  // measure 4
0002
0010
0010
0000
,  // measure 5
2003
0010
0010
0000
,  // measure 6
3001
1000
0001
0000
,  // measure 7
1000
0100
0010
0001
,  // measure 8
1000
0000
0010
1000
0010
0000
0000
0000
,  // measure 9
1000
0000
0001
1000
0001
0000
0000
0000
,  // measure 10
1000
0000
0100
1000
0100
0000
0000
0000
,  // measure 11
1000
0010
1000
1000
,  // measure 12
0001
0000
0010
0001
0010
0000
0000
0000
,  // measure 13
0001
0000
1000
0001
1000
0000
0000
0000
,  // measure 14
0001
0000
0100
0001
0100
0000
0000
0000
,  // measure 15
0001
1000
0100
0010
,  // measure 16
0012
0000
1000
0000
,  // measure 17
0010
0010
1003
0000
,  // measure 18
2010
0000
0001
0000
,  // measure 19
0010
0010
3001
0000
,  // measure 20
1000
0010
0100
0001
,  // measure 21
0010
0001
0100
0010
,  // measure 22
2000
3200
0320
0032
,  // measure 23
2003
0001
0000
3002
1000
0000
0003
0000
,  // measure 24
2001
0000
0010
0000
0000
0010
0000
0000
,  // measure 25
0001
0000
0000
3100
0000
0000
0100
0010
,  // measure 26
0002
0000
0010
0000
0000
0010
0000
0000
,  // measure 27
1000
0000
0000
0103
0000
0000
1001
0000
,  // measure 28
1000
0010
0200
0000
0000
0010
0000
0000
,  // measure 29
0301
0000
0000
0011
0000
0001
0010
0100
,  // measure 30
2000
0010
3001
1000
,  // measure 31
0002
0010
2000
3003
,  // measure 32
1020
0000
0100
0000
0000
0100
0000
0000
,  // measure 33
1030
0000
0001
0100
0000
0001
0010
0000
,  // measure 34
0021
0000
0100
0000
0000
0100
0000
0000
,  // measure 35
0032
0000
0000
0000
0000
1000
1003
0000
,  // measure 36
0001
0100
0020
0000
0000
0100
0000
0000
,  // measure 37
1030
0000
0000
1010
0000
0001
1000
0100
,  // measure 38
0020
0000
0000
0000
,  // measure 39
0031
0100
0001
0010
,  // measure 40
0100
0000
1100
0000
0000
0110
0000
0000
,  // measure 41
0011
0000
0000
1001
0000
0000
0001
1000
,  // measure 42
0010
0000
0101
0000
0000
0110
0000
0000
,  // measure 43
1010
0000
0000
1001
0000
0000
1000
0001
,  // measure 44
0010
0000
0000
0000
0012
0000
0000
0003
0000
0000
2010
0000
0000
3000
0000
0000
,  // measure 45
0102
0000
0000
0003
0000
0000
2100
0000
0000
3000
0000
0000
0001
0000
0100
0000
,  // measure 46
0020
0000
0100
0000
0000
0100
0000
0000
,  // measure 47
1030
0001
1000
0001
,  // measure 48
0020
0100
0000
0031
,  // measure 49
1000
0010
0100
0000
,  // measure 50
0002
0000
1003
1000
,  // measure 51
2000
0000
3001
0100
,  // measure 52
0020
0100
0000
1030
,  // measure 53
0001
0010
0100
0000
,  // measure 54
2000
0000
3001
0001
,  // measure 55
0002
0000
0103
0010
,  // measure 56
1000
0000
0100
0000
1000
0100
0010
0000
,  // measure 57
0100
1000
0010
0000
0100
0000
0010
0000
,  // measure 58
2010
0001
3001
0010
,  // measure 59
0012
0000
1000
0000
1003
0000
0001
1000
,  // measure 60
0001
0000
0100
0000
0001
0100
0010
0000
,  // measure 61
0100
0001
0010
0000
0100
0000
0010
0000
,  // measure 62
0012
1000
0103
0010
,  // measure 63
2010
0000
0001
0000
3100
0000
0010
0001
,  // measure 64
2000
0100
0001
0010
,  // measure 65
3020
0100
1000
0130
,  // measure 66
0002
0100
1000
0010
,  // measure 67
0023
0100
0001
0130
,  // measure 68
0011
0100
1010
0100
,  // measure 69
0001
0010
0001
0000
1000
0010
1000
0000
,  // measure 70
0002
0203
0320
2030
,  // measure 71
3002
1000
0000
2003
0001
0000
3100
0000
,  // measure 72
0021
0000
0001
0000
0000
0001
0000
0000
,  // measure 73
0100
0000
0000
1000
0000
0000
1030
0010
,  // measure 74
0001
0000
1000
0100
0000
1000
0100
1000
,  // measure 75
0001
0000
0001
0100
0000
0001
0100
0000
,  // measure 76
1020
0000
1000
0000
0000
1000
0000
0000
,  // measure 77
0100
0000
0000
0001
0000
0000
0031
0010
,  // measure 78
1000
0000
0001
0100
0000
0001
0100
0001
,  // measure 79
1000
0000
1000
0100
0000
0010
0001
0000
,  // measure 80
2001
0000
3020
0000
0000
0032
0000
0000
,  // measure 81
2003
0000
0000
3200
0000
0000
0310
0100
,  // measure 82
0001
0000
1000
0100
0000
0010
0001
0100
,  // measure 83
0010
0000
1000
0100
0000
1000
0010
0000
,  // measure 84
1002
0000
0023
0000
0000
2030
0000
0000
,  // measure 85
3002
0000
0000
0203
0000
0000
0310
0100
,  // measure 86
1000
0000
0000
0000
0001
0000
0000
0000
0100
0000
0000
0100
0000
0000
0100
0000
,  // measure 87
0200
0000
0000
0000
,  // measure 88
0300
0000
0000
0000
;

//---------------dance-single - ----------------
#NOTES:
     dance-single:
     :
     Easy:
     6:
     0.245968,0.308517,0.085699,0.506404,0.000000,221.000000,210.000000,11.000000,65.000000,0.000000,0.000000,0.245968,0.308517,0.085699,0.506404,0.000000,221.000000,210.000000,11.000000,65.000000,0.000000,0.000000:
// measure 0
0000
0000
0000
0000
,  // measure 1
0000
0000
0000
0000
,  // measure 2
0000
0000
0000
0000
,  // measure 3
0000
0000
0000
0000
,  // measure 4
0002
0000
0000
0000
,  // measure 5
0203
0000
0000
0000
,  // measure 6
0320
0000
0000
0000
,  // measure 7
1030
0000
0001
0000
,  // measure 8
1000
0100
1000
0000
,  // measure 9
0100
0010
0100
0000
,  // measure 10
0010
0001
0010
0000
,  // measure 11
0001
0000
1000
0000
,  // measure 12
0001
0100
0001
0000
,  // measure 13
0100
0010
0100
0000
,  // measure 14
0010
1000
0010
0000
,  // measure 15
1000
0001
0010
0000
,  // measure 16
0200
0000
0010
0000
,  // measure 17
0300
1000
0001
0000
,  // measure 18
0200
0000
0010
0000
,  // measure 19
0300
0001
1000
0000
,  // measure 20
0001
0001
0010
0000
,  // measure 21
1000
1000
0010
0000
,  // measure 22
0002
2003
3002
2003
,  // measure 23
3001
0000
0000
0000
,  // measure 24
2000
0000
3200
0000
,  // measure 25
0320
0000
0130
0010
,  // measure 26
0002
0000
0203
0000
,  // measure 27
0320
0000
0130
0010
,  // measure 28
2000
3002
2003
0000
,  // measure 29
0100
0000
0001
0000
,  // measure 30
3010
1000
0001
0001
,  // measure 31
0000
0010
0001
0000
,  // measure 32
0002
0000
0103
0000
,  // measure 33
0110
1000
0001
0000
,  // measure 34
2000
0000
3100
0000
,  // measure 35
0220
0000
0000
0330
0000
0000
0000
0000
,  // measure 36
0002
2003
3002
0000
,  // measure 37
0100
0000
1000
0000
,  // measure 38
0023
0000
0000
0000
,  // measure 39
0130
0100
0010
0001
,  // measure 40
1000
0000
2020
0000
0000
0030
0000
0000
,  // measure 41
0002
0000
0000
0003
0000
0000
3100
0000
,  // measure 42
0010
0000
0022
0000
0000
0030
0000
0000
,  // measure 43
2000
0000
0000
3000
0000
0000
0103
0000
,  // measure 44
0010
0000
0220
0000
0000
0330
0000
0000
,  // measure 45
2002
0000
0000
3003
0000
0000
0001
0000
,  // measure 46
0010
0200
0000
0000
,  // measure 47
0010
0010
0310
0000
,  // measure 48
0001
0001
0000
0010
,  // measure 49
0001
0000
0100
0000
,  // measure 50
0020
0000
0030
0000
,  // measure 51
0020
0000
0030
0000
,  // measure 52
1000
1000
0000
0010
,  // measure 53
1000
0000
0100
0000
,  // measure 54
0020
0000
0030
0000
,  // measure 55
0020
0000
0030
0000
,  // measure 56
0001
0010
0100
0000
,  // measure 57
1000
0010
0100
0010
,  // measure 58
0200
0300
1001
0000
,  // measure 59
0200
0300
1001
0000
,  // measure 60
0001
1000
0010
0000
,  // measure 61
1000
0001
0010
0100
,  // measure 62
0020
0030
1100
0000
,  // measure 63
0020
0030
0101
0000
,  // measure 64
0002
0010
0010
0000
,  // measure 65
1000
1000
0100
0000
,  // measure 66
2003
0010
0010
0000
,  // measure 67
0001
0001
0100
0000
,  // measure 68
3001
0010
0001
0001
,  // measure 69
1000
0010
1000
1000
,  // measure 70
0002
2003
3002
2003
,  // measure 71
3001
0000
0000
0000
,  // measure 72
0002
0000
0010
0000
0000
0010
0000
0000
,  // measure 73
0010
0000
0000
0010
0000
0000
0010
0000
,  // measure 74
0013
0000
0100
0000
,  // measure 75
0010
0001
0100
0010
,  // measure 76
2000
0000
0010
0000
0000
0010
0000
0000
,  // measure 77
0010
0000
0000
0010
0000
0000
0010
0000
,  // measure 78
3010
0000
0100
0000
,  // measure 79
0010
1000
0001
1000
,  // measure 80
0200
0000
0320
0000
0000
0032
0000
0000
,  // measure 81
0023
0000
0000
0032
0000
0000
0010
0000
,  // measure 82
0013
0000
0001
0000
,  // measure 83
0010
0001
1000
0001
,  // measure 84
0200
0000
0320
0000
0000
2030
0000
0000
,  // measure 85
3020
0000
0000
2030
0000
0000
0010
0000
,  // measure 86
3010
0100
0001
0000
,  // measure 87
2002
0000
0000
0000
,  // measure 88
3003
0000
0000
0000
;

//---------------dance-single - ----------------
#NOTES:
     dance-single:
     :
     Beginner:
     2:
     0.097942,0.171398,0.023372,0.233725,0.000000,88.000000,85.000000,3.000000,30.000000,0.000000,0.000000,0.097942,0.171398,0.023372,0.233725,0.000000,88.000000,85.000000,3.000000,30.000000,0.000000,0.000000:
// measure 0
0000
0000
0000
0000
,  // measure 1
0000
0000
0000
0000
,  // measure 2
0000
0000
0000
0000
,  // measure 3
0000
0000
0000
0000
,  // measure 4
0002
0000
0000
0000
,  // measure 5
0003
0000
0000
0000
,  // measure 6
2000
0000
0000
0000
,  // measure 7
3000
0000
0000
0000
,  // measure 8
0001
0000
0000
0000
,  // measure 9
0010
0000
0000
0000
,  // measure 10
0100
0000
0000
0000
,  // measure 11
1000
0000
0000
0000
,  // measure 12
0001
0000
0000
0000
,  // measure 13
0100
0000
0000
0000
,  // measure 14
0010
0000
0000
0000
,  // measure 15
1000
0000
0000
0000
,  // measure 16
0200
0000
0000
0000
,  // measure 17
0300
0000
0000
0000
,  // measure 18
0020
0000
0000
0000
,  // measure 19
0030
0000
0000
0000
,  // measure 20
0100
0000
0000
0000
,  // measure 21
0010
0000
0000
0000
,  // measure 22
0001
0000
0001
0000
,  // measure 23
0001
0000
0000
0000
,  // measure 24
1000
0000
0000
0000
,  // measure 25
0010
0000
0000
0000
,  // measure 26
0100
0000
0000
0000
,  // measure 27
0001
0000
0000
0000
,  // measure 28
0100
0000
0000
0000
,  // measure 29
0010
0000
0000
0000
,  // measure 30
2000
0000
3000
0000
,  // measure 31
0000
0000
1000
0000
,  // measure 32
0001
0000
0000
0000
,  // measure 33
0010
0000
0000
0000
,  // measure 34
0100
0000
0000
0000
,  // measure 35
1000
0000
0000
0000
,  // measure 36
0100
0000
0000
0000
,  // measure 37
0010
0000
0000
0000
,  // measure 38
0002
0000
0003
0000
,  // measure 39
1000
0000
0001
0000
,  // measure 40
0000
2002
0000
0000
,  // measure 41
3003
0000
0000
0010
,  // measure 42
0000
2002
0000
0000
,  // measure 43
3003
0000
0000
0100
,  // measure 44
0000
2002
0000
0000
,  // measure 45
3003
0000
0000
0010
,  // measure 46
0000
0020
0000
0000
,  // measure 47
0030
0000
0000
0000
,  // measure 48
1000
0000
0000
0000
,  // measure 49
0100
0000
0000
0000
,  // measure 50
0020
0000
0030
0000
,  // measure 51
0020
0000
0030
0000
,  // measure 52
0001
0000
0000
0000
,  // measure 53
0100
0000
0000
0000
,  // measure 54
0020
0000
0030
0000
,  // measure 55
0020
0000
0030
0000
,  // measure 56
1000
0000
1000
0000
,  // measure 57
1000
0000
0000
0000
,  // measure 58
0002
0000
0003
0000
,  // measure 59
2000
0000
3000
0000
,  // measure 60
0001
0000
0001
0000
,  // measure 61
0001
0000
0000
0000
,  // measure 62
2000
0000
3000
0000
,  // measure 63
0002
0000
0003
0000
,  // measure 64
0010
0000
0000
0000
,  // measure 65
0100
0000
0000
0000
,  // measure 66
0010
0000
0000
0000
,  // measure 67
0100
0000
0000
0000
,  // measure 68
0010
0000
0000
0000
,  // measure 69
0001
0000
0000
0000
,  // measure 70
1000
0000
1000
0000
,  // measure 71
1000
0000
0000
0000
,  // measure 72
0000
0000
0002
0000
0000
0003
0000
0000
,  // measure 73
0002
0000
0000
0003
0000
0000
0000
0000
,  // measure 74
0001
0000
0000
0000
,  // measure 75
0010
0000
0000
0000
,  // measure 76
0000
0000
2000
0000
0000
3000
0000
0000
,  // measure 77
2000
0000
0000
3000
0000
0000
0000
0000
,  // measure 78
1000
0000
0000
0000
,  // measure 79
0010
0000
0000
0000
,  // measure 80
0000
0000
0002
0000
0000
0003
0000
0000
,  // measure 81
2000
0000
0000
3000
0000
0000
0000
0000
,  // measure 82
0001
0000
0000
0000
,  // measure 83
0100
0000
0000
0000
,  // measure 84
0000
0000
2000
0000
0000
3000
0000
0000
,  // measure 85
0002
0000
0000
0003
0000
0000
0000
0000
,  // measure 86
1000
0000
0100
0000
,  // measure 87
0002
0000
0000
0000
,  // measure 88
0003
0000
0000
0000
;
