#VERSION:0.83;
#TITLE:Beyond The Earth;
#SUBTITLE:;
#ARTIST:猫叉Master;
#TITLETRANSLIT:;
#SUBTITLETRANSLIT:;
#ARTISTTRANSLIT:Nekomata Master;
#GENRE:Contemporary Nation;
#ORIGIN:;
#CREDIT:;
#BANNER:Beyond The Earth.png;
#BACKGROUND:Beyond The Earth-bg.png;
#PREVIEWVID:;
#JACKET:Beyond The Earth-jacket.png;
#CDIMAGE:;
#DISCIMAGE:;
#LYRICSPATH:;
#CDTITLE:cdtitle.png;
#MUSIC:Beyond The Earth.ogg;
#OFFSET:0.764240;
#SAMPLESTART:43.592903;
#SAMPLELENGTH:13.714287;
#SELECTABLE:YES;
#BPMS:0.000=140.000;
#STOPS:;
#DELAYS:;
#WARPS:;
#TIMESIGNATURES:0.000=4=4;
#TICKCOUNTS:0.000=4;
#COMBOS:0.000=1;
#SPEEDS:0.000=1.000=0.000=0;
#SCROLLS:0.000=1.000;
#FAKES:;
#LABELS:0.000=Song Start;
#BGCHANGES:2.500=Beyond The Earth.mp4=1.000=1=0=1===CrossFade==,
311.000=Beyond The Earth-bg.png=1.000=1=0=1===CrossFade==,
99999=-nosongbg-=1.000=0=0=0 // don't automatically add -songbackground-
;
#KEYSOUNDS:;
#ATTACKS:
;

//---------------dance-single - ----------------
#NOTEDATA:;
#CHARTNAME:;
#STEPSTYPE:dance-single;
#DESCRIPTION:;
#CHARTSTYLE:;
#DIFFICULTY:Challenge;
#METER:13;
#RADARVALUES:0.617002,0.618733,0.412368,0.585997,0.528121,597.000000,540.000000,57.000000,81.000000,0.000000,0.000000,0.000000,0.000000,0.000000,0.617002,0.618733,0.412368,0.585997,0.528121,597.000000,540.000000,57.000000,81.000000,0.000000,0.000000,0.000000,0.000000,0.000000;
#CREDIT:;
#NOTES:
// measure 0
0000
0000
0000
0000
,  // measure 1
0000
0000
0000
0000
0000
0000
0000
1000
,  // measure 2
0100
0000
0000
0020
0000
0000
0030
0100
0010
0100
0000
0000
0010
0000
0000
0001
0000
0000
1000
0000
0000
0010
0000
0000
,  // measure 3
0100
0000
0000
1000
0000
0000
0100
0000
0000
0010
0000
0000
2000
0000
0000
0000
3001
0100
0001
0000
0000
0010
0000
0000
,  // measure 4
0200
0000
0000
0300
1000
0100
1000
0000
0000
0010
0000
0000
0200
0000
0000
0300
0001
0100
0001
0000
0000
1000
0000
0000
,  // measure 5
0100
0000
0000
0100
0000
0000
0010
0000
0220
0000
0000
0000
0330
0000
1000
0000
,  // measure 6
0010
0000
0000
0200
0000
0000
0300
0010
0100
0010
0000
0000
0100
0000
0000
0001
0000
0000
1000
0000
0000
0100
0000
0000
,  // measure 7
0010
0000
0000
1000
0000
0000
0010
0000
0000
0100
0000
0000
2000
0000
0000
0000
3001
0010
0001
0000
0000
0100
0000
0000
,  // measure 8
0220
0000
0000
0000
0000
0000
0000
0000
0000
0000
0000
0000
0330
0000
0000
0000
0000
0000
0000
0000
1000
0000
0010
0000
1000
0000
0000
0000
0000
0000
0000
0000
0001
0000
0100
0000
0001
0000
0000
0000
0000
0000
0000
0000
0000
1000
0000
0000
,  // measure 9
0100
0000
0000
0110
0000
0000
0012
0000
0000
0000
0010
0000
1003
0000
0001
0000
,  // measure 10
0100
0000
0000
0020
0000
0000
0030
0100
0010
0100
0000
0000
0010
0000
0000
1000
0000
0000
0001
0000
0000
0010
0000
0000
,  // measure 11
0100
0000
0000
0001
0000
0000
0100
0000
0000
0010
0000
0000
0002
0000
0000
0000
1003
0100
1000
0000
0000
0010
0000
0000
,  // measure 12
0200
0000
0000
0300
0001
0100
0001
0000
0000
0010
0000
0000
0200
0000
0000
0300
1000
0100
1000
0000
0000
0001
0000
0000
,  // measure 13
0100
0000
0000
0100
0000
0000
0010
0000
0220
0000
0000
0000
0330
0000
0001
0000
,  // measure 14
0010
0000
0000
0200
0000
0000
0300
0010
0100
0010
0000
0000
0100
0000
0000
1000
0000
0000
0001
0000
0000
0100
0000
0000
,  // measure 15
0010
0000
0000
0001
0000
0000
0010
0000
0000
0100
0000
0000
0002
0000
0000
0000
1003
0010
1000
0000
0000
0100
0000
0000
,  // measure 16
0220
0000
0000
0000
0000
0000
0330
0000
0000
0000
0001
0010
0001
0000
0000
0000
1000
0100
1000
0000
0000
0001
0000
0000
,  // measure 17
1001
0000
0000
0110
0000
0000
2002
0000
0000
0000
0000
0000
3003
0000
1000
0000
,  // measure 18
0010
0000
0000
0010
0100
0000
0010
0000
1000
0000
0010
0000
0011
0000
0000
0000
,  // measure 19
2010
0000
3100
0010
0002
0000
1003
0100
,  // measure 20
0010
0000
0000
0010
0001
0000
1000
0000
0010
0000
0100
0000
0001
0000
0010
0000
,  // measure 21
0100
0000
0000
1100
0000
0000
1001
0000
1010
0000
0000
0000
1000
0000
0001
0000
,  // measure 22
0010
0000
0000
0010
0100
0000
0010
0000
0001
0000
0010
0000
1010
0000
0000
0000
,  // measure 23
0012
0000
0103
0010
2000
0000
3001
0100
,  // measure 24
0010
0000
0000
0010
1000
0000
0001
0000
0010
0000
0100
0000
1000
0000
0010
0000
,  // measure 25
0100
0000
0000
0101
0000
0000
1001
0000
0011
0000
0000
0000
0001
0000
1000
0010
,  // measure 26
2000
0000
0000
0000
3010
0000
0100
0010
0200
0000
0000
0000
0310
0000
0100
0001
,  // measure 27
0200
0000
0000
0000
0301
0000
0100
0001
1000
0000
1001
0000
0011
0000
0000
0001
,  // measure 28
2000
0000
0000
0000
3010
0000
1000
0001
2000
0000
0000
0000
3100
0000
1000
0001
,  // measure 29
2000
0000
0000
0000
0010
0000
0000
0000
3010
0000
0000
0000
1001
0000
0001
0010
,  // measure 30
0002
0000
0000
0000
0013
0000
0100
0010
0200
0000
0000
0000
0310
0000
0100
1000
,  // measure 31
0200
0000
0000
0000
1300
0000
0100
1000
0001
0000
1001
0000
1010
0000
0000
1000
,  // measure 32
0002
0000
0000
0000
0010
0000
0000
0000
1000
0000
0000
0000
0103
0000
0001
0100
,  // measure 33
0002
0000
0000
0000
0103
0000
0001
0000
1000
0100
0000
0100
0010
0000
0100
0000
,  // measure 34
1000
0000
0000
0020
0000
0000
0030
1000
0010
1000
0000
0000
0010
0000
0000
0001
0000
0000
0010
0000
0000
1000
0000
0000
,  // measure 35
0100
0000
0000
0001
0000
0000
0100
0000
0000
0010
0000
0000
0002
0000
0000
0000
1003
0010
1000
0000
0000
0010
0000
0000
,  // measure 36
0200
0000
0000
0300
0001
0010
0001
0000
0000
0010
0000
0000
0200
0000
0000
0300
1000
0001
1000
0000
0000
0010
0000
0000
,  // measure 37
0100
0000
0000
0100
0000
0000
0010
0000
0220
0000
0000
0000
0330
0000
0100
0000
,  // measure 38
0001
0000
0000
0020
0000
0000
0030
0001
0010
0001
0000
0000
0010
0000
0000
1000
0000
0000
0010
0000
0000
0001
0000
0000
,  // measure 39
0100
0000
0000
1000
0000
0000
0100
0000
0000
0010
0000
0000
2000
0000
0000
3000
0001
0010
0001
0000
0000
0010
0000
0000
,  // measure 40
0220
0000
0000
0000
0000
0000
0000
0000
0000
0000
0000
0000
0330
0000
0000
0000
0000
0000
0000
0000
1000
0000
0100
0000
1000
0000
0000
0000
0000
0000
0000
0000
0001
0000
0100
0000
0001
0000
0000
0000
0000
0000
0000
0000
0000
1000
0000
0000
,  // measure 41
0001
0000
0000
0110
0000
0000
1001
0000
0000
0000
0001
0000
0010
0000
0100
0000
,  // measure 42
1000
0001
0000
1000
0001
0000
0100
0000
0001
1000
0000
0001
1000
0000
0100
0000
,  // measure 43
0010
0001
0000
0010
0001
0000
0100
0000
0010
1000
0000
0010
1000
0000
0001
0000
,  // measure 44
0010
0100
0000
1000
0001
0000
0100
0000
0010
1000
0000
0001
0010
0000
0100
0000
,  // measure 45
1000
0001
0000
0100
0010
0000
1000
0000
0100
0000
0001
0000
0100
0000
1000
0100
,  // measure 46
1000
0000
0000
1100
0000
0000
1000
0010
1000
0000
0000
1010
0000
0000
0001
0010
,  // measure 47
0001
0000
0000
0011
0000
0000
0001
0100
0001
0000
0000
0101
0000
0000
1000
0000
,  // measure 48
1010
0000
0000
1001
0000
0000
0000
0000
0011
0000
0000
1001
0000
0000
0000
0000
,  // measure 49
0001
0000
0000
0000
1000
0000
0000
0000
0001
0000
0000
0000
1000
0000
0000
0000
0000
0000
0010
0000
0000
0100
0000
0000
0002
0000
0000
0000
0000
0000
0000
0000
0000
0000
0000
0000
1003
0000
0000
0000
0000
0000
0100
0000
0000
0000
0000
0000
,  // measure 50
0020
0000
0000
0000
,  // measure 51
0032
0000
0023
0000
,  // measure 52
2030
0000
0000
0000
,  // measure 53
3020
0000
0000
0000
,  // measure 54
0032
0000
0000
0000
,  // measure 55
0203
0000
2300
3200
,  // measure 56
0302
0000
0000
0000
,  // measure 57
1003
0000
0000
0000
0000
0000
0000
0000
1001
0000
0000
1001
0000
0000
0001
0010
,  // measure 58
0002
0000
0000
0000
0013
0000
0100
0010
0200
0000
0000
0000
0310
0000
0100
1000
,  // measure 59
0200
0000
0000
0000
1300
0000
0100
1000
0001
0000
1001
0000
1010
0000
0000
1000
,  // measure 60
0002
0000
0000
0000
0013
0000
0001
1000
0002
0000
0000
0000
0103
0000
0001
1000
,  // measure 61
0002
0000
0000
0000
0010
0000
0000
0000
0013
0000
0000
0000
1001
0000
1000
0010
,  // measure 62
2000
0000
0000
0000
3010
0000
0100
0010
0200
0000
0000
0000
0310
0000
0100
0001
,  // measure 63
0200
0000
0000
0000
0301
0000
0100
0001
1000
0000
1001
0000
0011
0000
0000
0001
,  // measure 64
2000
0000
0000
0000
0010
0000
0000
0000
0001
0000
0000
0000
3100
0000
1000
0100
,  // measure 65
2000
0000
0000
0000
3100
0000
1000
0000
0001
0100
0000
0010
1000
0000
0001
0010
,  // measure 66
0200
0000
0000
0000
0310
0000
0100
1000
0002
0000
0000
0000
1003
0000
0001
0100
,  // measure 67
0020
0000
0000
0000
1030
0000
0010
1000
0100
0000
0110
0000
1001
0000
0000
0001
,  // measure 68
0200
0000
0000
0000
0310
0000
1000
0001
2000
0000
0000
0000
3100
0000
0010
0100
,  // measure 69
0020
0000
0000
0000
0100
0000
0000
0000
0130
0000
0000
0000
1001
0000
1000
0010
,  // measure 70
0200
0000
0000
0000
0310
0000
0100
0001
2000
0000
0000
0000
3001
0000
1000
0100
,  // measure 71
0020
0000
0000
0000
0031
0000
0010
0001
0100
0000
0110
0000
1001
0000
0000
1000
,  // measure 72
0200
0000
0000
0000
1000
0000
0000
0000
0010
0000
0000
0000
1300
0000
0001
0100
,  // measure 73
0020
0000
0000
0000
0130
0000
0010
0000
1000
0001
1000
0000
1001
0000
0000
0000
,  // measure 74
0001
0000
0000
0011
0000
0000
0010
0000
1000
0000
0000
1010
0000
0000
1000
0000
,  // measure 75
0100
0000
0000
1100
0000
0000
1000
0000
0100
0000
0000
0101
0000
0000
0001
0010
,  // measure 76
0001
0000
0000
1001
0000
0000
1000
0010
1000
0000
0000
1001
0000
0000
0001
0010
,  // measure 77
0001
0000
0000
1001
0000
0000
1000
0010
0100
0001
0000
0000
1001
0000
0000
0000
;

//---------------dance-single - ----------------
#NOTEDATA:;
#CHARTNAME:;
#STEPSTYPE:dance-single;
#DESCRIPTION:;
#CHARTSTYLE:;
#DIFFICULTY:Hard;
#METER:11;
#RADARVALUES:0.471278,0.562485,0.231505,0.651108,0.170011,456.000000,424.000000,32.000000,90.000000,0.000000,0.000000,0.000000,0.000000,0.000000,0.471278,0.562485,0.231505,0.651108,0.170011,456.000000,424.000000,32.000000,90.000000,0.000000,0.000000,0.000000,0.000000,0.000000;
#CREDIT:;
#NOTES:
0000
0000
0000
0000
,
0000
0000
0000
0000
0000
0000
0000
1000
,
0100
0020
0000
0130
0010
0001
1000
0100
,
0010
0001
0100
0010
2000
0000
0010
0001
,
3002
0000
0010
1000
2003
0000
0100
0001
,
3001
0000
0000
0100
0000
0000
0010
0000
0220
0000
0000
0000
0330
0000
1000
0000
,
0010
0200
0000
0310
0100
0001
1000
0010
,
0100
0001
0010
0100
2000
0000
0010
3001
,
2002
0000
0000
0000
3003
0000
0000
0001
0010
0000
0000
0010
0100
0000
0000
0100
,
1000
0000
0000
0101
0000
0000
1100
0000
0000
0000
1000
0000
1000
0000
0001
0000
,
0100
0020
0000
0130
0010
1000
0001
0100
,
0010
1000
0100
0010
0002
0000
0010
1000
,
2003
0000
0010
0001
3002
0000
0100
1000
,
1003
0000
0000
0100
0000
0000
0010
0000
0220
0000
0000
0000
0330
0000
0001
0000
,
0010
0200
0000
0310
0100
1000
0001
0010
,
0100
1000
0010
0100
0002
0000
0010
1003
,
2002
0000
0000
0000
3003
0000
0000
1000
0010
0000
0000
0010
0100
0000
0001
0000
,
1001
0000
0000
0110
0000
0000
2002
0000
0000
0000
0000
0000
3003
0000
0002
0000
,
0010
0000
0000
1000
0000
0000
0100
0000
0103
0000
0000
0000
0101
0000
0000
0000
,
2010
0000
0001
0000
3200
0000
0310
0001
,
0200
0000
0000
0010
0000
0000
0001
0000
0301
0000
0000
0000
1000
0000
1000
0000
,
0001
0000
0000
0010
0000
0000
1000
0000
0020
0000
0000
0000
0031
0000
2000
0000
,
0010
0000
0000
0001
0000
0000
0100
0000
3100
0000
0000
0000
1100
0000
0000
0000
,
0012
0000
1000
0000
0203
0000
0310
1000
,
0200
0000
0000
0010
0000
0000
1000
0000
1300
0000
0000
0000
0001
0000
0001
0000
,
1000
0000
0000
0010
0000
0000
0001
0000
0020
0000
0000
0000
1030
0000
0100
0000
,
2000
0000
3100
0001
0200
0000
0301
0010
,
0002
0000
0000
0000
0013
0000
1000
0000
0001
0000
1000
0000
0100
0000
0000
0010
,
0002
0000
0103
0010
2000
0000
3100
0010
,
0002
0000
1000
0000
1003
0000
0001
0100
,
0002
0000
0103
1000
0200
0000
1300
0010
,
2000
0000
0000
0000
3010
0000
0001
0000
1000
0000
0001
0000
0100
0000
0000
0010
,
2000
0000
0010
0000
0010
0000
3001
0010
,
0002
0000
0013
0010
0100
1000
0001
1000
,
0010
0200
0000
0310
0100
0001
1000
0001
,
0010
1000
0010
0001
2000
0000
0010
0001
,
3002
0000
0100
1000
2003
0000
0100
0001
,
3001
0000
0000
0100
0000
0000
0010
0000
2002
0000
0000
0000
3003
0000
0001
0000
,
0010
0200
0000
0310
0100
1000
0001
1000
,
0010
0001
0010
1000
0002
0000
0010
1003
,
2002
0000
0000
0000
3003
0000
0000
0001
0100
0000
0000
0100
0010
0000
0000
0010
,
1000
0000
0000
0110
0000
0000
1001
0000
0000
0000
1000
0000
0100
0000
0010
0000
,
0001
0000
0000
0100
0000
0000
0001
0000
1000
0000
0000
0100
0000
0000
1000
0000
,
0001
0000
0000
0010
0000
0000
0001
0000
1000
0000
0000
0010
0000
0000
1000
0000
,
0100
0000
0000
0010
0000
0000
0001
0000
0100
0000
0000
0010
0000
0000
1000
0000
,
0100
0000
0000
0010
0000
0000
0001
0000
1000
0000
0010
0000
0100
0000
0001
0000
,
1000
0000
0000
1010
0000
0000
1000
0000
0001
0000
0000
0011
0000
0000
0001
0000
,
1000
0000
0000
1010
0000
0000
1000
0000
0001
0000
0000
0011
0000
0000
0001
0000
,
1000
0000
0000
0110
0000
0000
0000
0000
0001
0000
0000
0110
0000
0000
0000
0000
,
1001
0000
1000
0001
0020
0000
0030
0000
,
0002
0000
0000
0000
,
2003
0000
3020
0000
,
0230
0000
0000
0000
,
0302
0000
0000
0000
,
0023
0000
0000
0000
,
0230
0000
2300
3002
,
0203
0000
0000
0000
,
0310
0000
0000
0000
0000
0000
0000
0000
1000
0000
0000
0100
0000
0000
0010
0000
,
0002
0000
0103
1000
0200
0000
1300
0010
,
2000
0000
0000
0000
3010
0000
0001
0000
1000
0000
0001
0000
0100
0000
0000
0010
,
2000
0000
3100
0010
0002
0000
0103
0010
,
2000
0000
0001
0000
3001
0000
1000
0100
,
2000
0000
3100
0001
0200
0000
0301
0010
,
0002
0000
0000
0000
0013
0000
1000
0000
0001
0000
1000
0000
0100
0000
0000
0010
,
0002
0000
0010
0000
0010
0000
1003
0010
,
2000
0000
3010
0010
0100
0001
1000
0100
,
0002
0000
0103
0001
0020
0000
0031
0010
,
2000
0000
0000
0000
3010
0000
1000
0000
0001
0000
1000
0000
0100
0000
0000
0010
,
0002
0000
1003
0100
0002
0000
1003
0010
,
0002
0000
1000
0000
1003
0000
0001
0100
,
2000
0000
3100
1000
0020
0000
1030
0010
,
0002
0000
0000
0000
0013
0000
0001
0000
1000
0000
0001
0000
0100
0000
0000
0010
,
2000
0000
0100
0000
0100
0000
3001
0100
,
0002
0000
0013
0010
0100
1000
0001
0000
,
2000
0000
0000
0010
0000
0000
3001
0000
0002
0000
0000
0010
0000
0000
1003
0000
,
2000
0000
0000
0100
0000
0000
3001
0000
0002
0000
0000
0100
0000
0000
1003
0000
,
1010
0000
0000
1010
0000
0000
0001
0000
0011
0000
0000
0011
0000
0000
1000
0000
,
1100
0000
0000
1100
0000
0000
0001
0000
0101
0000
0000
0000
1010
0000
0000
0000
;

//---------------dance-single - ----------------
#NOTEDATA:;
#CHARTNAME:;
#STEPSTYPE:dance-single;
#DESCRIPTION:;
#CHARTSTYLE:;
#DIFFICULTY:Medium;
#METER:7;
#RADARVALUES:0.304884,0.393739,0.151925,0.600466,0.000000,295.000000,274.000000,21.000000,83.000000,0.000000,0.000000,0.000000,0.000000,0.000000,0.304884,0.393739,0.151925,0.600466,0.000000,295.000000,274.000000,21.000000,83.000000,0.000000,0.000000,0.000000,0.000000,0.000000;
#CREDIT:;
#NOTES:
0000
0000
0000
0000
,
0000
0000
0000
0000
,
0002
0000
0013
0001
,
0100
0000
0010
0100
0010
0000
2000
0000
,
0010
3002
0010
2003
,
3100
0010
0220
0330
,
0002
0000
0103
0010
,
1000
0000
0100
0010
0001
0000
0100
0010
,
2000
0000
0010
3001
,
2002
0000
0000
3000
0000
0000
0003
0000
0000
0000
0000
0000
0000
0000
0000
0000
,
2000
0000
3010
1000
,
0100
0000
0010
0100
0010
0000
0002
0000
,
0010
2003
0010
3002
,
0103
0010
0220
0330
,
2000
0000
3100
0010
,
0001
0000
0100
0010
1000
0000
0100
0010
,
0002
0000
0010
1003
,
2002
0000
0000
0003
0000
0000
3000
0000
0000
0000
0000
0000
0000
0000
0000
0000
,
0002
0013
0001
0010
,
2000
3100
2000
3010
,
0002
0103
0001
0100
,
0010
0000
1000
0100
0010
0000
0001
0000
,
2000
3010
1000
0010
,
0002
0103
0002
0013
,
2000
3100
1000
0100
,
0010
0000
0001
0100
0010
0000
1000
0000
,
2000
0100
3200
0010
,
0320
0000
0001
0000
0031
0010
0001
0000
,
2000
0010
3002
0010
,
2000
3003
1000
1000
,
0002
0100
0203
0010
,
0320
0000
1000
0000
1030
0010
1000
0000
,
0002
0000
0000
0000
0013
0000
0100
0010
,
0200
0000
0000
0000
1300
0001
1000
0000
,
0002
0000
0013
0001
,
1000
0000
0010
0100
0001
0000
2000
0000
,
0100
3002
0010
2003
,
3010
0100
0220
0330
,
2000
0000
3010
1000
,
0001
0000
0010
0100
1000
0000
0010
0100
,
0002
0000
0100
1003
,
2002
0000
0000
0003
0000
0000
3000
0000
0000
0000
0000
0000
0000
0000
0000
0000
,
0001
0010
0001
0100
,
0001
0000
0010
0000
0001
1000
0001
0000
,
1000
0010
1000
0100
,
1000
0000
0010
0000
1000
0001
0010
0000
,
0011
0000
1100
0000
,
1010
0000
0101
0010
,
1001
0000
1001
0000
,
1001
0110
2002
3003
,
0002
0000
0000
0000
,
0023
0000
0230
0000
,
2300
0000
0000
0000
,
3002
0000
0000
0000
,
2003
0000
0000
0000
,
3020
0000
0230
0302
,
0203
0000
0000
0000
,
0301
0000
1001
0000
,
0002
0100
0203
0010
,
0320
0000
1000
0000
1030
0010
1000
0000
,
0002
0010
2003
0010
,
0002
3003
0001
0001
,
2000
0100
3200
0010
,
0320
0000
0001
0000
0031
0010
0001
0000
,
2000
0000
0000
0000
3010
0000
0100
0010
,
0200
0000
0000
0000
0301
1000
0001
0000
,
2000
0100
3002
0010
,
2003
0000
0010
0000
3001
0100
0010
0000
,
2000
0100
3020
1000
,
0200
0000
0330
0000
1000
0000
0001
1000
,
0002
0100
2003
0010
,
3002
0000
0010
0000
1003
0100
0010
0000
,
0002
0000
0000
0000
1003
0000
0001
0100
,
0020
0000
0000
0000
0130
0010
1000
0000
,
0001
0010
1000
0100
,
1000
0010
0001
0100
,
0110
1000
0110
0001
,
0110
1000
0110
1001
;

//---------------dance-single - ----------------
#NOTEDATA:;
#CHARTNAME:;
#STEPSTYPE:dance-single;
#DESCRIPTION:;
#CHARTSTYLE:;
#DIFFICULTY:Easy;
#METER:4;
#RADARVALUES:0.209801,0.337491,0.137456,0.484713,0.000000,203.000000,184.000000,19.000000,67.000000,0.000000,0.000000,0.000000,0.000000,0.000000,0.209801,0.337491,0.137456,0.484713,0.000000,203.000000,184.000000,19.000000,67.000000,0.000000,0.000000,0.000000,0.000000,0.000000;
#CREDIT:;
#NOTES:
0000
0000
0000
0000
,
0000
0000
0000
0000
,
0002
0003
0001
0000
,
0001
0010
0100
0000
,
2000
3000
0002
0003
,
0100
0100
0200
0300
,
0002
0003
0001
0000
,
1000
0100
0010
0000
,
0002
0000
0103
0010
,
0220
0000
0000
0330
0000
0000
0000
0000
,
2000
3000
1000
0000
,
1000
0010
0100
0000
,
0002
0003
2000
3000
,
0100
0100
0200
0300
,
2000
3000
1000
0000
,
0001
0100
0010
0000
,
2000
0000
3100
0010
,
0220
0000
0000
0330
0000
0000
0000
0000
,
1001
0000
0001
0100
,
0010
0000
0100
0000
,
1001
0000
0001
0000
,
0001
0010
0100
0000
,
1001
0000
1000
0100
,
0010
0000
0100
0000
,
1001
0000
1000
0000
,
1000
0010
0100
0000
,
0002
0000
0203
0000
,
0320
0000
1030
0010
,
2000
0000
3200
0000
,
0320
0000
0031
0001
,
0200
0000
0320
0000
,
2030
0000
3001
1000
,
0200
0000
1300
0001
,
0200
0000
0310
0010
,
2000
3000
1000
0000
,
0010
1000
0100
0000
,
0020
0030
0002
0003
,
0100
0100
0200
0300
,
0002
0003
0001
0000
,
0010
0001
0100
0000
,
0020
0000
1030
0001
,
2002
0000
0000
3003
0000
0000
0000
0000
,
0001
0010
0001
0000
,
1000
0010
1000
0000
,
0001
0100
0001
0000
,
1000
0100
1000
0000
,
1001
0000
1001
0000
,
1001
0000
0010
0010
,
1001
0000
0110
0000
,
1001
1001
1001
0000
,
2000
0000
0000
0000
,
3020
0000
0230
0000
,
0302
0000
0000
0000
,
2003
0000
0000
0000
,
3002
0000
0000
0000
,
0023
0000
0230
2300
,
3200
0000
0000
0000
,
1300
0000
1001
0000
,
2000
0000
3200
0000
,
0320
0000
0031
0010
,
0002
0000
0203
0000
,
0320
0000
1030
1000
,
0200
0000
0320
0000
,
0032
0000
1003
0001
,
0200
0000
0301
1000
,
0200
0000
0310
0010
,
0002
0000
0203
0000
,
0320
0000
1030
0100
,
0002
0000
0203
0000
,
2300
0000
3001
0001
,
2000
0000
3200
0000
,
0320
0000
0031
0100
,
2000
0000
3100
0001
,
2000
0000
0001
3001
,
1000
0000
0100
0000
,
0010
0000
0001
0000
,
1001
0000
1001
0000
,
1000
0001
1000
1001
;

//---------------dance-single - ----------------
#NOTEDATA:;
#CHARTNAME:;
#STEPSTYPE:dance-single;
#DESCRIPTION:;
#CHARTSTYLE:;
#DIFFICULTY:Beginner;
#METER:2;
#RADARVALUES:0.103350,0.168745,0.028938,0.065111,0.000000,100.000000,96.000000,4.000000,9.000000,0.000000,0.000000,0.000000,0.000000,0.000000,0.103350,0.168745,0.028938,0.065111,0.000000,100.000000,96.000000,4.000000,9.000000,0.000000,0.000000,0.000000,0.000000,0.000000;
#CREDIT:;
#NOTES:
0000
0000
0000
0000
,
0000
0000
0000
0000
,
0001
0000
0000
0000
,
0010
0000
0000
0000
,
0100
0000
0100
0000
,
0010
0000
0000
0000
,
0001
0000
0000
0000
,
0100
0000
0000
0000
,
0020
0000
0030
0000
,
0010
0000
0000
0000
,
1000
0000
0000
0000
,
0010
0000
0000
0000
,
0100
0000
0100
0000
,
0010
0000
0000
0000
,
1000
0000
0000
0000
,
0100
0000
0000
0000
,
0020
0000
0030
0000
,
0010
0000
0000
0000
,
1001
0000
0000
0000
,
0010
0000
0000
0000
,
1001
0000
0000
0000
,
0100
0000
0000
0000
,
1001
0000
0000
0000
,
1000
0000
0000
0000
,
1001
0000
0000
0000
,
0001
0000
0000
0000
,
1000
0000
1000
0000
,
1000
0000
0000
0000
,
0010
0000
0010
0000
,
1000
0000
0000
0000
,
0001
0000
0001
0000
,
0001
0000
0000
0000
,
0020
0000
0030
0000
,
0200
0000
0300
0000
,
1000
0000
0000
0000
,
0010
0000
0000
0000
,
0100
0000
0100
0000
,
0001
0000
0000
0000
,
0010
0000
0000
0000
,
0100
0000
0000
0000
,
2000
0000
3000
0000
,
1000
0000
0000
0000
,
0001
0000
0000
0000
,
0100
0000
0000
0000
,
0010
0000
0000
0000
,
1000
0000
0000
0000
,
0001
0000
0001
0000
,
0001
0000
0001
0000
,
1000
0000
1000
0000
,
1000
1000
1000
0000
,
0001
0000
0000
0000
,
0010
0000
0000
0000
,
0100
0000
0000
0000
,
1000
0000
0000
0000
,
1000
0000
0000
0000
,
0010
0000
0000
0000
,
0100
0000
0000
0000
,
0001
0000
0000
0000
,
0001
0000
0001
0000
,
0001
0000
0000
0000
,
0010
0000
0010
0000
,
0001
0000
0000
0000
,
1000
0000
1000
0000
,
1000
0000
0000
0000
,
0020
0000
0030
0000
,
0200
0000
0300
0000
,
0001
0000
1000
0000
,
0001
0000
0000
0000
,
0010
0000
0010
0000
,
0100
0000
0000
0000
,
1000
0000
0001
0000
,
1000
0000
0000
0000
,
0020
0000
0030
0000
,
0200
0000
0300
0000
,
0001
0000
0000
0000
,
1000
0000
0000
0000
,
0100
0000
0100
0000
,
0100
0000
0100
0100
;
