#VERSION:0.83;
#TITLE:Bad Routine;
#SUBTITLE:;
#ARTIST:D.J. Spugna;
#TITLETRANSLIT:;
#SUBTITLETRANSLIT:;
#ARTISTTRANSLIT:;
#GENRE:House;
#ORIGIN:;
#CREDIT:;
#BANNER:Bad Routine.png;
#BACKGROUND:Bad Routine-bg.png;
#PREVIEWVID:;
#JACKET:Bad Routine-jacket.png;
#CDIMAGE:;
#DISCIMAGE:;
#LYRICSPATH:;
#CDTITLE:cdtitle.png;
#MUSIC:Bad Routine.ogg;
#OFFSET:-0.807960;
#SAMPLESTART:29.884882;
#SAMPLELENGTH:14.769232;
#SELECTABLE:YES;
#DISPLAYBPM:130.000000;
#BPMS:0.000=130.000;
#STOPS:;
#DELAYS:;
#WARPS:;
#TIMESIGNATURES:0.000=4=4;
#TICKCOUNTS:0.000=4;
#COMBOS:0.000=1;
#SPEEDS:0.000=1.000=0.000=0;
#SCROLLS:0.000=1.000;
#FAKES:;
#LABELS:0.000=Song Start;
#BGCHANGES:;
#KEYSOUNDS:;
#ATTACKS:
;

//---------------dance-single - ----------------
#NOTEDATA:;
#CHARTNAME:;
#STEPSTYPE:dance-single;
#DESCRIPTION:;
#CHARTSTYLE:;
#DIFFICULTY:Challenge;
#METER:12;
#RADARVALUES:0.516458,0.635604,0.260631,0.849153,0.285854,430.000000,399.000000,31.000000,101.000000,10.000000,0.000000,0.000000,0.000000,0.000000,0.516458,0.635604,0.260631,0.849153,0.285854,430.000000,399.000000,31.000000,101.000000,10.000000,0.000000,0.000000,0.000000,0.000000;
#CREDIT:;
#DISPLAYBPM:130.000000;
#NOTES:
// measure 0
0000
0000
0000
0000
,  // measure 1
0000
0000
0000
0000
,  // measure 2
0000
0000
0000
0000
,  // measure 3
0000
0000
0000
0000
,  // measure 4
1000
0200
0000
0001
0000
1300
0001
0200
,  // measure 5
0000
1000
0000
0301
0101
0000
1010
0000
,  // measure 6
2002
0000
0000
0000
0000
0000
0000
0000
0000
0000
0000
0000
0000
0000
0000
0000
0000
0000
0000
0000
0000
0000
0000
0000
0000
0000
0000
0000
0000
0000
0000
0000
0000
0000
0000
0000
0000
0000
0000
0000
3003
0000
0000
0000
0000
0000
0000
0000
0000
0000
0000
0000
0000
0000
0000
0000
2000
3000
0000
0000
0000
0000
0000
0000
,  // measure 7
0000
0000
0000
0000
0000
0000
0000
0000
2000
0000
3000
0000
0000
0000
0000
0000
0200
0000
0000
0300
0000
0000
0000
0000
0020
0000
0000
0000
0030
0000
0000
0000
0002
0000
0000
0000
0000
0003
0000
0000
0200
0000
0000
0000
0000
0000
0300
0000
0020
0000
0000
0000
0000
0000
0000
0030
2000
0000
0000
0000
0000
0000
0000
0000
,  // measure 8
3001
0000
1000
0000
,  // measure 9
0001
0000
1000
0001
,  // measure 10
2000
0000
0010
0000
0000
0010
0000
0000
3002
0000
0010
0000
0000
0010
0000
0000
,  // measure 11
2003
0000
0100
0000
0000
0100
0000
0000
3002
0000
0100
0000
0000
0100
0000
0000
,  // measure 12
1003
0000
0100
0000
0000
0110
0000
0010
0001
0000
0100
0000
0000
0110
0000
0010
,  // measure 13
1000
0000
0010
0000
0000
0110
0000
0100
0001
0000
0010
0000
0000
0110
0000
0010
,  // measure 14
0002
0000
0000
0000
0000
0000
0003
0000
0000
1000
0000
0000
0020
0000
0000
0000
0000
0000
0030
0000
0000
0100
0000
0000
0002
0000
0000
0000
0003
0000
0000
0000
0000
1000
0000
0000
0200
0000
0300
0000
0000
0000
0000
0000
0000
0010
0000
0000
,  // measure 15
0002
0000
0003
0000
0000
0000
2000
0000
0000
3000
0000
0000
0002
0000
0000
0000
0003
0000
2000
0000
0000
0000
0000
3000
0002
0000
0000
0000
0000
0000
0003
0000
0000
0000
0000
0000
0010
0000
0000
0000
0000
0000
0002
0000
0000
0000
0000
0000
,  // measure 16
0203
0000
0300
0000
0201
0000
0000
0000
0300
0000
0001
0010
0001
0000
2000
0000
,  // measure 17
0000
0000
3001
0000
0100
00M0
0100
0000
1000
0000
0100
00M0
0100
0000
0001
0000
,  // measure 18
0100
0000
0001
1000
0002
0000
0000
0000
0013
0000
0010
0000
0002
0000
2003
0000
,  // measure 19
3001
0000
0100
0000
1000
0000
0100
0002
0000
0000
1003
0000
0010
0000
2000
0000
,  // measure 20
3200
0000
0300
0000
1200
0000
0000
0000
0300
0000
1000
0010
1000
0000
0002
0000
,  // measure 21
0000
0000
1003
0000
0100
00M0
0100
0000
0001
0000
0100
00M0
0100
0000
1000
0000
,  // measure 22
0100
0000
1000
0001
2000
0000
0000
0000
3010
0000
0010
0000
0100
0000
0202
0000
,  // measure 23
0303
0000
1001
0000
1000
0000
0010
0000
0100
0000
0001
1000
0001
0000
0020
0000
,  // measure 24
2030
0000
3000
0000
1020
0000
0000
0000
0030
0000
0100
0010
0100
0010
0002
0000
,  // measure 25
0003
0000
1000
0000
0010
0M00
0010
0000
0001
0000
0100
00M0
0100
0000
1000
0000
,  // measure 26
0010
0000
1000
0010
0200
0000
0000
0000
0310
0000
0010
0000
2000
0000
3002
0000
,  // measure 27
1003
0000
0100
0000
0001
0000
0100
2000
0000
0000
3001
0000
1000
0000
0020
0000
,  // measure 28
0032
0000
0003
0000
0021
0000
0000
0000
0030
0000
0100
0010
0100
0010
2000
0000
,  // measure 29
3000
0000
0001
0000
0010
0M00
0010
0000
1000
0000
0100
00M0
0100
0000
0001
0000
,  // measure 30
0010
0000
0001
0010
0200
0000
0000
0000
0310
0000
0010
0000
0100
0000
2200
0000
,  // measure 31
3300
0000
0001
0000
0010
0000
0100
0000
1000
0000
0001
0010
0001
0000
1000
0010
,  // measure 32
1000
1000
0100
2000
0001
3001
0100
0002
,  // measure 33
1000
0000
1003
0000
0100
0000
1000
0000
1001
0000
0000
0000
0001
1000
0001
0000
,  // measure 34
1000
0020
0000
0001
0000
1030
0001
0020
,  // measure 35
0000
0000
1000
0000
0000
0000
0031
0000
0002
0010
0003
0000
2000
0010
3000
0000
,  // measure 36
0001
0010
0001
0100
0001
0010
0011
0000
,  // measure 37
1000
0010
1000
0100
1010
0000
1010
0000
,  // measure 38
0001
0010
0100
1000
0010
0100
0001
2002
,  // measure 39
3003
0000
0001
0010
0001
0000
0010
0001
0010
0000
0001
0010
0001
0000
0022
0000
,  // measure 40
0033
0000
1000
0010
1000
0000
0010
1000
0010
0000
1000
0010
1000
0000
2020
0000
,  // measure 41
3030
0000
0001
0010
0001
0000
1000
0010
1000
0000
0001
0010
0001
0000
1000
0000
,  // measure 42
0000
0000
0001
0100
0010
0000
1000
0100
0010
0000
0001
0000
0010
0001
0000
0000
,  // measure 43
1002
0000
0100
0000
0000
0000
0100
0100
,  // measure 44
0000
0100
0010
1003
,  // measure 45
2001
0000
0100
0000
0000
0000
0100
0100
,  // measure 46
0000
0100
3010
1001
,  // measure 47
0001
0000
0100
0000
0010
0000
1000
0001
1000
0000
0001
0000
0100
0000
0020
0000
,  // measure 48
0000
0000
1030
0000
0100
0000
0010
0001
0010
0000
0001
0000
1000
0000
0100
0000
,  // measure 49
0010
0001
0100
0010
1000
0100
0010
0220
,  // measure 50
0330
0000
0010
0000
0100
0000
0010
0100
0010
0000
0001
0000
1000
0000
0020
0000
,  // measure 51
0032
0000
0003
0000
0021
0000
0000
0000
0030
0000
1000
0010
1000
0010
2000
0000
,  // measure 52
3000
0002
0010
0003
2000
0010
3000
0001
,  // measure 53
0010
0000
0100
0010
0200
0000
0000
0000
0310
0000
0010
0000
0002
0000
2003
0000
,  // measure 54
3001
0000
0100
0000
0010
0000
1000
0002
0000
0000
1003
0000
0001
0000
0020
0000
,  // measure 55
2030
0000
3000
0000
1020
0000
0000
0000
0030
0000
0100
0010
0100
0010
0002
0000
,  // measure 56
0003
0000
1000
0000
0010
0M00
0010
0000
0001
0000
0100
00M0
0100
0000
1000
0000
,  // measure 57
0010
0000
1000
0010
0200
0000
0000
0000
0310
0000
0010
0000
0100
0000
0202
0000
,  // measure 58
0303
0000
1000
0000
0100
0000
0010
0000
0001
0000
1000
0010
1000
0000
0001
0010
,  // measure 59
0001
0200
0000
1000
0000
0301
1000
0200
,  // measure 60
0000
0001
0000
1300
1100
0000
0011
0000
,  // measure 61
2002
0000
0000
0000
0000
0000
0000
0000
0000
0000
0000
0000
0000
0000
0000
0000
0000
0000
0000
0000
0000
0000
0000
0000
0000
0000
0000
0000
0000
0000
0000
0000
0000
0000
0000
0000
0000
0000
0000
0000
3003
0000
0000
0000
0000
0000
0000
0000
0000
0000
0000
0000
0000
0000
0000
0000
0002
0003
0000
0000
0000
0000
0000
0000
,  // measure 62
0000
0000
0000
0000
0000
0000
0000
0000
0002
0000
0003
0000
0000
0000
0000
0000
0200
0000
0000
0300
0000
0000
0000
0000
0020
0000
0000
0000
0030
0000
0000
0000
2000
0000
0000
0000
0000
3000
0000
0000
0200
0000
0000
0000
0000
0000
0300
0000
0020
0000
0000
0000
0000
0000
0000
0030
0002
0000
0000
0000
0000
0000
0000
0000
,  // measure 63
0003
0000
0000
0000
;

//---------------dance-single - ----------------
#NOTEDATA:;
#CHARTNAME:;
#STEPSTYPE:dance-single;
#DESCRIPTION:;
#CHARTSTYLE:;
#DIFFICULTY:Hard;
#METER:10;
#RADARVALUES:0.411966,0.423736,0.277446,0.882783,0.037834,343.000000,310.000000,33.000000,105.000000,0.000000,0.000000,0.000000,0.000000,0.000000,0.411966,0.423736,0.277446,0.882783,0.037834,343.000000,310.000000,33.000000,105.000000,0.000000,0.000000,0.000000,0.000000,0.000000;
#CREDIT:;
#DISPLAYBPM:130.000000;
#NOTES:
// measure 0
0000
0000
0000
0000
,  // measure 1
0000
0000
0000
0000
,  // measure 2
0000
0000
0000
0000
,  // measure 3
0000
0000
0000
0000
,  // measure 4
1000
0200
0000
0010
0000
1300
0001
0200
,  // measure 5
0000
0010
0000
0001
0301
0000
0110
0000
,  // measure 6
2002
0000
0000
0000
0000
0000
0000
0000
0000
0000
0000
0000
0000
0000
0000
0000
0000
0000
0000
0000
0000
0000
0000
0000
0000
0000
0000
0000
0000
0000
0000
0000
0000
0000
0000
0000
0000
0000
0000
0000
3003
0000
0000
0000
0000
0000
0000
0000
0000
0000
0000
0000
0000
0000
0000
0000
2000
3000
0000
0000
0000
0000
0000
0000
,  // measure 7
0000
0000
0000
0000
0000
0000
0000
0000
2000
0000
3000
0000
0000
0000
0000
0000
0200
0000
0000
0300
0000
0000
0000
0000
0020
0000
0000
0000
0030
0000
0000
0000
0002
0000
0000
0000
0000
0003
0000
0000
2000
0000
0000
0000
0000
0000
3000
0000
0002
0000
0000
0000
0000
0000
0000
0003
2000
0000
0000
0000
0000
0000
0000
0000
,  // measure 8
3001
0000
1000
0000
,  // measure 9
0001
0000
1000
0001
,  // measure 10
2000
0010
3002
0010
,  // measure 11
2003
0100
3002
0100
,  // measure 12
1003
0000
0100
0000
0000
0010
0000
0000
0001
0000
0100
0000
0000
0010
0000
0000
,  // measure 13
0100
0000
0001
0000
0000
0010
0000
0000
0100
0000
1000
0000
0000
0010
0000
0000
,  // measure 14
2020
0000
0000
3030
0000
0000
2002
0000
0000
3003
0000
0000
0022
0000
0033
0000
0000
0000
2002
3003
0000
0000
0000
0000
,  // measure 15
0002
0000
0003
0000
0000
0000
2000
0000
0000
3000
0000
0000
0002
0000
0000
0000
0003
0000
2000
0000
0000
0000
0000
3000
0002
0000
0000
0000
0000
0000
0003
0000
0000
0000
0000
0000
1000
0000
0000
0000
0000
0000
0100
0000
0000
0000
0000
0000
,  // measure 16
0010
0000
0220
0330
0000
0010
0100
2000
,  // measure 17
0000
0010
3020
0000
1000
2030
0000
3010
,  // measure 18
1000
0001
0020
0000
0230
0000
2300
0000
,  // measure 19
3001
0000
1000
0000
0010
0000
1000
0200
0000
0000
0310
0000
0001
0000
0100
0000
,  // measure 20
0010
0000
0220
0330
0000
0010
0100
0002
,  // measure 21
0000
0010
0023
0000
0001
0032
0000
0013
,  // measure 22
0001
1000
0020
0000
0130
0000
1010
0000
,  // measure 23
0101
0000
0011
0000
1100
0000
0001
0100
,  // measure 24
1000
0000
2200
3300
0000
2000
3200
0302
,  // measure 25
0000
0010
0023
0000
0001
0032
0000
0013
,  // measure 26
0001
1000
0020
0000
0230
0000
0302
0000
,  // measure 27
1003
0000
0001
0000
0010
0000
0001
0200
0000
0000
0310
0000
1000
0000
0100
0000
,  // measure 28
0001
0000
0202
0303
0000
0002
0203
2300
,  // measure 29
0000
0010
3020
0000
1000
2030
0000
3010
,  // measure 30
1000
0001
0020
0000
0130
0000
0011
0000
,  // measure 31
1100
0000
1010
0000
0101
0000
0001
1000
,  // measure 32
0001
0010
0001
1000
,  // measure 33
0010
1000
1001
0110
,  // measure 34
0001
0020
0000
0100
0000
0031
1000
0020
,  // measure 35
0000
0000
1000
0000
0000
0000
0130
0000
0100
0010
0000
0000
1000
0001
0000
0000
,  // measure 36
1000
0100
1000
0100
1000
0100
0002
0000
,  // measure 37
0103
1000
0001
0100
2000
0000
3100
0000
,  // measure 38
0001
1000
0001
1000
0100
0010
0001
2000
,  // measure 39
0000
3001
0001
0100
0100
0001
0100
0020
,  // measure 40
0000
1030
1000
0100
0100
1000
0100
0020
,  // measure 41
0000
0031
0001
1000
1000
0001
1000
1001
,  // measure 42
0000
1000
0010
1000
0001
0010
0001
0000
,  // measure 43
1002
0000
0100
0000
0000
0000
0100
0100
,  // measure 44
0000
0100
0010
1003
,  // measure 45
2001
0000
0100
0000
0000
0000
0100
0100
,  // measure 46
0000
0100
3010
1001
,  // measure 47
1000
0001
0100
0000
0001
1000
0001
1000
,  // measure 48
0000
0100
1000
0000
0001
0100
0010
0000
,  // measure 49
1000
0100
0010
0000
0100
0000
0100
2002
,  // measure 50
3003
0001
1000
0001
1000
0001
1000
0010
,  // measure 51
0001
0000
0022
0033
0000
0002
0023
2030
,  // measure 52
0000
3001
0020
0000
0130
2000
0000
3001
,  // measure 53
0010
0100
2000
0000
3002
0000
0203
0000
,  // measure 54
0310
0000
0100
0000
0010
0000
1000
0002
0000
0000
1003
0000
0001
0000
0010
0000
,  // measure 55
1000
0000
2020
3030
0000
2000
3020
0032
,  // measure 56
0000
1000
2003
0000
0010
3020
0000
0130
,  // measure 57
0001
1000
0200
0000
0310
0000
0011
0000
,  // measure 58
1010
0000
0101
0000
1100
0000
0001
1000
,  // measure 59
0001
0200
0000
0010
0000
0301
1000
0200
,  // measure 60
0000
0010
0000
1000
1300
0000
0110
0000
,  // measure 61
2002
0000
0000
0000
0000
0000
0000
0000
0000
0000
0000
0000
0000
0000
0000
0000
0000
0000
0000
0000
0000
0000
0000
0000
0000
0000
0000
0000
0000
0000
0000
0000
0000
0000
0000
0000
0000
0000
0000
0000
3003
0000
0000
0000
0000
0000
0000
0000
0000
0000
0000
0000
0000
0000
0000
0000
0002
0003
0000
0000
0000
0000
0000
0000
,  // measure 62
0000
0000
0000
0000
0000
0000
0000
0000
0002
0000
0003
0000
0000
0000
0000
0000
0200
0000
0000
0300
0000
0000
0000
0000
0020
0000
0000
0000
0030
0000
0000
0000
2000
0000
0000
0000
0000
3000
0000
0000
0002
0000
0000
0000
0000
0000
0003
0000
2000
0000
0000
0000
0000
0000
0000
3000
0002
0000
0000
0000
0000
0000
0000
0000
,  // measure 63
0003
0000
0000
0000
;

//---------------dance-single - ----------------
#NOTEDATA:;
#CHARTNAME:;
#STEPSTYPE:dance-single;
#DESCRIPTION:;
#CHARTSTYLE:;
#DIFFICULTY:Medium;
#METER:7;
#RADARVALUES:0.271441,0.343602,0.151334,0.369928,0.000000,226.000000,208.000000,18.000000,44.000000,0.000000,0.000000,0.000000,0.000000,0.000000,0.271441,0.343602,0.151334,0.369928,0.000000,226.000000,208.000000,18.000000,44.000000,0.000000,0.000000,0.000000,0.000000,0.000000;
#CREDIT:;
#DISPLAYBPM:130.000000;
#NOTES:
0000
0000
0000
0000
,
0000
0000
0000
0000
,
0000
0000
0000
0000
,
0000
0000
0000
0000
,
0000
2000
0000
0010
0000
3001
0000
0002
,
0000
0010
0000
1000
1003
0000
1001
0000
,
0200
0000
0000
0000
0000
0000
0000
0300
,
0000
0000
0000
0000
2000
3000
0000
0000
0002
0000
0003
0000
2000
0000
0000
0000
,
3100
0000
0100
0000
,
0100
0000
0010
0000
,
0001
0000
1000
0000
,
0001
0000
1000
0000
,
0001
0100
0001
0100
,
0010
1000
0010
1000
,
0100
0100
0010
0010
,
0002
0000
0003
0011
,
1020
0000
0001
0000
0000
1000
0000
1030
,
0000
0000
0001
0000
0000
0010
0000
0000
,
0100
0010
0100
0000
2000
0000
3002
0000
,
0103
0010
1000
0101
,
1200
0000
0001
0000
0000
1000
0000
1300
,
0000
0000
0001
0000
0000
0100
0000
0000
,
0010
0100
0010
0000
2000
0000
0010
0000
,
3002
0010
1003
1010
,
0021
0000
1000
0000
0000
0031
0010
0002
,
0000
0000
1003
0000
0000
0010
0000
0000
,
0100
0010
0100
0000
0002
0000
2003
0000
,
3100
0010
0001
1100
,
0201
0000
1000
0000
0000
0301
0100
0002
,
0000
0000
1003
0000
0000
0100
0000
0000
,
0010
0100
0010
0000
0002
0000
0010
0000
,
2003
0010
0002
3003
,
1000
0100
1000
0001
,
0100
0001
0010
0000
,
0000
0002
0000
0010
0000
1000
0000
2003
,
0000
0010
0000
3001
1001
0000
1001
0000
,
0001
0000
0010
0000
0001
0010
0100
0000
,
1000
0000
1000
0010
0100
0000
0100
0000
,
0001
0000
1000
0000
0100
0000
0010
0002
,
0000
0000
0010
0000
1003
0000
0010
2000
,
0000
0000
0010
0000
3001
0000
0010
0002
,
0000
0010
1000
0103
,
0000
0000
0000
0000
0100
0001
0010
0000
,
0200
0010
0000
0010
,
0000
0310
0001
0001
,
0200
0010
0000
0010
,
0000
0310
1000
1001
,
0001
0010
0001
0010
,
0100
1000
0100
1000
,
0010
0000
0100
0000
0001
0000
0000
2002
,
0000
0000
3003
0011
,
1020
0000
0001
0000
0000
1030
0010
2000
,
0000
0000
3001
0000
0000
0010
0000
0000
,
0100
0010
0100
0000
2000
0000
3002
0000
,
0103
0010
1000
0101
,
1200
0000
0001
0000
0000
1300
0100
2000
,
0000
0000
3001
0000
0000
0100
0000
0000
,
0010
0100
0010
0000
2000
0000
0010
0000
,
3002
0010
2000
3003
,
0000
0002
0000
0100
0000
1003
0000
2000
,
0000
0100
0000
0001
3001
0000
1000
0000
,
2002
0000
0000
0000
0000
0000
0000
3003
,
0000
0000
0000
0000
0010
0100
0010
0100
;

//---------------dance-single - ----------------
#NOTEDATA:;
#CHARTNAME:;
#STEPSTYPE:dance-single;
#DESCRIPTION:;
#CHARTSTYLE:;
#DIFFICULTY:Easy;
#METER:4;
#RADARVALUES:0.166948,0.211027,0.058852,0.159742,0.000000,139.000000,132.000000,7.000000,19.000000,0.000000,0.000000,0.000000,0.000000,0.000000,0.166948,0.211027,0.058852,0.159742,0.000000,139.000000,132.000000,7.000000,19.000000,0.000000,0.000000,0.000000,0.000000,0.000000;
#CREDIT:;
#DISPLAYBPM:130.000000;
#NOTES:
0000
0000
0000
0000
,
0000
0000
0000
0000
,
0000
0000
0000
0000
,
0000
0000
0000
0000
,
1000
0000
0001
0000
,
1000
0001
1000
0000
,
0200
0000
0000
0000
0000
0000
0000
0300
,
0000
0000
0100
0010
,
0002
0000
0003
0000
,
2000
0000
3000
0000
,
0020
0000
0030
0000
,
0200
0000
0300
0000
,
0001
0000
0001
0000
,
1000
0000
1000
0000
,
0100
0100
0100
0100
,
0200
0000
0300
0000
,
0100
1001
0000
0000
,
1000
0000
1000
0000
,
1000
0010
0100
0000
,
0010
1000
0100
0000
,
0010
1001
0000
0000
,
1000
0000
1000
0000
,
0100
1000
0010
0100
,
0200
0000
0300
0000
,
0100
1001
0000
1000
,
0001
0000
0001
0000
,
0001
0010
0100
0000
,
0010
0001
0100
0000
,
0010
1001
0000
1000
,
0001
0000
0001
0000
,
0100
0001
0010
0100
,
0200
0000
0300
0000
,
1000
0000
1000
0000
,
1000
0000
0010
0100
,
0001
0000
1000
0000
,
0001
1000
0200
0300
,
1000
0000
0010
0100
,
0001
0000
1001
0000
,
0001
0010
0100
0200
,
0000
1300
0010
0200
,
0000
0301
0010
0200
,
0000
1300
0010
0100
,
0000
0000
0001
0001
,
2000
0000
3000
0000
,
0200
0000
0300
0000
,
0020
0000
0030
0000
,
0002
0000
0003
0001
,
0001
0000
0100
0000
,
0010
0000
1000
0000
,
0100
0000
0010
0002
,
0000
0000
0000
0003
,
0100
1001
0000
0001
,
1000
0000
1000
0000
,
1000
0010
0100
0000
,
0010
1000
0100
0000
,
0010
1001
0000
0001
,
1000
0000
1000
0000
,
0100
1000
0010
0100
,
0200
0000
0300
0000
,
0001
0000
1000
0000
,
0001
1000
0001
0000
,
0020
0000
0000
0000
0000
0000
0000
0030
,
0000
0000
0001
1000
;

//---------------dance-single - ----------------
#NOTEDATA:;
#CHARTNAME:;
#STEPSTYPE:dance-single;
#DESCRIPTION:;
#CHARTSTYLE:;
#DIFFICULTY:Beginner;
#METER:2;
#RADARVALUES:0.094884,0.131892,0.075667,0.109297,0.000000,79.000000,70.000000,9.000000,13.000000,0.000000,0.000000,0.000000,0.000000,0.000000,0.094884,0.131892,0.075667,0.109297,0.000000,79.000000,70.000000,9.000000,13.000000,0.000000,0.000000,0.000000,0.000000,0.000000;
#CREDIT:;
#DISPLAYBPM:130.000000;
#NOTES:
0000
0000
0000
0000
,
0000
0000
0000
0000
,
0000
0000
0000
0000
,
0000
0000
0000
0000
,
1000
0000
0000
0000
,
0001
0000
0000
0000
,
1001
0000
0000
0000
,
0000
0000
0010
0010
,
0020
0000
0000
0000
,
0030
0000
0000
0000
,
0002
0000
0003
0000
,
2000
0000
3000
0000
,
0001
0000
0000
0000
,
1000
0000
0000
0000
,
0010
0000
0010
0000
,
0020
0000
0030
0000
,
0000
1001
0000
0000
,
1000
0000
0010
0000
,
1000
0000
0000
0000
,
0100
0000
0100
0000
,
0000
1001
0000
0000
,
1000
0000
0100
0000
,
1000
0000
0000
0000
,
0020
0000
0030
0000
,
0000
1001
0000
0000
,
0001
0000
0010
0000
,
0001
0000
0000
0000
,
0100
0000
0100
0000
,
0000
1001
0000
0000
,
0001
0000
0100
0000
,
0001
0000
0000
0000
,
0020
0000
0030
0000
,
0001
0000
0000
0000
,
0100
0000
0000
0000
,
0010
0000
0000
0000
,
1000
0000
0001
0000
,
1000
0000
0000
1001
,
0000
0000
0010
0000
,
0010
0000
0000
0000
,
0002
0000
0003
0000
,
0020
0000
0030
0000
,
0200
0000
0300
0000
,
0000
0000
1000
0000
,
2000
0000
0000
0000
,
3000
0000
0000
0000
,
0002
0000
0000
0000
,
0003
0000
0000
0000
,
1000
0000
0000
0000
,
0010
0000
0000
0000
,
0100
0000
0000
0000
,
0002
0000
0003
0000
,
0000
1001
0000
0000
,
1000
0000
0010
0000
,
0100
0000
0000
0000
,
0001
0000
0001
0000
,
0000
1001
0000
0000
,
0001
0000
0010
0000
,
0100
0000
0000
0000
,
2000
0000
3000
0000
,
0001
0000
0000
0000
,
1000
0000
0000
0000
,
1001
0000
0000
0000
,
0000
0000
0010
0010
;
