#VERSION:0.83;
#TITLE:BITE ME MORE PLS;
#SUBTITLE:;
#ARTIST:かめりあ feat. かめりあ;
#TITLETRANSLIT:;
#SUBTITLETRANSLIT:;
#ARTISTTRANSLIT:Camellia feat. Camellia;
#GENRE:Rock Drum & Bass;
#ORIGIN:;
#CREDIT:;
#BANNER:BITE ME MORE PLS.png;
#BACKGROUND:BITE ME MORE PLS-bg.png;
#PREVIEWVID:;
#JACKET:BITE ME MORE PLS-jacket.png;
#CDIMAGE:;
#DISCIMAGE:;
#LYRICSPATH:;
#CDTITLE:cdtitle.png;
#MUSIC:BITE ME MORE PLS.ogg;
#OFFSET:-1.186000;
#SAMPLESTART:56.186001;
#SAMPLELENGTH:11.034000;
#SELECTABLE:YES;
#BPMS:0.000=174.000;
#STOPS:;
#DELAYS:;
#WARPS:;
#TIMESIGNATURES:0.000=4=4;
#TICKCOUNTS:0.000=4;
#COMBOS:0.000=1;
#SPEEDS:0.000=1.000=0.000=0;
#SCROLLS:0.000=1.000,
94.000=2.000,
94.500=1.000,
95.000=0.500,
97.000=1.000,
224.000=0.500,
230.500=1.000;
#FAKES:;
#LABELS:0.000=Song Start;
#BGCHANGES:-1.000=BITE ME MORE PLS.mp4=1.000=1=0=1===CrossFade==,
304.000=BITE ME MORE PLS-bg.png=1.000=1=0=1===CrossFade==,
99999=-nosongbg-=1.000=0=0=0 // don't automatically add -songbackground-
;
#KEYSOUNDS:;
#ATTACKS:
;

//---------------dance-single - ----------------
#NOTEDATA:;
#CHARTNAME:;
#STEPSTYPE:dance-single;
#DESCRIPTION:;
#CHARTSTYLE:;
#DIFFICULTY:Hard;
#METER:15;
#RADARVALUES:0.713611,0.766248,0.494945,0.696589,0.329963,545.000000,491.000000,54.000000,76.000000,16.000000,0.000000,0.000000,0.000000,0.000000,0.713611,0.766248,0.494945,0.696589,0.329963,545.000000,491.000000,54.000000,76.000000,16.000000,0.000000,0.000000,0.000000,0.000000;
#CREDIT:;
#NOTES:
// measure 0
0000
0000
0000
0000
,  // measure 1
0000
0000
0000
0000
,  // measure 2
0000
0000
0000
0000
,  // measure 3
0000
0000
0000
0000
,  // measure 4
0000
0000
0000
0000
,  // measure 5
0000
0000
0000
0000
,  // measure 6
0000
0000
0000
0000
,  // measure 7
0000
0000
0000
0000
0000
0000
0000
1000
,  // measure 8
0020
0000
1030
1000
0002
0000
1003
1000
,  // measure 9
0100
0010
0100
0010
0001
1000
0010
0100
,  // measure 10
0202
0000
0303
0000
1000
0100
0010
0002
,  // measure 11
0010
0010
1000
0000
0103
0000
0100
0001
,  // measure 12
0020
0000
0031
0001
2000
0000
3001
0001
,  // measure 13
0100
0010
0100
0010
1000
0001
0010
0100
,  // measure 14
2200
0000
3300
0000
0001
0100
0010
2000
,  // measure 15
0010
0010
0001
0000
3100
0010
0001
1000
,  // measure 16
0001
0100
0001
0000
0100
0000
0020
0000
0000
0000
0130
0001
0100
0000
0001
0000
,  // measure 17
0010
0001
0100
0000
2002
0000
3003
0001
,  // measure 18
1000
0100
1000
0000
0100
0000
0020
0000
0000
0000
0130
1000
0100
0000
1000
0000
,  // measure 19
0010
1000
0100
0000
2002
0000
3003
0001
,  // measure 20
0100
0000
0010
1000
0010
0000
1000
0000
0100
0000
0010
0001
0010
0000
0001
0000
,  // measure 21
2001
0000
3010
1000
1002
0000
0013
0001
,  // measure 22
1000
0100
1000
0000
0001
0100
0001
0000
1000
0010
1000
0000
0001
0010
0002
0000
,  // measure 23
0010
0000
0010
0000
1000
0000
0000
0000
02M0
M000
00M0
M000
03M3
0000
0000
0000
,  // measure 24
2002
0000
0000
0000
3003
0000
0000
0000
0000
0000
0001
0100
0001
0000
1000
0000
,  // measure 25
0002
0000
1003
0100
1000
0000
0001
0000
2000
0000
3010
0000
1010
0000
0000
0000
,  // measure 26
0102
0000
0000
0000
1000
0000
1003
0000
0000
0000
0001
0010
0002
0000
0010
0000
,  // measure 27
1003
0000
0001
0100
0002
0000
0100
0000
1003
0000
0001
0000
0010
0000
0100
0000
,  // measure 28
2100
0000
0000
0000
0001
0000
3001
0000
0000
0000
1000
0010
2000
0000
0010
0000
,  // measure 29
3001
0000
1000
0100
2000
0000
0100
0000
3001
0000
1000
0000
1010
0000
0000
0000
,  // measure 30
0012
0000
0000
0000
1000
0000
1003
0000
0000
0000
0001
0100
0001
0000
1000
0100
,  // measure 31
2000
0000
3001
0010
0002
0000
1003
0010
,  // measure 32
2010
0000
0000
0000
0001
0000
3001
0000
0000
0000
1000
0100
2000
0000
0100
0000
,  // measure 33
3001
0000
1000
0010
2000
0000
0010
0000
3001
0000
1000
0000
0100
0000
0010
0000
,  // measure 34
0012
0000
0000
0000
1000
0000
1003
0000
0000
0000
0001
0100
0002
0000
0100
0000
,  // measure 35
1000
0000
0000
0000
0013
0100
1000
0000
0002
0000
0000
0000
1003
0000
0001
1000
,  // measure 36
0001
0100
0001
0100
0010
1000
0010
1000
,  // measure 37
0001
0010
0001
0010
0100
1000
0100
1000
,  // measure 38
0001
0000
1000
0010
1000
0000
0001
0010
0001
0000
1000
0010
1000
0000
0001
1000
,  // measure 39
0200
0000
0320
0000
0230
0000
0300
0000
0020
0000
0030
0000
0011
0000
1000
0010
,  // measure 40
1000
0010
0100
0002
0000
0103
0001
1000
,  // measure 41
0100
0000
1000
0000
0001
0000
0000
0000
0101
0000
0000
0000
1000
0000
0001
0010
,  // measure 42
0001
0010
0001
0200
0000
0301
0100
0010
,  // measure 43
1010
0000
1000
0000
1001
0000
0000
0000
1100
0000
0000
0000
1010
0000
0001
0010
,  // measure 44
0001
0010
0100
2000
0000
3100
1000
0001
,  // measure 45
0100
0000
0001
0000
1000
0000
0000
0000
1100
0000
0000
0000
0001
0000
1000
0010
,  // measure 46
1000
0010
1000
0200
0000
1300
0100
0010
,  // measure 47
0011
0001
1001
0000
0101
0000
1000
1010
,  // measure 48
1010
0000
0001
1000
0100
0010
0001
0011
,  // measure 49
0011
0000
1000
0001
0100
0010
1000
1010
,  // measure 50
1010
0000
0000
0000
0001
0000
1000
0100
1000
0000
0001
0100
0001
0000
0000
0000
,  // measure 51
0011
0001
1001
0000
0101
0000
1000
1100
,  // measure 52
1001
0000
0001
1000
0010
0100
0001
0101
,  // measure 53
1001
0000
1000
0001
0010
0100
1000
1100
,  // measure 54
1001
0000
0000
0000
0001
0000
1000
0010
1000
0000
0001
0010
0001
0000
0000
0000
,  // measure 55
2000
3002
2003
3000
2002
3003
0001
0100
,  // measure 56
0010
0000
0000
0000
0000
M000
000M
000M
,  // measure 57
000M
M000
0M00
00M0
000M
0000
0000
0000
000M
0000
0000
0000
000M
0000
0000
0000
000M
0000
0000
0000
1000
0000
0000
0000
1001
0000
0000
0000
0000
0000
0000
0000
,  // measure 58
0001
0010
0001
0000
1000
0100
1000
0000
0001
0100
0001
0000
1000
0010
1000
0000
,  // measure 59
0001
0010
0100
0010
0100
1000
0000
0000
,  // measure 60
2002
0000
3003
0000
0001
0000
0100
0000
0010
0000
0100
0001
0000
1000
0100
0000
,  // measure 61
0010
0000
0100
0000
1000
0000
0001
0100
0000
0010
1000
0000
0001
0000
0010
0000
,  // measure 62
0220
0330
0100
1000
0001
0100
0010
2000
,  // measure 63
0010
0000
0010
0000
0001
0000
0000
0000
3100
0000
1000
0010
1000
0000
0010
0000
,  // measure 64
2002
0000
3003
0000
1000
0000
0100
0000
0010
0000
0100
1000
0000
0001
0100
0000
,  // measure 65
0010
0000
0100
0000
0001
0000
1000
0100
0000
0010
0001
0000
1000
0000
0010
0000
,  // measure 66
0210
0000
0000
0302
0000
0000
2003
0000
0000
3200
0000
0000
0310
0000
0002
0000
,  // measure 67
0010
0010
1000
0000
0200
0000
0303
0000
,  // measure 68
0002
0000
1003
0010
1000
0000
0002
0000
1003
0010
1000
0000
0200
0000
0300
0000
,  // measure 69
0010
0000
0100
0010
0001
0000
1000
0000
1010
0000
0000
0000
0101
0000
0001
0000
,  // measure 70
2000
0000
3001
0010
0001
0000
2000
0000
3001
0010
0001
0000
0100
0000
0200
0000
,  // measure 71
0000
0320
0000
0000
2030
0000
0000
3002
0000
0000
0023
0000
0000
0000
0030
0000
,  // measure 72
0011
0000
0000
1000
0010
0000
1010
0000
0000
0001
0100
0000
0101
0000
0000
1000
,  // measure 73
0100
0000
1100
0000
0000
0001
0010
0000
0011
0000
0000
1000
0000
1000
0000
0000
,  // measure 74
0001
0000
1000
0010
1000
0000
0001
0010
0001
0000
1000
0100
1000
0000
0001
0100
,  // measure 75
0002
1000
1000
0000
0013
0000
0011
0000
,  // measure 76
1010
0000
0000
0000
;

//---------------dance-single - ----------------
#NOTEDATA:;
#CHARTNAME:;
#STEPSTYPE:dance-single;
#DESCRIPTION:;
#CHARTSTYLE:;
#DIFFICULTY:Challenge;
#METER:17;
#RADARVALUES:0.944062,1.079714,0.586602,0.623264,0.980725,721.000000,657.000000,64.000000,68.000000,16.000000,0.000000,0.000000,0.000000,0.000000,0.944062,1.079714,0.586602,0.623264,0.980725,721.000000,657.000000,64.000000,68.000000,16.000000,0.000000,0.000000,0.000000,0.000000;
#CREDIT:;
#NOTES:
// measure 0
0000
0000
0000
0000
,  // measure 1
0000
0000
0000
0000
,  // measure 2
0000
0000
0000
0000
,  // measure 3
0000
0000
0000
0000
,  // measure 4
0000
0000
0000
0000
,  // measure 5
0000
0000
0000
0000
,  // measure 6
0000
0000
0000
0000
,  // measure 7
0000
0000
0000
0000
0000
0000
0000
0001
,  // measure 8
0011
0010
0100
1000
1010
0010
0100
0001
,  // measure 9
1001
1000
0100
0010
0011
0001
1001
0001
,  // measure 10
0202
0000
0303
0000
1000
0010
0100
0002
,  // measure 11
1000
1000
0020
0030
2000
3003
0001
1000
,  // measure 12
1010
0010
0100
0001
0011
0010
0100
1000
,  // measure 13
1001
0001
0100
0010
1010
1000
1001
1000
,  // measure 14
2200
0000
0000
0000
3300
0000
0000
0000
1000
0000
0001
0100
0001
1000
0100
2000
,  // measure 15
0001
0000
0001
0000
0020
0000
0030
0000
3002
0000
1003
0100
0010
0001
0010
0100
,  // measure 16
1000
0001
1000
0000
0001
1000
0001
0000
0000
0000
1000
0001
0100
0001
1000
0000
,  // measure 17
0000
0000
0001
1000
0100
1000
0001
0000
1000
0010
0100
0010
0100
0001
1000
0000
,  // measure 18
0001
0010
0100
0000
1000
0010
0100
0000
0000
0000
0001
0010
0100
1000
0001
0000
,  // measure 19
0000
0000
1000
0010
0100
0000
0001
0000
1000
0100
0010
0100
0010
0001
1000
0000
,  // measure 20
0001
0100
0001
0000
1000
0100
1000
0000
0001
0010
0001
0000
1000
0010
1000
0000
,  // measure 21
0001
0010
0100
1000
0100
1000
0001
0000
1000
0010
0100
0001
0100
0001
1000
0000
,  // measure 22
0001
0010
0001
1000
0010
1000
0001
1000
0100
0010
0001
1000
0010
0100
0001
2000
,  // measure 23
0100
0000
0100
0000
3001
1000
0001
1000
0M20
0M00
0M00
0M00
0M30
0000
0000
0000
,  // measure 24
2002
0000
0000
0000
3003
0000
0000
0000
0000
0000
1000
0100
1000
0100
1000
0100
,  // measure 25
0020
0000
0031
0100
0001
0100
0001
0100
0020
0000
1030
0001
1000
0000
0000
0000
,  // measure 26
2001
0000
0000
0000
3100
0000
0010
0001
0000
0010
0001
0100
0010
1000
0010
2000
,  // measure 27
0001
0000
3010
1000
0010
1000
0010
2000
0001
0000
3100
0000
0010
0000
0001
0000
,  // measure 28
1002
0000
0000
0000
0103
0000
0010
1000
0000
0010
1000
0100
0010
0001
0010
0002
,  // measure 29
1000
0000
0013
0001
0010
0001
0010
0002
1000
0000
0103
0010
1000
0000
0001
0000
,  // measure 30
2001
0000
0000
0000
3100
0000
1000
0100
0010
0000
0001
0100
0010
1000
0001
1000
,  // measure 31
0200
0000
0000
0000
0310
0001
1000
0001
0200
0000
0000
0000
0310
1000
0010
1000
,  // measure 32
0002
0000
0000
0000
0013
0000
0100
1000
0000
0100
1000
0010
0100
0001
0100
0002
,  // measure 33
1000
0000
0103
0001
0100
0001
0100
0002
1000
0000
0013
0100
1000
0000
0001
0000
,  // measure 34
2001
0000
0000
0000
3010
0000
0100
0001
0000
0100
0001
0010
0100
1000
0001
1000
,  // measure 35
0100
1000
0001
1000
0100
1000
0001
2000
0010
0000
0001
0000
3100
0000
0000
0000
,  // measure 36
0110
0000
0010
0100
1000
0000
0100
1000
0001
0000
1000
0001
0100
0000
0010
0100
,  // measure 37
0001
0000
0100
0001
1000
0000
0001
1000
0100
0000
0010
0001
1000
0000
0001
0100
,  // measure 38
0010
1000
0001
1000
0100
1000
0001
0100
0001
0010
0100
1000
0001
0100
0010
2000
,  // measure 39
0001
0000
0001
0000
0200
0000
0300
0000
0002
0000
3003
0000
1001
0000
0001
0100
,  // measure 40
0010
0000
1000
0000
1000
0000
0010
1000
0001
1000
0100
0000
0010
0000
0001
0000
,  // measure 41
0011
0000
0001
0000
1001
0000
0000
0000
0101
0000
0100
0010
1000
0000
0001
0000
,  // measure 42
1000
0000
0100
0000
0010
0000
0100
1000
0001
1000
0010
0000
1000
0000
2000
0000
,  // measure 43
0010
0000
0100
0000
3010
0000
0000
0000
1010
0000
0000
0000
1001
0000
1000
0100
,  // measure 44
0010
0000
0001
0000
0001
0000
0010
0001
1000
0001
0100
0000
0010
0000
1000
0000
,  // measure 45
1010
0000
1000
0000
1001
0000
0000
0000
1100
0000
0100
0010
0001
0000
1000
0000
,  // measure 46
0001
0000
0100
0000
0010
0000
0100
0001
1000
0001
0010
0000
0001
0000
0002
0000
,  // measure 47
0010
0100
0013
0000
0011
0000
0001
0101
,  // measure 48
1100
0000
0000
0000
1000
0000
0001
0100
0010
1000
0001
0000
1000
0000
1100
0000
,  // measure 49
0101
0000
0000
0000
0001
0000
1000
0100
0010
0001
1000
0000
0001
0000
0101
0000
,  // measure 50
1100
0000
0000
0000
0001
0000
1000
0010
1000
0001
0010
0000
0100
0000
2000
0000
,  // measure 51
0100
0010
3100
0000
1100
0000
1000
1010
,  // measure 52
0011
0000
0000
0000
1000
0000
0010
0100
0001
1000
0100
0000
0010
0000
0011
0000
,  // measure 53
1010
0000
0000
0000
0001
0000
0010
0100
1000
0001
0100
0000
0010
0000
1010
0000
,  // measure 54
0011
0000
0000
0000
1000
0001
0100
0000
0001
1000
0001
1000
0100
0000
0010
0002
,  // measure 55
0100
0100
0020
0033
0202
0303
0001
0010
,  // measure 56
1100
0000
0000
0000
0000
M000
000M
000M
,  // measure 57
000M
M000
0M00
00M0
000M
0000
0000
0000
000M
0000
0000
0000
000M
0000
0000
0000
000M
0000
0000
0000
1000
0000
0000
0000
1001
0000
0000
0000
0000
0000
0000
0000
,  // measure 58
0001
0100
0010
1000
0001
0010
0100
1000
0001
0100
0010
1000
0001
1000
0100
0010
,  // measure 59
0002
1000
1000
1000
1000
1003
0000
0000
,  // measure 60
2002
0000
3003
0000
0001
0010
0100
1000
0000
0001
1000
0010
0000
0010
0100
0001
,  // measure 61
0000
1000
0001
0010
0000
0100
1000
0010
0000
0010
0100
0001
0000
1000
0100
0000
,  // measure 62
0220
0000
0330
0000
0001
0010
0001
1000
0000
0001
0100
0001
1000
0000
0002
0000
,  // measure 63
0010
0000
0010
0000
2003
0000
3010
0100
0002
0000
0003
0000
1002
0000
0013
0000
,  // measure 64
2001
0000
3010
0000
1000
0010
0100
0001
0000
1000
0001
0010
0000
0010
0100
1000
,  // measure 65
0000
0001
1000
0010
0000
0100
0001
0010
0000
0010
0100
1000
0000
0001
0100
0000
,  // measure 66
0110
0000
0000
1010
0000
0000
1001
0000
0000
0011
0000
0000
1001
0000
2000
0000
,  // measure 67
0010
0000
0010
0000
0002
0000
0003
0000
3200
0000
1300
0100
0010
0001
1000
0001
,  // measure 68
0020
0000
0130
1000
0001
1000
0020
0000
0130
0001
1000
0001
0020
0000
0130
1000
,  // measure 69
0001
1000
0010
1000
0200
0000
0310
0001
2000
0000
3010
0100
0002
0000
1003
0001
,  // measure 70
2000
0000
3100
0010
0100
1000
0002
0000
0103
0010
0100
0001
2000
0000
3100
0000
,  // measure 71
0000
0011
0000
0000
1100
0000
0000
1010
0000
0000
0202
0000
0000
0000
0303
0000
,  // measure 72
1001
0000
0001
0010
0100
0000
1100
0000
0100
1000
0001
0000
1001
0000
1000
0010
,  // measure 73
0100
0000
0101
0000
0100
0001
1000
0000
1001
0000
0002
0010
0000
1000
0000
0000
,  // measure 74
0103
0010
1000
0001
0010
0100
1000
0001
1000
0010
0100
0001
0010
0100
1000
0002
,  // measure 75
0100
0100
2000
3000
0020
0033
1100
0000
,  // measure 76
0101
0000
0000
0000
;

//---------------dance-single - ----------------
#NOTEDATA:;
#CHARTNAME:;
#STEPSTYPE:dance-single;
#DESCRIPTION:;
#CHARTSTYLE:;
#DIFFICULTY:Medium;
#METER:11;
#RADARVALUES:0.510658,0.557272,0.357460,0.614099,0.041245,390.000000,351.000000,39.000000,67.000000,16.000000,0.000000,0.000000,0.000000,0.000000,0.510658,0.557272,0.357460,0.614099,0.041245,390.000000,351.000000,39.000000,67.000000,16.000000,0.000000,0.000000,0.000000,0.000000;
#CREDIT:;
#NOTES:
// measure 0
0000
0000
0000
0000
,  // measure 1
0000
0000
0000
0000
,  // measure 2
0000
0000
0000
0000
,  // measure 3
0000
0000
0000
0000
,  // measure 4
0000
0000
0000
0000
,  // measure 5
0000
0000
0000
0000
,  // measure 6
0000
0000
0000
0000
,  // measure 7
0000
0000
0000
0000
,  // measure 8
0011
0001
1001
0001
,  // measure 9
0101
0000
1000
0000
0010
0100
0010
0100
,  // measure 10
0002
0000
0003
0000
1000
0000
0001
0010
,  // measure 11
0100
1000
0002
0003
2000
3000
0000
0000
,  // measure 12
1010
1000
1001
1000
,  // measure 13
1100
0000
0001
0000
0010
0100
0010
0100
,  // measure 14
2000
0000
3000
0000
0001
0000
1000
0010
,  // measure 15
0100
0001
2000
3000
0002
1003
0001
0000
,  // measure 16
1001
0000
1001
0000
0000
0001
1000
0100
,  // measure 17
0000
1000
0100
0000
0010
0000
0001
0000
,  // measure 18
1001
0000
1001
0000
0000
1000
0001
0100
,  // measure 19
0000
0001
0100
0000
0010
0000
1000
0000
,  // measure 20
0001
0010
0001
0000
1000
0010
1000
0000
,  // measure 21
0001
0100
0001
0000
1000
0100
1000
0000
,  // measure 22
0001
0100
0010
2000
0000
3100
0010
0001
,  // measure 23
1000
0000
0001
0000
0200
0000
0000
0000
002M
M000
000M
M000
033M
0000
0000
0000
,  // measure 24
2002
3003
0000
2000
,  // measure 25
0010
3002
0010
1003
,  // measure 26
1002
0000
0103
0100
0000
0001
0010
0002
,  // measure 27
1000
0000
0013
0002
1000
0000
0103
0000
,  // measure 28
2001
0000
3100
0100
0000
1000
0010
2000
,  // measure 29
0001
0000
3010
2000
0001
0000
3100
0000
,  // measure 30
1002
0000
0103
0100
0000
0001
0100
0010
,  // measure 31
2000
3001
0002
1003
,  // measure 32
1002
0000
0013
0010
0000
0001
0100
0002
,  // measure 33
1000
0000
0103
0002
1000
0000
0013
0000
,  // measure 34
2001
0000
3010
0010
0000
1000
0100
1000
,  // measure 35
0100
0010
0002
0000
0010
0000
1003
0010
,  // measure 36
0100
0000
0100
0000
0100
0000
0010
0100
,  // measure 37
0001
0000
0001
0000
0001
0000
0100
0001
,  // measure 38
0010
0100
0010
0100
1000
0001
1000
0001
,  // measure 39
0200
0000
0300
0110
,  // measure 40
1000
0010
0100
0001
0000
0100
0001
0000
,  // measure 41
1000
0100
0010
0000
0110
0000
0000
0001
,  // measure 42
0010
0001
1000
0010
0000
0100
0002
0000
,  // measure 43
1000
1000
1000
0000
0013
0000
0000
0010
,  // measure 44
0001
0010
0100
1000
0000
0100
1000
0000
,  // measure 45
0001
0100
0010
0000
0110
0000
0000
1000
,  // measure 46
0010
1000
0001
0010
0000
0100
2000
0000
,  // measure 47
0001
0001
0001
0000
3010
0000
0000
1000
,  // measure 48
1010
0000
0001
1000
0001
2000
0000
3001
,  // measure 49
0011
0000
1000
0001
1000
0002
0000
1003
,  // measure 50
1010
0000
0001
0100
0001
0100
0002
0000
,  // measure 51
1000
1000
1000
0000
0013
0000
0000
0001
,  // measure 52
1001
0000
1000
0100
0010
0002
0000
1003
,  // measure 53
1001
0000
0001
0100
0010
2000
0000
3001
,  // measure 54
1001
0000
1000
0100
0010
0001
1000
0000
,  // measure 55
0002
0203
0320
0030
0220
0330
1000
0000
,  // measure 56
1001
0000
0000
0000
0000
M000
000M
000M
,  // measure 57
000M
M000
0M00
00M0
000M
0000
0000
0000
000M
0000
0000
0000
000M
0000
0000
0000
000M
0000
0000
0000
1000
0000
0000
0000
1001
0000
0000
0000
0000
0000
0000
0000
,  // measure 58
0001
0010
0100
0000
0010
0100
1000
0000
,  // measure 59
0001
0100
0001
0100
0010
1000
0000
0000
,  // measure 60
1002
0000
0103
0000
0100
0001
0010
0001
,  // measure 61
0100
0000
0100
0001
0010
0001
0100
0000
,  // measure 62
1002
0000
0013
0000
0100
1000
0001
1000
,  // measure 63
0010
0100
0020
0030
0200
0300
0110
0000
,  // measure 64
2001
0000
3100
0000
0100
1000
0010
1000
,  // measure 65
0100
0000
0100
1000
0010
1000
0100
0000
,  // measure 66
2000
0000
0000
3020
0000
0000
0230
0000
0000
0302
0000
0000
1003
0000
0001
0000
,  // measure 67
0020
0000
0000
0030
,  // measure 68
0001
0010
0001
1000
0010
1000
0100
0000
,  // measure 69
0010
0100
1000
0001
0100
0000
0010
0000
,  // measure 70
1000
0010
1000
0001
0010
0001
0100
0020
,  // measure 71
0000
2030
0000
0000
3002
0000
0000
2003
0000
0000
3200
0000
0000
0300
0000
0000
,  // measure 72
0022
0000
0000
0033
0000
0000
2002
0000
0000
3003
0000
0000
2020
0000
0000
3030
,  // measure 73
0000
0000
2002
0000
0000
3003
0000
0000
0022
0000
0000
0033
0000
0000
0000
0000
,  // measure 74
1000
0010
0100
0001
0010
0100
1000
0001
,  // measure 75
0100
0010
0200
0300
0020
0030
0101
0000
,  // measure 76
1100
0000
0000
0000
;

//---------------dance-single - ----------------
#NOTEDATA:;
#CHARTNAME:;
#STEPSTYPE:dance-single;
#DESCRIPTION:;
#CHARTSTYLE:;
#DIFFICULTY:Easy;
#METER:8;
#RADARVALUES:0.381029,0.452783,0.274970,0.540773,0.004583,291.000000,261.000000,30.000000,59.000000,0.000000,0.000000,0.000000,0.000000,0.000000,0.381029,0.452783,0.274970,0.540773,0.004583,291.000000,261.000000,30.000000,59.000000,0.000000,0.000000,0.000000,0.000000,0.000000;
#CREDIT:;
#OFFSET:-1.186000;
#BPMS:0.000000=174.000000
;
#STOPS:;
#DELAYS:;
#WARPS:;
#TIMESIGNATURES:0.000000=4=4
;
#TICKCOUNTS:0.000000=4
;
#COMBOS:0.000000=1
;
#SPEEDS:0.000000=1.000000=0.000000=0
;
#SCROLLS:0.000000=1.000000
;
#FAKES:;
#LABELS:0.000000=Song Start
;
#NOTES:
// measure 0
0000
0000
0000
0000
,  // measure 1
0000
0000
0000
0000
,  // measure 2
0000
0000
0000
0000
,  // measure 3
0000
0000
0000
0000
,  // measure 4
0000
0000
0000
0000
,  // measure 5
0000
0000
0000
0000
,  // measure 6
0000
0000
0000
0000
,  // measure 7
0000
0000
0000
0000
,  // measure 8
0001
0010
0001
1000
,  // measure 9
0001
0000
0100
0000
0001
1000
0001
0000
,  // measure 10
0020
0030
0010
0100
,  // measure 11
1000
0001
2000
3000
0002
0003
0000
0000
,  // measure 12
1000
0010
1000
0001
,  // measure 13
1000
0000
0100
0000
1000
0001
1000
0000
,  // measure 14
0020
0030
0010
0100
,  // measure 15
0001
1000
0002
0003
2000
3000
0001
0000
,  // measure 16
0010
0000
0010
0000
0000
0001
0000
0001
,  // measure 17
0000
0010
0100
1000
,  // measure 18
0010
0000
0010
0000
0000
1000
0000
1000
,  // measure 19
0000
0010
0100
0001
,  // measure 20
1000
0100
0010
0001
,  // measure 21
0010
0100
1000
0001
,  // measure 22
0100
0010
0100
0010
,  // measure 23
1000
0001
1000
0000
0200
0000
0300
0000
,  // measure 24
0110
0000
0000
0002
,  // measure 25
1003
2000
3001
0011
,  // measure 26
2200
0000
3300
0000
0000
0001
0200
0000
,  // measure 27
0310
2000
3001
0110
,  // measure 28
2002
0000
3003
0000
0000
1000
0200
0000
,  // measure 29
0310
0002
1003
1010
,  // measure 30
0202
0000
0303
0000
0000
0001
2000
0000
,  // measure 31
0100
3002
0100
1003
,  // measure 32
2002
0000
3003
0000
0000
0001
0020
0000
,  // measure 33
0130
2000
3001
0101
,  // measure 34
2020
0000
3030
0000
0000
2000
0010
0000
,  // measure 35
3001
1000
0002
0003
2000
3000
0100
0000
,  // measure 36
0010
0010
0001
0100
,  // measure 37
0010
0010
1000
0100
,  // measure 38
0010
0000
0001
0000
1000
0001
1000
0000
,  // measure 39
0020
0000
0030
1010
,  // measure 40
0001
0000
1000
0100
0000
1000
0100
0000
,  // measure 41
0010
0001
1001
0000
,  // measure 42
0001
0000
0100
0010
0000
1000
0001
0000
,  // measure 43
0010
0100
0010
0000
0110
0000
0000
0000
,  // measure 44
1000
0000
0001
0100
0000
0001
0100
0000
,  // measure 45
0010
1000
1001
0000
,  // measure 46
1000
0000
0100
0010
0000
0001
1000
0000
,  // measure 47
0010
0100
0010
0000
0110
0000
0000
2000
,  // measure 48
0010
0000
0001
0000
3001
0000
0000
0002
,  // measure 49
0010
0000
1000
0000
1003
0000
0000
2000
,  // measure 50
0010
0001
3001
0000
,  // measure 51
0010
0100
0010
0000
1001
0000
0000
0002
,  // measure 52
0100
0000
1000
0000
1003
0000
0000
2000
,  // measure 53
0100
0000
0001
0000
3001
0000
0000
0002
,  // measure 54
0100
1000
1003
0000
,  // measure 55
0001
1000
0001
0000
0101
0000
0000
0000
,  // measure 56
1100
0000
0000
0000
,  // measure 57
0000
0000
0000
1001
,  // measure 58
1000
0010
0100
0002
,  // measure 59
1000
1000
1003
0000
,  // measure 60
1002
0000
0013
0000
0100
0000
1000
0001
,  // measure 61
1000
0000
0100
0000
1000
0001
1000
0000
,  // measure 62
0020
0000
0130
0000
0001
1000
0100
0000
,  // measure 63
0010
0001
2000
3000
0002
0003
1000
0000
,  // measure 64
2001
0000
3010
0000
0100
0000
0001
1000
,  // measure 65
0001
0000
0100
0000
0001
1000
0001
0000
,  // measure 66
0020
0000
0000
0030
0000
0000
0200
0000
0000
0300
0000
0000
1000
0000
0001
0000
,  // measure 67
2000
0000
0000
3000
,  // measure 68
1010
0000
0001
0100
0000
0010
1000
0000
,  // measure 69
0001
0000
1000
0001
1000
0000
0100
0000
,  // measure 70
0011
0000
1000
0100
0000
0010
0001
0000
,  // measure 71
0000
0200
0000
0000
0000
0000
0000
0000
0000
0000
0300
0000
0000
0000
0000
0000
,  // measure 72
2020
0000
0000
3030
0000
0000
2002
0000
0000
3003
0000
0000
0022
0000
0000
0033
,  // measure 73
0000
0000
2002
0000
0000
3003
0000
0000
2020
0000
0000
3030
0000
0000
0000
0000
,  // measure 74
0001
0010
0100
1000
,  // measure 75
0001
1000
0002
0003
2000
3000
1010
0000
,  // measure 76
0101
0000
0000
0000
;

//---------------dance-single - ----------------
#NOTEDATA:;
#CHARTNAME:;
#STEPSTYPE:dance-single;
#DESCRIPTION:;
#CHARTSTYLE:;
#DIFFICULTY:Beginner;
#METER:5;
#RADARVALUES:0.206882,0.278636,0.091657,0.183313,0.000000,158.000000,148.000000,10.000000,20.000000,0.000000,0.000000,0.000000,0.000000,0.000000,0.206882,0.278636,0.091657,0.183313,0.000000,158.000000,148.000000,10.000000,20.000000,0.000000,0.000000,0.000000,0.000000,0.000000;
#CREDIT:;
#OFFSET:-1.186000;
#BPMS:0.000000=174.000000
;
#STOPS:;
#DELAYS:;
#WARPS:;
#TIMESIGNATURES:0.000000=4=4
;
#TICKCOUNTS:0.000000=4
;
#COMBOS:0.000000=1
;
#SPEEDS:0.000000=1.000000=0.000000=0
;
#SCROLLS:0.000000=1.000000
;
#FAKES:;
#LABELS:0.000000=Song Start
;
#NOTES:
// measure 0
0000
0000
0000
0000
,  // measure 1
0000
0000
0000
0000
,  // measure 2
0000
0000
0000
0000
,  // measure 3
0000
0000
0000
0000
,  // measure 4
0000
0000
0000
0000
,  // measure 5
0000
0000
0000
0000
,  // measure 6
0000
0000
0000
0000
,  // measure 7
0000
0000
0000
0000
,  // measure 8
0001
0000
0010
0000
,  // measure 9
0100
0000
1000
1000
,  // measure 10
2000
0000
3000
0000
,  // measure 11
0001
1000
0001
0000
,  // measure 12
1000
0000
0010
0000
,  // measure 13
0100
0000
0001
0001
,  // measure 14
0002
0000
0003
0000
,  // measure 15
1000
0001
1000
0000
,  // measure 16
0100
0000
0000
0100
,  // measure 17
0000
0100
0100
0000
,  // measure 18
0010
0000
0000
0010
,  // measure 19
0000
0010
0010
0000
,  // measure 20
0001
0000
0001
0000
,  // measure 21
1000
0000
1000
0000
,  // measure 22
0010
0000
0010
0000
,  // measure 23
1000
0001
2000
3000
,  // measure 24
0100
0000
0000
0000
,  // measure 25
0000
0000
0000
1000
,  // measure 26
2000
3000
0000
0001
,  // measure 27
0001
0000
0010
0001
,  // measure 28
0002
0003
0000
1000
,  // measure 29
1000
0000
0010
1000
,  // measure 30
2000
3000
0000
0100
,  // measure 31
0100
0000
0010
0000
,  // measure 32
0002
0003
0000
1000
,  // measure 33
1000
0000
0100
1000
,  // measure 34
2000
3000
0000
0001
,  // measure 35
0002
0000
0103
0000
,  // measure 36
0001
0000
0010
0000
,  // measure 37
0100
0000
1000
0000
,  // measure 38
0010
0100
0010
0000
,  // measure 39
0200
0000
0300
0000
,  // measure 40
0001
0000
1000
0000
,  // measure 41
0001
0010
0001
0000
,  // measure 42
1000
0000
0001
0000
,  // measure 43
0100
0100
0010
0000
,  // measure 44
1000
0000
0001
0000
,  // measure 45
1000
0010
1000
0000
,  // measure 46
0001
0000
1000
0000
,  // measure 47
0100
0100
0010
0000
,  // measure 48
0110
0000
1000
0000
,  // measure 49
0110
0000
1000
0000
,  // measure 50
0110
0000
0001
0000
,  // measure 51
0100
0100
0010
0000
,  // measure 52
0110
0000
0001
0000
,  // measure 53
0110
0000
0001
0000
,  // measure 54
0110
0000
1000
0000
,  // measure 55
0001
0000
0001
1000
,  // measure 56
0100
0000
0000
0000
,  // measure 57
0000
0000
0000
1000
,  // measure 58
2000
0000
3020
0000
,  // measure 59
0230
0000
0301
0000
,  // measure 60
1000
0000
0100
0000
,  // measure 61
1000
0000
0010
0000
,  // measure 62
1000
0000
0100
0000
,  // measure 63
1000
0010
1000
0000
,  // measure 64
0001
0000
0010
0000
,  // measure 65
0001
0000
0100
0000
,  // measure 66
0002
0000
0003
0100
,  // measure 67
0020
0000
0030
0000
,  // measure 68
1000
0010
1000
0000
,  // measure 69
0001
0010
0001
0000
,  // measure 70
1000
0010
1000
0000
,  // measure 71
0200
0000
0000
0000
0000
0300
0000
0000
,  // measure 72
0220
0000
0000
0330
0000
0000
2002
0000
,  // measure 73
0000
3003
0000
0000
1001
0000
0000
0000
,  // measure 74
0001
0100
0010
0000
,  // measure 75
1000
0100
0010
0000
,  // measure 76
0110
0000
0000
0000
;
